<?xml version="1.0" standalone="no"?>
<!DOCTYPE svg PUBLIC "-//W3C//DTD SVG 1.1//EN" "http://www.w3.org/Graphics/SVG/1.1/DTD/svg11.dtd" >
<svg xmlns="http://www.w3.org/2000/svg" xmlns:xlink="http://www.w3.org/1999/xlink" version="1.1">
<metadata>
Created by FontForge 20200427 at Thu Nov 29 17:58:27 2012
 By www
Copyright 2012 Google Inc. All Rights Reserved.
</metadata>
<defs>
<font id="NotoSerif" horiz-adv-x="0" >
  <font-face 
    font-family="Noto Serif"
    font-weight="400"
    font-stretch="normal"
    units-per-em="2048"
    panose-1="2 2 6 0 6 5 0 2 2 0"
    ascent="1638"
    descent="-410"
    x-height="1098"
    cap-height="1462"
    bbox="-1143 -512 2787 2146"
    underline-thickness="102"
    underline-position="-409"
    unicode-range="U+000D-FFFD"
    descenders="gjpqyJQ"
    invert="1"
    licence="Noto Serif - http://www.onlinewebfonts.com oNline Web Fonts"
  />
<missing-glyph horiz-adv-x="1024" 
d="M102 0v1462h820v-1462h-820zM201 98h622v1266h-622v-1266z" />
    <glyph glyph-name=".notdef" horiz-adv-x="1024" 
d="M102 0v1462h820v-1462h-820zM201 98h622v1266h-622v-1266z" />
    <glyph glyph-name="glyph1" 
 />
    <glyph glyph-name="glyph1" 
 />
    <glyph glyph-name="uni000D" unicode="&#xd;" horiz-adv-x="1044" 
 />
    <glyph glyph-name="space" unicode=" " horiz-adv-x="532" 
 />
    <glyph glyph-name="exclam" unicode="!" horiz-adv-x="682" 
d="M221 1462h238l-72 -1050h-94zM211 125q0 40 10 66.5t27.5 42.5t41 23t50.5 7q26 0 49.5 -7t41 -23t28 -42.5t10.5 -66.5q0 -39 -10.5 -66t-28 -43t-41 -23t-49.5 -7q-27 0 -50.5 7t-41 23t-27.5 43t-10 66z" />
    <glyph glyph-name="quotedbl" unicode="&#x22;" horiz-adv-x="836" 
d="M502 1462h217l-62 -481h-94zM117 1462h217l-62 -481h-94z" />
    <glyph glyph-name="numbersign" unicode="#" horiz-adv-x="1145" 
d="M387 537h285l76 401h-285zM1028 537v-121h-258l-78 -416h-123l78 416h-285l-77 -416h-123l78 416h-189v121h211l78 401h-223v121h245l74 403h125l-76 -403h285l76 403h123l-76 -403h201v-121h-224l-75 -401h233z" />
    <glyph glyph-name="dollar" unicode="$" horiz-adv-x="1145" 
d="M621 1401q92 -2 156.5 -20.5t105.5 -49t59.5 -71.5t18.5 -89q0 -66 -44 -99.5t-118 -33.5q0 45 -7.5 90.5t-27 83t-54.5 63.5t-89 32v-478q92 -40 163 -80t119 -86.5t73 -103t25 -129.5q0 -154 -99 -239.5t-281 -104.5v-248h-103v244q-51 0 -103 4.5t-101.5 15t-95 26.5
t-83.5 38v315h86q0 -57 21.5 -110.5t61 -96t94 -70t120.5 -32.5v506q-96 43 -162.5 85t-107.5 88.5t-59.5 100.5t-18.5 121q0 69 24.5 125t69.5 97.5t109.5 67t144.5 34.5v159h103v-155zM813 399q0 41 -10 73.5t-33 60.5t-59.5 52t-89.5 48v-455q92 16 142 74.5t50 146.5z
M354 1090q0 -43 10.5 -75.5t31.5 -57.5t51.5 -45t70.5 -38v429q-40 -9 -71 -28.5t-51.5 -47t-31 -62.5t-10.5 -75z" />
    <glyph glyph-name="percent" unicode="%" horiz-adv-x="1835" 
d="M764 1030q0 -103 -21 -187t-63 -144t-105 -93t-147 -33q-88 0 -151.5 33t-104.5 93t-60.5 144t-19.5 187t19.5 186.5t60.5 143t105 91.5t153 32q84 0 146.5 -32t104 -91.5t62.5 -143t21 -186.5zM276 1030q0 -88 8 -157.5t26 -117.5t47 -73t71 -25t71 25t46.5 73t25 117.5
t7.5 157.5q0 87 -7.5 155t-25 115.5t-45.5 72t-70 24.5t-71.5 -24.5t-48 -72t-26.5 -115.5t-8 -155zM1743 436q0 -103 -21 -187t-63 -144t-105 -92.5t-147 -32.5q-88 0 -152 32.5t-104.5 92.5t-60 144t-19.5 187t19.5 186.5t60.5 143t105 91.5t153 32q84 0 146.5 -32
t104 -91.5t62.5 -143t21 -186.5zM1255 436q0 -88 8 -157.5t26 -117.5t47 -73t71 -25t71 25t46 73t24.5 117.5t7.5 157.5q0 87 -7.5 155t-24.5 115.5t-45 72t-70 24.5t-71.5 -24.5t-48 -72t-26.5 -115.5t-8 -155zM616 0h-135l731 1462h134z" />
    <glyph glyph-name="ampersand" unicode="&#x26;" horiz-adv-x="1520" 
d="M1174 0l-170 180q-37 -42 -81.5 -78.5t-98.5 -63.5t-119.5 -42.5t-143.5 -15.5q-123 0 -214.5 31t-152 87.5t-90.5 135.5t-30 176q0 87 23.5 151.5t66 113.5t103 86t134.5 68q-39 46 -68.5 88.5t-49 84.5t-29.5 86t-10 94q0 68 22 123t69 95t120.5 61.5t175.5 21.5
q98 0 167 -23t112.5 -63t63 -93t19.5 -112q0 -66 -19 -117t-60.5 -94t-107 -81.5t-159.5 -78.5l373 -395q14 46 23 93.5t14.5 93t7.5 89t2 80.5v80h369v-86h-19q-34 0 -67 -4t-61.5 -18.5t-51 -42t-35.5 -74.5q-18 -66 -41.5 -143t-58.5 -154l190 -203q15 -15 31 -25
t37.5 -16t51 -8t71.5 -2h18v-86h-327zM580 94q60 0 111.5 12.5t94.5 34.5t79 52.5t65 66.5l-453 485q-47 -26 -84.5 -57.5t-64 -73t-40.5 -93.5t-14 -118q0 -75 22 -132.5t62.5 -97t96.5 -59.5t125 -20zM813 1190q0 41 -10 76t-32.5 60.5t-59 40.5t-88.5 15q-91 0 -140 -53
t-49 -141q0 -39 8 -73t25.5 -67.5t44.5 -69.5t66 -79q60 26 104.5 55t73.5 63.5t43 76.5t14 96z" />
    <glyph glyph-name="quotesingle" unicode="'" horiz-adv-x="451" 
d="M117 1462h217l-62 -481h-94z" />
    <glyph glyph-name="parenleft" unicode="(" horiz-adv-x="709" 
d="M330 649q0 -122 9.5 -241t41.5 -225.5t94.5 -196.5t167.5 -154v-94q-141 56 -241 136t-163.5 190.5t-92.5 255t-29 329.5t29 328.5t92.5 253.5t163.5 189.5t241 135.5v-92q-105 -64 -167.5 -153.5t-94.5 -195.5t-41.5 -225t-9.5 -241z" />
    <glyph glyph-name="parenright" unicode=")" horiz-adv-x="709" 
d="M379 649q0 122 -9.5 241t-42 225t-94.5 195.5t-167 153.5v92q141 -56 241 -135.5t163 -189.5t92.5 -253.5t29.5 -328.5t-29.5 -329.5t-92.5 -255t-163 -190.5t-241 -136v94q105 64 167 154t94.5 196.5t42 225.5t9.5 241z" />
    <glyph glyph-name="asterisk" unicode="*" horiz-adv-x="1024" 
d="M84 1268l72 162l315 -199l-53 325h178l-57 -323l317 192l72 -159l-346 -101l346 -100l-72 -158l-317 191l57 -324h-178l51 324l-313 -195l-72 160l344 102z" />
    <glyph glyph-name="plus" unicode="+" horiz-adv-x="1145" 
d="M633 672v-379h-123v379h-377v121h377v378h123v-378h379v-121h-379z" />
    <glyph glyph-name="comma" unicode="," horiz-adv-x="512" 
d="M397 86q0 -65 -18 -126t-58.5 -113t-104 -93.5t-155.5 -68.5v86q101 32 148 78t47 106q0 20 -11 33.5t-28 24t-36 20.5t-36 24t-28 34.5t-11 51.5q0 59 38.5 90t95.5 31q32 0 60 -11.5t50 -34t34.5 -56t12.5 -76.5z" />
    <glyph glyph-name="hyphen" unicode="-" horiz-adv-x="635" 
d="M51 481v154h533v-154h-533z" />
    <glyph glyph-name="period" unicode="." horiz-adv-x="512" 
d="M127 125q0 40 10 66.5t27.5 42.5t41 23t50.5 7q26 0 49.5 -7t41 -23t28 -42.5t10.5 -66.5q0 -39 -10.5 -66t-28 -43t-41 -23t-49.5 -7q-27 0 -50.5 7t-41 23t-27.5 43t-10 66z" />
    <glyph glyph-name="slash" unicode="/" horiz-adv-x="590" 
d="M121 -248h-121l471 1804h119z" />
    <glyph glyph-name="zero" unicode="0" horiz-adv-x="1145" 
d="M1053 733q0 -169 -29.5 -308t-89.5 -238t-150 -153t-211 -54q-126 0 -217 54t-149.5 153t-86.5 238.5t-28 309.5t28 308t86.5 236t150 151t218.5 53q120 0 209.5 -53t149.5 -151t89.5 -236.5t29.5 -309.5zM305 733q0 -152 14 -271.5t45.5 -202t83 -126t125.5 -43.5
q75 0 126 43.5t82.5 126t45 202t13.5 271.5t-13.5 271t-45 201t-82 124.5t-124.5 42.5q-75 0 -126.5 -42.5t-83.5 -124.5t-46 -201t-14 -271z" />
    <glyph glyph-name="one" unicode="1" horiz-adv-x="1145" 
d="M197 0v86h137q35 0 65.5 5t53 20.5t36 44.5t13.5 77v1076q-39 -48 -74 -87t-67 -67t-62.5 -43.5t-60.5 -15.5q-45 0 -74 30.5t-29 79.5q31 8 62.5 19.5t67 30t77 45t92.5 63.5l144 106h131v-1237q0 -48 13 -77t36 -44.5t53.5 -20.5t65.5 -5h100v-86h-780z" />
    <glyph glyph-name="two" unicode="2" horiz-adv-x="1145" 
d="M944 1141q0 -72 -23 -140t-67 -139.5t-107.5 -148.5t-144.5 -166l-346 -383h473q46 0 76 13t49 34t29.5 48.5t17.5 57.5l8 37h86l-10 -354h-881v150l342 395q82 95 137.5 170t89.5 141.5t49 130t15 133.5q0 59 -12.5 106.5t-38 82t-65 53t-93.5 18.5q-70 0 -113.5 -25
t-68.5 -67t-34 -97t-9 -116q-37 0 -69 6t-56 21.5t-37.5 41t-13.5 64.5q0 59 25.5 109.5t76 87.5t125.5 57.5t174 20.5q97 0 174 -24.5t131 -69t82.5 -107.5t28.5 -141z" />
    <glyph glyph-name="three" unicode="3" horiz-adv-x="1145" 
d="M508 90q61 0 116 17t97 56t67 102t25 155q0 65 -25.5 117.5t-73.5 89.5t-117 57.5t-155 20.5h-65v104h65q68 0 126.5 22.5t102 63.5t68.5 99.5t25 131.5q0 60 -12 107t-38.5 80t-68 50t-100.5 17q-70 0 -114 -25t-69 -67t-34 -97t-9 -116q-37 0 -69 6t-56 21.5t-37.5 41
t-13.5 64.5q0 59 25.5 109.5t76.5 87.5t126 57.5t174 20.5q97 0 176 -22t135.5 -63.5t87.5 -102t31 -138.5q0 -69 -24.5 -130t-68.5 -110.5t-104 -84.5t-131 -52q38 -4 81 -13.5t85 -27.5t80.5 -45t68 -66t47 -90.5t17.5 -119.5q0 -82 -22 -147t-60.5 -113.5t-89.5 -82.5
t-109 -55t-119 -30.5t-120 -9.5q-101 0 -174 18.5t-120.5 49.5t-70 72.5t-22.5 86.5q0 62 35 96.5t94 34.5q0 -54 17.5 -99.5t50.5 -78.5t81.5 -51.5t110.5 -18.5z" />
    <glyph glyph-name="four" unicode="4" horiz-adv-x="1145" 
d="M862 401v-168q0 -48 13.5 -77t36 -44.5t53.5 -20.5t65 -5h27v-86h-617v86h58q35 0 65.5 5t53 20.5t36 44.5t13.5 77v168h-631v84l633 977h194v-946h254v-115h-254zM666 895q0 45 1 99t2.5 110t4 111.5t6.5 103.5q-7 -14 -20 -37.5t-29.5 -52.5t-35 -61t-37 -62.5
t-34.5 -57t-28 -44.5l-314 -488h484v379z" />
    <glyph glyph-name="five" unicode="5" horiz-adv-x="1145" 
d="M489 100q63 0 116.5 17.5t93 58t61.5 107t22 163.5q0 81 -22 141t-63 100t-98 59.5t-128 19.5q-53 0 -91.5 -4t-68 -10.5t-51.5 -14.5t-41 -16l-49 14l66 725h684l10 -309h-86l-8 61q-3 22 -8.5 37.5t-17.5 26t-32.5 15.5t-52.5 5h-397l-39 -450q31 11 89.5 22t149.5 11
q99 0 184.5 -27t148.5 -81t98.5 -135.5t35.5 -189.5q0 -104 -33.5 -190t-97 -147.5t-155.5 -95t-209 -33.5q-114 0 -188.5 19.5t-118.5 49.5t-62 66.5t-18 70.5q0 57 31.5 89t97.5 32q0 -44 15.5 -82t46 -65.5t77 -43.5t108.5 -16z" />
    <glyph glyph-name="six" unicode="6" horiz-adv-x="1145" 
d="M659 1384q-154 0 -233 -151.5t-90 -450.5q25 21 55.5 40.5t66.5 34t78.5 23.5t92.5 9q94 0 170 -29t129.5 -83t82.5 -132t29 -176q0 -108 -29.5 -198t-86 -154.5t-138 -100.5t-186.5 -36q-102 0 -189 42.5t-150.5 134t-99.5 235t-36 345.5q0 97 14.5 190t43.5 176t73 153
t103.5 120.5t134.5 78.5t165 28q86 0 149.5 -18t105.5 -48t62.5 -69t20.5 -80q0 -59 -40 -91t-117 -32q0 50 -9.5 93.5t-31.5 76t-56 51t-84 18.5zM588 784q-40 0 -77 -10.5t-69.5 -27t-59.5 -38t-48 -42.5q2 -154 21.5 -263t54.5 -178t85 -101t111 -32q110 0 167.5 85.5
t57.5 271.5q0 175 -62.5 255t-180.5 80z" />
    <glyph glyph-name="seven" unicode="7" horiz-adv-x="1145" 
d="M389 0l483 1296h-538q-110 0 -119 -104l-8 -102h-86l10 370h916v-59l-504 -1401h-154z" />
    <glyph glyph-name="eight" unicode="8" horiz-adv-x="1145" 
d="M94 367q0 74 23.5 129.5t65.5 99t99 78.5t124 67q-58 33 -107 71.5t-84 84.5t-54.5 100.5t-19.5 118.5q0 71 25 137t78 117t137.5 82t202.5 31q96 0 171 -26.5t126.5 -73.5t78.5 -111.5t27 -141.5q0 -67 -20 -118t-56 -91.5t-87 -73t-113 -63.5q76 -36 138.5 -77
t107.5 -89t69.5 -104t24.5 -123q0 -97 -35 -173.5t-99 -129.5t-155 -80.5t-203 -27.5q-115 0 -202 30t-145.5 82.5t-88 123t-29.5 151.5zM569 74q67 0 121.5 20.5t93 56.5t59.5 86t21 109q0 52 -19 96.5t-62 86t-111.5 81t-167.5 82.5q-97 -52 -154 -135t-57 -199
q0 -64 17.5 -116t52 -89.5t86.5 -58t120 -20.5zM805 1135q0 47 -12.5 92t-40 80.5t-72 57t-109.5 21.5q-57 0 -101.5 -18.5t-74.5 -51t-45.5 -77.5t-15.5 -98q0 -55 17.5 -99t52 -80t86.5 -67.5t120 -63.5q58 29 95.5 59.5t59.5 67t31 80t9 97.5z" />
    <glyph glyph-name="nine" unicode="9" horiz-adv-x="1145" 
d="M467 90q170 0 251 152t91 460q-22 -27 -51.5 -52t-67 -44.5t-83 -31t-99.5 -11.5q-89 0 -163.5 26t-128 78t-83 130t-29.5 182q0 111 30 203.5t86.5 159t138 104t184.5 37.5q104 0 191 -40t151 -124t99.5 -214t35.5 -310q0 -107 -13.5 -209.5t-42 -193.5t-73 -167
t-106 -131.5t-141.5 -86t-179 -30.5q-87 0 -144.5 15.5t-91 40.5t-47.5 57t-14 64q0 38 19 64t42 34q14 -32 34.5 -61.5t50 -52t67.5 -35.5t86 -13zM553 684q50 1 91.5 14.5t73.5 36t55.5 52.5t37.5 63v4q-2 135 -22 232.5t-55 160.5t-83.5 93t-107.5 30q-109 0 -168.5 -95
t-59.5 -276q0 -84 15 -144t45 -98t74.5 -55.5t103.5 -17.5z" />
    <glyph glyph-name="colon" unicode=":" horiz-adv-x="586" 
d="M166 125q0 40 10 66.5t27.5 42.5t41 23t50.5 7q26 0 49.5 -7t41 -23t28 -42.5t10.5 -66.5q0 -39 -10.5 -66t-28 -43t-41 -23t-49.5 -7q-27 0 -50.5 7t-41 23t-27.5 43t-10 66zM166 969q0 40 10 66.5t27.5 42.5t41 23t50.5 7q26 0 49.5 -7t41 -23t28 -42.5t10.5 -66.5
q0 -39 -10.5 -66t-28 -43.5t-41 -23.5t-49.5 -7q-27 0 -50.5 7t-41 23.5t-27.5 43.5t-10 66z" />
    <glyph glyph-name="semicolon" unicode=";" horiz-adv-x="586" 
d="M434 86q0 -65 -18 -126t-58.5 -113t-104 -93.5t-155.5 -68.5v86q101 32 148 78t47 106q0 20 -11 33.5t-28 24t-36 20.5t-36 24t-28 34.5t-11 51.5q0 59 38.5 90t95.5 31q32 0 60 -11.5t50 -34t34.5 -56t12.5 -76.5zM166 969q0 40 10 66.5t27.5 42.5t41 23t50.5 7
q26 0 49.5 -7t41 -23t28 -42.5t10.5 -66.5q0 -39 -10.5 -66t-28 -43.5t-41 -23.5t-49.5 -7q-27 0 -50.5 7t-41 23.5t-27.5 43.5t-10 66z" />
    <glyph glyph-name="less" unicode="&#x3c;" horiz-adv-x="1145" 
d="M133 696v72l879 473v-137l-688 -373l688 -369v-137z" />
    <glyph glyph-name="equal" unicode="=" horiz-adv-x="1145" 
d="M1012 590v-121h-879v121h879zM1012 993v-121h-879v121h879z" />
    <glyph glyph-name="greater" unicode="&#x3e;" horiz-adv-x="1145" 
d="M133 225v137l688 369l-688 373v137l879 -473v-72z" />
    <glyph glyph-name="question" unicode="?" horiz-adv-x="1024" 
d="M522 412h-125v311q89 36 149.5 83.5t97 103t52 116t15.5 121.5q0 53 -13 96.5t-40 74t-69.5 47.5t-101.5 17q-64 0 -107.5 -21t-70.5 -57t-39 -83.5t-12 -100.5q-37 0 -68 8.5t-53.5 25t-35.5 41.5t-13 58q0 49 22.5 91t70 73t119.5 48.5t171 17.5q97 0 179 -25
t142 -72.5t94 -116.5t34 -157q0 -84 -26.5 -153t-77.5 -126t-125 -104t-169 -86v-231zM328 125q0 40 10 66.5t27.5 42.5t41 23t50.5 7q26 0 49.5 -7t41 -23t28 -42.5t10.5 -66.5q0 -39 -10.5 -66t-28 -43t-41 -23t-49.5 -7q-27 0 -50.5 7t-41 23t-27.5 43t-10 66z" />
    <glyph glyph-name="at" unicode="@" horiz-adv-x="1886" 
d="M1778 803q0 -148 -36 -267.5t-94 -203.5t-129.5 -129t-142.5 -45q-91 0 -151.5 49t-89.5 137h-11q-21 -40 -47.5 -74t-60 -59t-75 -39t-93.5 -14q-62 0 -118.5 21t-99 64t-68 109t-25.5 156q0 55 12.5 119t39 127.5t68 123t99.5 105t133.5 73t169.5 27.5q66 0 113.5 -18
t78.5 -43l82 43h49l-104 -522q-3 -24 -7 -48q-3 -20 -5 -44t-2 -45q0 -36 10.5 -62.5t27.5 -44t39.5 -25.5t47.5 -8q45 0 92 36t85 105.5t62.5 170.5t24.5 231q0 134 -43 236.5t-119.5 172t-183 105t-234.5 35.5q-100 0 -196.5 -28t-182.5 -82.5t-159.5 -133t-126.5 -179
t-83 -222.5t-30 -262q0 -171 49 -291.5t132.5 -197t194 -111.5t234.5 -35q84 0 159 14.5t140.5 38.5t121 54.5t99.5 62.5l48 -74q-51 -38 -114 -74.5t-136.5 -65t-158 -46t-179.5 -17.5q-165 0 -303 45.5t-237.5 137.5t-155.5 230t-56 324q0 145 31.5 276.5t91 244.5
t144 204.5t190.5 156t230.5 99.5t264.5 35q172 0 302 -51t217 -139.5t130.5 -209t43.5 -259.5zM727 479q0 -108 43.5 -160.5t112.5 -52.5q52 0 90 22.5t64 58.5t42 82t25 93l78 416q-13 29 -45.5 45t-69.5 16q-61 0 -110.5 -26.5t-87 -69.5t-64.5 -98.5t-44.5 -113.5
t-25.5 -113t-8 -99z" />
    <glyph glyph-name="A" unicode="A" horiz-adv-x="1444" 
d="M414 489l-78 -215q-9 -24 -14 -47.5t-5 -40.5q0 -52 33.5 -76t102.5 -24h47v-86h-500v86h39q30 0 51 6.5t38 24.5t32.5 49t34.5 80l454 1216h160l463 -1267q12 -32 24.5 -53t29.5 -33.5t39 -17.5t52 -5h27v-86h-563v86h47q123 0 123 98q0 17 -4.5 35t-12.5 41l-82 229
h-538zM788 950q-32 91 -58.5 170.5t-43.5 153.5q-7 -37 -16.5 -71.5t-20.5 -70.5t-25 -75.5t-32 -87.5l-139 -377h462z" />
    <glyph glyph-name="B" unicode="B" horiz-adv-x="1339" 
d="M1153 1096q0 -69 -19.5 -121t-53.5 -91t-80.5 -65.5t-100.5 -44.5v-8q70 -12 128 -41t99.5 -75.5t64.5 -110t23 -144.5q0 -198 -130 -296.5t-396 -98.5h-610v86h26q35 0 65.5 5t53.5 20.5t36 44.5t13 77v1004q0 45 -13.5 72.5t-36.5 42.5t-53.5 19.5t-64.5 4.5h-26v86
h549q266 0 396 -88.5t130 -277.5zM479 102h199q87 0 147 16t98 51.5t55 92.5t17 139q0 80 -15 139t-51.5 98t-96.5 58t-150 19h-203v-613zM479 817h142q90 0 150 16t96 49.5t51.5 86.5t15.5 127q0 75 -17 125.5t-55 81.5t-98.5 44t-147.5 13h-137v-543z" />
    <glyph glyph-name="C" unicode="C" horiz-adv-x="1257" 
d="M774 1483q105 0 182.5 -17.5t129 -48.5t77 -73t25.5 -91q0 -33 -13.5 -59.5t-37.5 -45t-56.5 -28.5t-70.5 -10q0 48 -12.5 95t-41 84.5t-74 61t-112.5 23.5q-116 0 -197 -42.5t-132 -124t-74 -201t-23 -273.5q0 -137 24 -251t76 -195.5t132.5 -126.5t193.5 -45
q75 0 132.5 14.5t101.5 38.5t77.5 55.5t59.5 65.5q17 -11 28 -30t11 -50q0 -39 -26.5 -79.5t-80.5 -73.5t-137 -54.5t-197 -21.5q-153 0 -269 54t-194.5 153t-118.5 238t-40 308q0 166 42 304t124.5 237t205.5 154t285 55z" />
    <glyph glyph-name="D" unicode="D" horiz-adv-x="1489" 
d="M1372 733q0 -168 -42 -303.5t-125 -231t-208 -147t-292 -51.5h-627v86h26q35 0 65.5 5t53.5 20.5t36 44.5t13 77v1004q0 45 -13.5 72.5t-36.5 42.5t-53.5 19.5t-64.5 4.5h-26v86h627q158 0 282 -48.5t209.5 -141.5t130.5 -229t45 -310zM657 104q122 0 213.5 41.5
t152.5 121.5t91.5 197t30.5 269q0 305 -121.5 466t-364.5 161h-180v-1256h178z" />
    <glyph glyph-name="E" unicode="E" horiz-adv-x="1276" 
d="M479 102h395q49 0 83.5 13.5t57.5 36.5t36 53.5t18 64.5l14 88h107l-14 -358h-1098v86h26q34 0 64.5 4.5t53.5 18.5t36.5 41.5t13.5 72.5v1006q0 48 -13 77t-36 44.5t-53.5 20.5t-65.5 5h-26v86h1032l10 -358h-106l-10 88q-4 34 -15.5 64.5t-33 53.5t-54 36.5t-78.5 13.5
h-344v-545h494v-100h-494v-613z" />
    <glyph glyph-name="F" unicode="F" horiz-adv-x="1208" 
d="M479 1360v-592h494v-100h-494v-435q0 -48 13.5 -77t36 -44.5t53.5 -20.5t65 -5h68v-86h-637v86h26q34 0 64.5 4.5t53.5 18.5t36.5 41.5t13.5 72.5v1014q0 45 -13.5 72.5t-36.5 42.5t-53.5 19.5t-64.5 4.5h-26v86h1032l10 -358h-106l-10 88q-4 35 -16 65.5t-34.5 53
t-56.5 36t-82 13.5h-336z" />
    <glyph glyph-name="G" unicode="G" horiz-adv-x="1462" 
d="M821 -20q-178 0 -310.5 54t-220 153t-130.5 238t-43 308q0 166 45.5 304t136 237t224.5 154t311 55q114 0 198.5 -17.5t141 -48.5t84.5 -73t28 -91q0 -33 -15 -59.5t-40.5 -45t-60 -28.5t-74.5 -10q0 48 -14 95t-46 84.5t-84 61t-127 23.5q-130 0 -221.5 -42.5
t-149.5 -124t-84 -201t-26 -273.5q0 -153 27 -272t88 -200t158 -123t237 -42q59 0 114.5 6t98.5 19v330q0 45 -13.5 72.5t-36.5 42t-53.5 19.5t-64.5 5h-8v86h532v-86h-8q-29 0 -55 -5t-45 -20.5t-30 -45t-11 -77.5v-368q-103 -48 -212 -71t-241 -23z" />
    <glyph glyph-name="H" unicode="H" horiz-adv-x="1624" 
d="M950 0v86h27q35 0 65.5 5t53 20.5t36 44.5t13.5 77v480h-666v-480q0 -48 13.5 -77t36 -44.5t53.5 -20.5t65 -5h27v-86h-596v86h26q35 0 65.5 5t53.5 20.5t36 44.5t13 77v1004q0 45 -13.5 72.5t-36.5 42.5t-53.5 19.5t-64.5 4.5h-26v86h596v-86h-27q-34 0 -65 -5
t-53.5 -20.5t-36 -44.5t-13.5 -77v-414h666v414q0 48 -13.5 77t-36 44.5t-53 20.5t-65.5 5h-27v86h596v-86h-26q-35 0 -65.5 -5t-53.5 -20.5t-36 -44.5t-13 -77v-1006q0 -45 13.5 -72.5t36.5 -41.5t53.5 -18.5t64.5 -4.5h26v-86h-596z" />
    <glyph glyph-name="I" unicode="I" horiz-adv-x="752" 
d="M78 0v86h26q35 0 65.5 5t53.5 20.5t36 44.5t13 77v996q0 48 -13 77t-36 44.5t-53.5 20.5t-65.5 5h-26v86h596v-86h-27q-34 0 -65 -5t-53.5 -20.5t-36 -44.5t-13.5 -77v-996q0 -48 13.5 -77t36 -44.5t53.5 -20.5t65 -5h27v-86h-596z" />
    <glyph glyph-name="J" unicode="J" horiz-adv-x="731" 
d="M-23 -395h19q66 0 117.5 18.5t86.5 62t53.5 116t18.5 180.5v1255q0 45 -13.5 72.5t-36.5 42.5t-53.5 19.5t-64.5 4.5h-26v86h596v-86h-27q-34 0 -65 -5t-53.5 -20.5t-36 -44.5t-13.5 -77v-1245q0 -138 -36 -229.5t-99 -146t-148.5 -77.5t-183.5 -23h-35v97z" />
    <glyph glyph-name="K" unicode="K" horiz-adv-x="1434" 
d="M903 1137q33 38 55 67.5t34.5 53.5t18 42t5.5 33q0 26 -25 35.5t-76 9.5v84h453v-84q-35 0 -67.5 -13.5t-65 -38t-67 -60t-74.5 -80.5l-297 -334l432 -602q59 -81 113.5 -122.5t111.5 -41.5h4v-86h-22q-103 0 -169 8t-111 29t-78.5 56.5t-71.5 90.5l-353 506l-174 -141
v-316q0 -48 13.5 -77t36 -44.5t53.5 -20.5t65 -5h27v-86h-596v86h26q34 0 64.5 4.5t53.5 18.5t36.5 41.5t13.5 72.5v1014q0 45 -13.5 72.5t-36.5 42.5t-53.5 19.5t-64.5 4.5h-26v86h596v-86h-27q-34 0 -65 -5t-53.5 -20.5t-36 -44.5t-13.5 -77v-578z" />
    <glyph glyph-name="L" unicode="L" horiz-adv-x="1276" 
d="M78 0v86h26q35 0 65.5 5t53.5 20.5t36 44.5t13 77v996q0 48 -13 77t-36 44.5t-53.5 20.5t-65.5 5h-26v86h596v-86h-27q-34 0 -64.5 -4.5t-53.5 -19.5t-36.5 -42.5t-13.5 -72.5v-1135h404q46 0 78.5 16.5t53.5 43t32.5 59.5t15.5 66l20 153h107l-14 -440h-1098z" />
    <glyph glyph-name="M" unicode="M" horiz-adv-x="1921" 
d="M1298 0v86h7q33 0 59.5 4.5t45 18t29.5 39t13 67.5v1094l-469 -1309h-111l-475 1305v-1072q0 -48 10 -77t29.5 -44.5t47 -20.5t61.5 -5h6v-86h-473v86h26q34 0 64.5 4.5t53.5 18.5t36.5 41.5t13.5 72.5v1014q0 45 -13.5 72.5t-36.5 42.5t-53.5 19.5t-64.5 4.5h-26v86h467
l424 -1171l420 1171h454v-86h-26q-35 0 -65.5 -5t-53.5 -20.5t-36 -44.5t-13 -77v-996q0 -48 13 -77t36 -44.5t53.5 -20.5t65.5 -5h26v-86h-545z" />
    <glyph glyph-name="N" unicode="N" horiz-adv-x="1563" 
d="M1165 0l-768 1180v-947q0 -48 13.5 -77t36 -44.5t53.5 -20.5t65 -5h27v-86h-514v86h26q35 0 65.5 5t53.5 20.5t36 44.5t13 77v1004q0 45 -13.5 72.5t-36.5 42.5t-53.5 19.5t-64.5 4.5h-26v86h375l733 -1132v907q0 45 -13.5 72.5t-36.5 42.5t-53.5 19.5t-64.5 4.5h-27v86
h514v-86h-26q-35 0 -65.5 -5t-53.5 -20.5t-36 -44.5t-13 -77v-1229h-146z" />
    <glyph glyph-name="O" unicode="O" horiz-adv-x="1520" 
d="M1403 733q0 -169 -42 -308t-124 -238t-202 -153t-275 -54q-163 0 -284 54t-201 153t-120 238.5t-40 309.5t40 308.5t120 236.5t202 151.5t285 53.5q155 0 274 -53.5t201 -152t124 -237t42 -309.5zM342 733q0 -152 22.5 -271.5t72.5 -202t129.5 -126t193.5 -43.5
t193.5 43.5t129 126t71.5 202t22 271.5t-22 271.5t-71.5 201.5t-128 125t-192.5 43t-194 -43t-130.5 -125t-73 -201.5t-22.5 -271.5z" />
    <glyph glyph-name="P" unicode="P" horiz-adv-x="1237" 
d="M78 0v86h26q35 0 65.5 5t53.5 20.5t36 44.5t13 77v1004q0 45 -13.5 72.5t-36.5 42.5t-53.5 19.5t-64.5 4.5h-26v86h575q129 0 224 -29.5t157 -85t92.5 -134.5t30.5 -179q0 -91 -28.5 -175t-93.5 -148.5t-170 -103t-257 -38.5h-129v-346q0 -45 13.5 -72.5t36.5 -41.5
t53.5 -18.5t64.5 -4.5h68v-86h-637zM479 666h109q93 0 159 19.5t108 63t61.5 112t19.5 165.5q0 86 -17 149.5t-55 105.5t-98.5 62.5t-147.5 20.5h-139v-698z" />
    <glyph glyph-name="Q" unicode="Q" horiz-adv-x="1520" 
d="M1403 733q0 -150 -33 -276t-97.5 -222t-159 -158.5t-216.5 -84.5q9 -105 34 -175.5t64 -113t91 -60.5t114 -18h33v-96h-88q-81 0 -161.5 21.5t-146.5 74t-110.5 140t-54.5 219.5q-141 15 -245.5 74.5t-173.5 157t-103.5 229t-34.5 290.5q0 170 40 308.5t120 236.5
t202 151.5t285 53.5q155 0 274 -53.5t201 -152t124 -237t42 -309.5zM342 733q0 -152 22.5 -271.5t72.5 -202t129.5 -126t193.5 -43.5t193.5 43.5t129 126t71.5 202t22 271.5t-22 271.5t-71.5 201.5t-128 125t-192.5 43t-194 -43t-130.5 -125t-73 -201.5t-22.5 -271.5z" />
    <glyph glyph-name="R" unicode="R" horiz-adv-x="1343" 
d="M1135 250q52 -82 101 -123t114 -41h6v-86h-29q-96 0 -157.5 7t-104.5 27t-73.5 56t-65.5 94l-277 461h-170v-422q0 -45 13.5 -72.5t36.5 -41.5t53.5 -18.5t64.5 -4.5h27v-86h-596v86h26q34 0 64.5 4.5t53.5 18.5t36.5 41.5t13.5 72.5v1014q0 45 -13.5 72.5t-36.5 42.5
t-53.5 19.5t-64.5 4.5h-26v86h551q266 0 396 -98.5t130 -296.5q0 -82 -26.5 -143.5t-69.5 -106.5t-97 -75t-108 -48zM479 741h144q90 0 150 20t96 60t51.5 100t15.5 140q0 82 -17 139.5t-55 94t-98.5 53t-147.5 16.5h-139v-623z" />
    <glyph glyph-name="S" unicode="S" horiz-adv-x="1114" 
d="M506 -20q-100 0 -176.5 21t-128 58.5t-77.5 91t-26 117.5q0 62 38.5 100t109.5 38q3 -64 19.5 -123t49.5 -104t84 -72t123 -27q138 0 215.5 66.5t77.5 191.5q0 56 -16 99t-53 79.5t-97.5 70t-150.5 70.5q-95 39 -166 83.5t-118 99t-70 121.5t-23 151q0 88 33.5 157
t93.5 116.5t142 72.5t179 25q92 0 163 -19t120 -51t74.5 -73.5t25.5 -86.5q0 -66 -43.5 -99.5t-117.5 -33.5q0 48 -11.5 94.5t-38.5 83t-71 59.5t-109 23q-59 0 -105.5 -16.5t-78.5 -47t-49 -73.5t-17 -96q0 -61 16 -107.5t53.5 -84t98.5 -71t150 -69.5q90 -37 160.5 -78
t119.5 -91.5t75 -113t26 -141.5q0 -97 -35.5 -173.5t-101.5 -129.5t-159 -80.5t-208 -27.5z" />
    <glyph glyph-name="T" unicode="T" horiz-adv-x="1255" 
d="M729 233q0 -48 13.5 -77t36 -44.5t53.5 -20.5t65 -5h47v-86h-637v86h47q34 0 64.5 4.5t53.5 18.5t36.5 41.5t13.5 72.5v1137h-196q-45 0 -75.5 -13.5t-50 -36.5t-29 -53.5t-13.5 -64.5l-11 -88h-106l10 358h1153l10 -358h-106l-10 88q-4 34 -14 64.5t-29 53.5t-50 36.5
t-77 13.5h-199v-1127z" />
    <glyph glyph-name="U" unicode="U" horiz-adv-x="1468" 
d="M741 -20q-121 0 -217 25.5t-162.5 81t-101.5 143t-35 212.5v795q0 45 -13.5 72.5t-36.5 42.5t-53.5 19.5t-64.5 4.5h-26v86h596v-86h-27q-34 0 -65 -5t-53.5 -20.5t-36 -44.5t-13.5 -77v-799q0 -89 25.5 -151.5t71 -101.5t108 -57t137.5 -18q89 0 153.5 24t107 66.5
t63 101t20.5 128.5v815q0 45 -13.5 72.5t-36.5 42.5t-53.5 19.5t-64.5 4.5h-26v86h514v-86h-27q-34 0 -65 -5t-53.5 -20.5t-36 -44.5t-13.5 -77v-811q0 -102 -32.5 -183.5t-96 -138t-157.5 -86.5t-216 -30z" />
    <glyph glyph-name="V" unicode="V" horiz-adv-x="1382" 
d="M614 0l-442 1268q-11 32 -24 53t-30 33t-39 17t-52 5h-27v86h563v-86h-47q-62 0 -92.5 -23.5t-30.5 -74.5q0 -17 4.5 -35t12.5 -41l225 -665q31 -91 53 -176.5t39 -159.5q16 74 38 157t56 179l226 651q8 25 13 48t5 40q0 53 -33.5 76.5t-101.5 23.5h-47v86h499v-86h-39
q-30 0 -51.5 -6t-39 -23.5t-32.5 -48.5t-32 -81l-424 -1217h-150z" />
    <glyph glyph-name="W" unicode="W" horiz-adv-x="2144" 
d="M1180 1448l256 -887q29 -102 51.5 -195.5t36.5 -164.5q15 74 34.5 155.5t47.5 180.5l180 632q3 12 7 27t7 30t5.5 28t2.5 22q0 53 -33.5 76.5t-101.5 23.5h-47v86h500v-86h-39q-30 0 -52.5 -6t-40.5 -23t-33 -48t-30 -82l-346 -1217h-184l-334 1147l-313 -1147h-189
l-375 1268q-10 32 -22.5 53t-29.5 33t-40 17t-53 5h-27v86h564v-86h-47q-62 0 -92.5 -23.5t-30.5 -74.5q0 -17 5 -35t11 -41l188 -655q26 -93 49 -182.5t40 -163.5q15 80 35.5 174.5t47.5 193.5l244 879h148z" />
    <glyph glyph-name="X" unicode="X" horiz-adv-x="1352" 
d="M954 1317q0 18 -8.5 29.5t-23 18t-34.5 9t-44 2.5h-6v86h448v-86h-18q-30 0 -54.5 -7t-47.5 -24.5t-47.5 -45.5t-53.5 -70l-297 -428l377 -606q45 -60 85 -84.5t79 -24.5h26v-86h-553v86h11q122 0 122 68q0 11 -2.5 22t-9.5 26t-20.5 37t-34.5 56l-203 326l-227 -336
q-9 -13 -18 -29.5t-17 -34.5t-13 -36.5t-5 -34.5q0 -35 32.5 -49.5t100.5 -14.5h6v-86h-488v86h13q37 0 64.5 7.5t51 24.5t46.5 44t51 67l342 490l-338 549q-37 59 -83.5 83.5t-92.5 24.5h-27v86h555v-86h-6q-35 0 -58 -4.5t-36 -12.5t-18 -19t-5 -23q0 -11 1.5 -21
t6.5 -23.5t14.5 -31.5t26.5 -45l185 -299l194 295q23 35 37 66t14 59z" />
    <glyph glyph-name="Y" unicode="Y" horiz-adv-x="1280" 
d="M326 0v86h47q34 0 64.5 4.5t53.5 18.5t36.5 41.5t13.5 72.5v387l-379 658q-17 29 -32 49.5t-31.5 33.5t-36.5 19t-46 6h-26v86h563v-86h-76q-28 0 -45.5 -5t-27.5 -14t-13.5 -21t-3.5 -25q0 -29 12.5 -58t24.5 -51l151 -274q36 -63 61 -124.5t42 -109.5q9 22 22.5 49
t30 57.5t34.5 63t36 64.5l131 235q20 35 28.5 66.5t8.5 56.5q0 45 -32 67.5t-91 22.5h-60v86h500v-86h-24q-22 0 -41.5 -7.5t-39.5 -26t-41.5 -49t-47.5 -76.5l-344 -607v-377q0 -48 13 -77t36 -44.5t53.5 -20.5t64.5 -5h48v-86h-637z" />
    <glyph glyph-name="Z" unicode="Z" horiz-adv-x="1212" 
d="M1094 1378l-770 -1276h516q46 0 77 13.5t50 36.5t29 53.5t14 64.5l10 88h106l-10 -358h-1042v82l768 1278h-445q-45 0 -75.5 -13.5t-49.5 -36.5t-29 -53.5t-14 -64.5l-10 -88h-106l10 358h971v-84z" />
    <glyph glyph-name="bracketleft" unicode="[" horiz-adv-x="737" 
d="M205 -262v1818h457v-86h-89q-34 0 -64.5 -5t-53.5 -20.5t-36 -44.5t-13 -77v-1352q0 -48 13 -77t36 -44.5t53.5 -20.5t64.5 -5h89v-86h-457z" />
    <glyph glyph-name="backslash" unicode="\" horiz-adv-x="590" 
d="M0 1556h119l471 -1804h-121z" />
    <glyph glyph-name="bracketright" unicode="]" horiz-adv-x="737" 
d="M76 -262v86h88q35 0 65.5 5t53 20.5t36 44.5t13.5 77v1352q0 48 -13.5 77t-36 44.5t-53 20.5t-65.5 5h-88v86h456v-1818h-456z" />
    <glyph glyph-name="asciicircum" unicode="^" horiz-adv-x="1145" 
d="M535 1462h71l432 -917h-137l-332 729l-327 -729h-138z" />
    <glyph glyph-name="underscore" unicode="_" horiz-adv-x="940" 
d="M950 -291h-960v121h960v-121z" />
    <glyph glyph-name="grave" unicode="`" horiz-adv-x="1182" 
d="M791 1241h-78q-41 28 -89 69.5t-93 85.5t-82 84.5t-56 67.5v21h219q16 -34 37.5 -74.5t45.5 -81t49 -78.5t47 -67v-27z" />
    <glyph glyph-name="a" unicode="a" horiz-adv-x="1153" 
d="M301 297q0 -96 40.5 -143.5t125.5 -47.5q62 0 112.5 20t86 57t54.5 90t19 118v166l-131 -6q-87 -4 -145.5 -21.5t-94.5 -49t-51.5 -77.5t-15.5 -106zM549 1016q-59 0 -95.5 -16.5t-57 -46.5t-27.5 -71t-7 -89q-85 0 -129.5 29t-44.5 100q0 53 29 90t79.5 60.5t117.5 34.5
t143 11q94 0 164 -18.5t117 -60.5t70.5 -109.5t23.5 -165.5v-531q0 -43 7 -71t22 -45t39.5 -24t58.5 -7h6v-86h-277l-32 176h-17q-32 -43 -62 -79t-66 -62t-81.5 -40.5t-109.5 -14.5q-68 0 -126.5 19.5t-101 60t-66.5 102t-24 145.5q0 163 116 242t351 86l170 6v123
q0 55 -6 101.5t-26 80t-57.5 52t-100.5 18.5z" />
    <glyph glyph-name="b" unicode="b" horiz-adv-x="1257" 
d="M1145 551q0 -148 -27.5 -256t-80.5 -178t-131 -103.5t-179 -33.5q-59 0 -107 13t-86.5 37t-68 57t-51.5 73h-13l-36 -160h-328v86h16q35 0 65.5 5t53 20.5t36 44.5t13.5 77v1098q0 45 -13.5 72.5t-36.5 42.5t-53.5 19.5t-64.5 4.5h-16v86h377v-376q0 -35 -1 -80.5
t-3 -87.5q-2 -48 -4 -99h8q23 47 52 85t67 64.5t86 41t108 14.5q101 0 179 -33.5t131 -103t80.5 -176.5t27.5 -254zM692 987q-80 0 -133.5 -26.5t-85.5 -80.5t-45.5 -136t-13.5 -193q0 -107 13.5 -189t46 -138t86 -84.5t134.5 -28.5q68 0 115.5 28.5t78 84.5t44.5 138.5
t14 190.5q0 109 -14 190.5t-44.5 135.5t-79 81t-116.5 27z" />
    <glyph glyph-name="c" unicode="c" horiz-adv-x="1008" 
d="M580 -20q-102 0 -188 31.5t-148 99.5t-96.5 174.5t-34.5 257.5q0 164 34.5 274.5t96 177.5t145 95t180.5 28q64 0 127.5 -12.5t114.5 -38.5t83 -65.5t32 -92.5q0 -71 -46 -100t-137 -29q0 48 -8 91t-27.5 75.5t-53 51t-85.5 18.5q-59 0 -106.5 -22t-81.5 -76t-52 -145
t-18 -228q0 -218 72.5 -325t237.5 -107q95 0 166 40t106 103q15 -12 25 -32t10 -48q0 -35 -22 -70t-65.5 -63t-108.5 -45.5t-152 -17.5z" />
    <glyph glyph-name="d" unicode="d" horiz-adv-x="1257" 
d="M1036 225q0 -45 13.5 -72.5t36.5 -42.5t53.5 -19.5t64.5 -4.5h17v-86h-347l-22 184h-8q-23 -47 -52.5 -84.5t-67.5 -64t-86 -41t-108 -14.5q-101 0 -179 33.5t-131 103t-80 176.5t-27 254q0 148 27 256t80 178t131 103.5t179 33.5q59 0 107 -13t86.5 -37t68.5 -57t52 -73
h12q-3 50 -6 94q-2 38 -4 75.5t-2 55.5v168q0 45 -13.5 72.5t-36.5 42.5t-53.5 19.5t-64.5 4.5h-17v86h377v-1331zM565 111q80 0 133.5 26.5t86 80.5t46 136t13.5 193q0 107 -13.5 189t-46 137.5t-86.5 84.5t-135 29q-67 0 -115 -29t-78.5 -85t-44.5 -138.5t-14 -189.5
q0 -218 59 -326t195 -108z" />
    <glyph glyph-name="e" unicode="e" horiz-adv-x="1096" 
d="M563 1008q-114 0 -175.5 -92.5t-72.5 -270.5h471q0 81 -12 148t-38 115t-68.5 74t-104.5 26zM588 -20q-111 0 -199.5 37.5t-149.5 109.5t-93.5 176.5t-32.5 237.5q0 287 118 432t336 145q99 0 178 -31t134 -92.5t84.5 -153t29.5 -212.5v-94h-682q2 -112 22.5 -192.5
t59 -132.5t94.5 -76.5t129 -24.5q53 0 98.5 12t82.5 32t65.5 45.5t46.5 53.5q14 -6 26.5 -25t12.5 -45q0 -31 -22 -66.5t-67 -65.5t-112.5 -50t-158.5 -20z" />
    <glyph glyph-name="f" unicode="f" horiz-adv-x="756" 
d="M688 86v-86h-633v86h27q35 0 65.5 5t53 20.5t36 44.5t13.5 77v768h-187v97h187v102q0 92 25 162t72 118t114 72.5t151 24.5q80 0 135 -10.5t88.5 -29.5t48.5 -45t15 -58q0 -28 -12.5 -49.5t-35 -36t-53 -22t-67.5 -7.5q0 31 -6.5 60.5t-22 52.5t-41.5 37t-65 14
q-44 0 -73.5 -17t-47.5 -50.5t-25.5 -82.5t-7.5 -114v-121h289v-97h-289v-768q0 -48 13.5 -77t36 -44.5t53.5 -20.5t65 -5h78z" />
    <glyph glyph-name="g" unicode="g" horiz-adv-x="1102" 
d="M1077 1055q0 -22 -6.5 -41.5t-19.5 -34t-33.5 -23t-48.5 -8.5q0 12 -3 24t-10.5 22.5t-20.5 17t-34 6.5q-26 0 -47 -6t-41 -19q35 -43 57.5 -101.5t22.5 -146.5q0 -76 -23 -140.5t-68.5 -111.5t-115 -73.5t-162.5 -26.5q-12 0 -27 0.5l-30 1t-28 2t-21 2.5
q-20 -10 -38 -22t-31.5 -27t-21.5 -34t-8 -42q0 -25 9.5 -40t26.5 -23.5t40.5 -11t50.5 -2.5h232q92 0 156 -23t104.5 -63.5t59 -97t18.5 -122.5q0 -88 -32.5 -159t-99.5 -120.5t-169.5 -76.5t-241.5 -27q-214 0 -320 79t-106 220q0 60 21 105t56.5 77t81.5 52t97 29
q-21 9 -41 24t-36 36t-26 48t-10 60q0 61 32 105.5t102 86.5q-44 18 -78.5 49.5t-58 72t-36 88.5t-12.5 99q0 89 24 159t72 119t120 75t169 26q37 0 73 -5.5t66.5 -15t55 -21.5t39.5 -25q15 16 35 35.5t45 36t54.5 27.5t63.5 11q31 0 53.5 -8.5t37.5 -23t22.5 -34t7.5 -40.5
zM213 -180q0 -45 12 -84t42 -67t81 -44t129 -16q110 0 181.5 18.5t113.5 51.5t59 78.5t17 99.5q0 47 -13.5 77.5t-40 48t-65.5 24.5t-90 7h-201q-43 0 -83.5 -7.5t-72 -28.5t-50.5 -59t-19 -99zM332 745q0 -131 43.5 -192t142.5 -61q50 0 84.5 15t56.5 46t31.5 79.5
t9.5 115.5q0 138 -42 204t-142 66q-99 0 -141.5 -67.5t-42.5 -205.5z" />
    <glyph glyph-name="h" unicode="h" horiz-adv-x="1300" 
d="M588 86v-86h-551v86h16q35 0 65.5 5t53 20.5t36 44.5t13.5 77v1098q0 45 -13.5 72.5t-36.5 42.5t-53.5 19.5t-64.5 4.5h-16v86h377v-450q0 -28 -1 -58.5t-3 -56.5q-2 -30 -4 -59h10q92 186 301 186q87 0 154.5 -23.5t113.5 -72t70 -124.5t24 -181v-484q0 -48 12 -77
t33 -44.5t50 -20.5t63 -5h6v-86h-356v707q0 67 -12 119t-38.5 88t-69.5 54.5t-105 18.5q-64 0 -110.5 -23.5t-77 -67t-45.5 -105t-15 -136.5v-432q0 -45 13.5 -72.5t36.5 -41.5t53.5 -18.5t64.5 -4.5h6z" />
    <glyph glyph-name="i" unicode="i" horiz-adv-x="655" 
d="M74 86q34 0 64.5 4.5t53.5 18.5t36.5 41.5t13.5 72.5v649q0 45 -13.5 72.5t-36.5 42.5t-53.5 20t-64.5 5h-6v86h366v-865q0 -48 13.5 -77t36 -44.5t53.5 -20.5t65 -5h27v-86h-582v86h27zM213 1430q0 36 9 60t25 39t37 21t46 6q24 0 45 -6t36.5 -21t25 -39t9.5 -60
t-9.5 -60t-25 -39t-36.5 -21.5t-45 -6.5q-25 0 -46 6.5t-37 21.5t-25 39t-9 60z" />
    <glyph glyph-name="j" unicode="j" horiz-adv-x="614" 
d="M414 1098v-1114q0 -138 -30 -229.5t-84 -146t-128.5 -77.5t-163.5 -23h-33v97h15q55 0 98 18.5t72.5 62t45 116t15.5 180.5v890q0 45 -13.5 72.5t-36.5 42.5t-53.5 20t-64.5 5h-6v86h367zM193 1430q0 36 9 60t24.5 39t37 21t45.5 6t45.5 -6t37 -21t25 -39t9.5 -60
t-9.5 -60t-25 -39t-37 -21.5t-45.5 -6.5t-45.5 6.5t-37 21.5t-24.5 39t-9 60z" />
    <glyph glyph-name="k" unicode="k" horiz-adv-x="1198" 
d="M694 659l273 -405q53 -82 105.5 -125t121.5 -43h6v-86h-29q-89 0 -146.5 5.5t-99.5 26t-77 60t-78 107.5l-205 321l-151 -112v-185q0 -45 13.5 -72.5t36.5 -41.5t53.5 -18.5t64.5 -4.5h6v-86h-551v86h16q35 0 65.5 5t53 20.5t36 44.5t13.5 77v1098q0 45 -13.5 72.5
t-36.5 42.5t-53.5 19.5t-64.5 4.5h-16v86h377v-790q0 -28 -1 -71.5t-3 -85.5q-2 -48 -4 -101l256 280q33 37 54.5 65t34.5 49t18 37.5t5 31.5q0 26 -24.5 33.5t-75.5 7.5v86h452v-86q-71 0 -139.5 -50t-148.5 -141z" />
    <glyph glyph-name="l" unicode="l" horiz-adv-x="635" 
d="M53 86q35 0 65.5 5t53 20.5t36 44.5t13.5 77v1098q0 45 -13.5 72.5t-36.5 42.5t-53.5 19.5t-64.5 4.5h-26v86h387v-1323q0 -48 13 -77t36 -44.5t53.5 -20.5t65.5 -5h26v-86h-581v86h26z" />
    <glyph glyph-name="m" unicode="m" horiz-adv-x="1935" 
d="M608 86v-86h-551v86h27q35 0 64 5t50 20.5t32.5 44.5t11.5 77v639q0 45 -12 72.5t-33 42.5t-50 20t-63 5h-6v86h321l27 -166h10q31 57 65 93.5t72.5 57t81 28t90.5 7.5q50 0 95 -10t83.5 -32t69 -57.5t49.5 -86.5h17q31 57 67 93.5t76.5 57t85 28t92.5 7.5
q78 0 140 -23.5t105 -72t66 -124.5t23 -181v-484q0 -48 12 -77t33 -44.5t50 -20.5t63 -5h6v-86h-356v707q0 67 -11.5 119t-37 88t-66.5 54.5t-100 18.5q-64 0 -107.5 -24.5t-70.5 -66.5t-38.5 -97t-11.5 -117v-449q0 -48 12 -77t33 -44.5t50 -20.5t63 -5h6v-86h-356v707
q0 67 -11.5 119t-37 88t-66.5 54.5t-100 18.5q-67 0 -112.5 -27t-73.5 -73t-40 -106t-12 -126v-432q0 -45 13.5 -72.5t36.5 -41.5t53.5 -18.5t64.5 -4.5h6z" />
    <glyph glyph-name="n" unicode="n" horiz-adv-x="1321" 
d="M608 86v-86h-551v86h17q35 0 65.5 5t53 20.5t36 44.5t13.5 77v639q0 45 -13.5 72.5t-36.5 42.5t-53.5 20t-64.5 5h-6v86h331l27 -166h10q32 57 67.5 93.5t75 57t84 28t93.5 7.5q81 0 144.5 -23.5t108 -72t68 -124.5t23.5 -181v-484q0 -48 11.5 -77t32.5 -44.5t50 -20.5
t63 -5h7v-86h-357v707q0 67 -12 119t-38.5 88t-69.5 54.5t-105 18.5q-70 0 -117.5 -27t-76.5 -73t-41.5 -106t-12.5 -126v-432q0 -45 13.5 -72.5t36.5 -41.5t53.5 -18.5t64.5 -4.5h6z" />
    <glyph glyph-name="o" unicode="o" horiz-adv-x="1182" 
d="M1069 551q0 -289 -122.5 -430t-358.5 -141q-111 0 -199 35t-149.5 106t-94 178.5t-32.5 251.5q0 287 121.5 427t359.5 140q111 0 199 -34.5t149.5 -105t94 -177t32.5 -250.5zM311 551q0 -114 15 -201t48.5 -145.5t87 -88.5t130.5 -30t130 30t86 88.5t47.5 145.5t14.5 201
t-15 200t-48 143.5t-86.5 86.5t-130.5 29t-130 -29t-86 -86.5t-48 -143.5t-15 -200z" />
    <glyph glyph-name="p" unicode="p" horiz-adv-x="1257" 
d="M692 987q-80 0 -133.5 -26.5t-85.5 -80.5t-45.5 -136t-13.5 -193q0 -107 13.5 -189t46 -138t86 -84.5t134.5 -28.5q68 0 115.5 28.5t78 84.5t44.5 138.5t14 190.5q0 109 -14 190.5t-44.5 135.5t-79 81t-116.5 27zM1145 551q0 -148 -27.5 -256t-80.5 -178t-131 -103.5
t-179 -33.5q-59 0 -107 13t-86.5 37t-68 57t-51.5 73h-8q2 -53 4 -99q1 -19 1.5 -39.5t1 -38.5t1 -32.5t0.5 -22.5v-196q0 -45 13.5 -72.5t36.5 -42t53.5 -19t64.5 -4.5h6v-86h-551v86h16q35 0 65.5 5t53 20.5t36 45t13.5 77.5v1130q0 45 -13.5 72.5t-36.5 42.5t-53.5 20
t-64.5 5h-26v86h358l21 -185h8q23 47 52 85t67 64.5t86 41t108 14.5q101 0 179 -33.5t131 -103t80.5 -176.5t27.5 -254z" />
    <glyph glyph-name="q" unicode="q" horiz-adv-x="1257" 
d="M1221 -492h-613v86h68q35 0 65.5 5t53 20.5t36 45t13.5 77.5v176q0 35 1 80.5t3 87.5q2 48 4 98h-8q-23 -47 -52.5 -84.5t-67.5 -64t-86 -41t-108 -14.5q-101 0 -179 33.5t-131 103t-80 176.5t-27 254q0 148 27 256t80 178t131 103.5t179 33.5q59 0 107 -13t86.5 -37
t68.5 -57t52 -73h12l37 160h328v-86h-17q-34 0 -65 -5t-53.5 -20.5t-36 -45t-13.5 -77.5v-1130q0 -45 13.5 -72.5t36.5 -42.5t53.5 -20t64.5 -5h17v-86zM565 111q80 0 133.5 26.5t86 80.5t46 136t13.5 193q0 107 -13.5 189t-46 137.5t-86.5 84.5t-135 29q-67 0 -115 -29
t-78.5 -85t-44.5 -138.5t-14 -189.5q0 -218 59 -326t195 -108z" />
    <glyph glyph-name="r" unicode="r" horiz-adv-x="965" 
d="M659 0h-591v86h6q35 0 65.5 5t53 20.5t36 44.5t13.5 77v639q0 45 -13.5 72.5t-36.5 42.5t-53.5 20t-64.5 5h-6v86h315l39 -203h10q20 46 41 86.5t51.5 71t75.5 48t113 17.5q112 0 166.5 -39t54.5 -110q0 -32 -10.5 -59t-33.5 -46.5t-59 -30t-88 -10.5q0 85 -24 122.5
t-84 37.5q-38 0 -68 -21.5t-52.5 -57t-38 -81.5t-25 -94.5t-13.5 -96.5t-4 -87v-322q0 -45 13.5 -72.5t36.5 -41.5t53.5 -18.5t64.5 -4.5h57v-86z" />
    <glyph glyph-name="s" unicode="s" horiz-adv-x="924" 
d="M430 -20q-77 0 -139.5 13.5t-106.5 41t-68 68t-24 94.5q0 41 13.5 68.5t33 43.5t42 22.5t40.5 6.5q0 -54 11 -101t37 -82.5t68.5 -56t104.5 -20.5q55 0 97 13.5t70.5 38t43.5 59t15 75.5q0 38 -11.5 65.5t-40 51.5t-77.5 49t-123 57q-79 35 -137.5 67.5t-96.5 70.5
t-57 86.5t-19 115.5q0 70 27.5 124t78.5 90.5t122 55.5t158 19q73 0 129 -15t94 -40.5t57 -60t19 -72.5q0 -56 -38.5 -89.5t-109.5 -33.5q0 103 -42.5 160t-133.5 57q-52 0 -89 -12t-60.5 -34t-34.5 -52t-11 -66q0 -39 14 -67.5t44.5 -52.5t79 -46.5t116.5 -50.5
q81 -34 139 -67t95.5 -72t55.5 -88t18 -113q0 -80 -29 -140t-82 -100.5t-127.5 -60.5t-165.5 -20z" />
    <glyph glyph-name="t" unicode="t" horiz-adv-x="721" 
d="M543 88q37 0 68 4t63 10v-90q-13 -6 -34 -12t-45.5 -10.5t-51.5 -7t-51 -2.5q-78 0 -134 16.5t-92 53.5t-53.5 98t-17.5 149v684h-156v82q37 0 81.5 15t78.5 50q35 38 56.5 90.5t37.5 131.5h94v-252h268v-117h-268v-690q0 -105 42.5 -154t113.5 -49z" />
    <glyph glyph-name="u" unicode="u" horiz-adv-x="1300" 
d="M1079 223q0 -45 13.5 -72.5t36.5 -41.5t53.5 -18.5t64.5 -4.5h6v-86h-325l-27 166h-10q-31 -58 -68.5 -94t-79.5 -56.5t-88 -28t-96 -7.5q-81 0 -144 23t-106 72t-65.5 125t-22.5 181v491q0 45 -13.5 72.5t-36.5 42.5t-53.5 20t-64.5 5h-6v86h367v-707q0 -67 10.5 -119
t35 -88t66 -54.5t103.5 -18.5q68 0 116.5 24t80 67.5t46.5 104.5t15 135v422q0 48 -13.5 77.5t-36 45t-53 20.5t-65.5 5h-6v86h366v-875z" />
    <glyph glyph-name="v" unicode="v" horiz-adv-x="1186" 
d="M8 1012v86h512v-86h-26q-62 0 -92.5 -24t-30.5 -75q0 -17 4 -34.5t12 -40.5l139 -387q13 -36 27 -79.5t26.5 -85.5t22.5 -79.5t14 -63.5h7q5 22 16.5 54.5t26 71t30 78.5t29.5 77l147 399q10 25 14.5 48t4.5 40q0 53 -33.5 77t-101.5 24h-15v86h439v-86h-25
q-30 0 -51 -6.5t-38 -24.5t-32.5 -49t-34.5 -80l-323 -852h-187l-329 903q-12 32 -25 53t-30 33.5t-39 17.5t-52 5h-6z" />
    <glyph glyph-name="w" unicode="w" horiz-adv-x="1765" 
d="M975 1092l205 -607q12 -37 25.5 -79.5t25.5 -84t22 -78.5t15 -63h6q9 51 29 125.5t51 173.5l102 330q8 26 13.5 55.5t5.5 46.5q0 53 -33.5 77t-102.5 24h-14v86h438v-86h-26q-30 0 -52 -6t-39.5 -23.5t-32.5 -48.5t-30 -82l-264 -852h-164l-244 721l-37 135l-290 -856
h-162l-268 903q-12 32 -25 53t-30 33.5t-39 17.5t-52 5h-6v86h506v-86h-27q-61 0 -92 -18t-31 -68q0 -17 5.5 -41t11.5 -47l96 -344q10 -37 21 -81t20.5 -87.5t17.5 -81.5t13 -64h6q5 26 13.5 60.5t20 74t24.5 80.5t26 78l213 619h129z" />
    <glyph glyph-name="x" unicode="x" horiz-adv-x="1184" 
d="M786 952q0 37 -31.5 48.5t-78.5 11.5h-6v86h448v-86h-18q-30 0 -54.5 -5t-48 -19t-48.5 -40t-56 -67l-211 -281l301 -405q45 -60 85.5 -84.5t78.5 -24.5h27v-86h-529v86h10q123 0 123 68q0 11 -3 22.5t-12 27t-24 37.5t-39 54l-137 184l-143 -200q-9 -12 -19 -28t-18 -33
t-13 -34.5t-5 -33.5q0 -35 29 -49.5t98 -14.5h6v-86h-488v86h19q37 0 65 6t53 21t50 40.5t55 63.5l258 334l-258 352q-45 53 -87.5 81t-88.5 28h-27v86h520v-86h-6q-35 0 -58 -4.5t-36 -13t-18 -19.5t-5 -23q0 -21 12.5 -41.5t35.5 -52.5l135 -184l106 153q23 35 37 66
t14 59z" />
    <glyph glyph-name="y" unicode="y" horiz-adv-x="1157" 
d="M1157 1098v-86h-6q-30 0 -51.5 -6.5t-39 -24.5t-32.5 -49t-33 -80l-311 -860q-36 -99 -68 -174t-67 -128.5t-76.5 -88.5t-94.5 -56t-122 -29t-160 -8h-18v97q104 0 179 31t129.5 85t91 127.5t61.5 159.5l-379 895q-14 32 -27 52.5t-29.5 33.5t-38 18t-51.5 5h-6v86h492
v-86h-6q-62 0 -92.5 -24t-30.5 -75q0 -17 3.5 -34.5t12.5 -40.5l150 -365q14 -35 29.5 -76.5t29 -82t24.5 -76.5t15 -62h6q11 45 30.5 109.5t45.5 138.5l137 399q9 25 13.5 48t4.5 40q0 53 -33.5 77t-101.5 24h-6v86h426z" />
    <glyph glyph-name="z" unicode="z" horiz-adv-x="1047" 
d="M696 117q36 0 59.5 14t39 37t25 53.5t16.5 63.5l10 47h86l-10 -332h-836v82l594 899h-320q-40 0 -66 -10.5t-42.5 -31.5t-27 -52t-21.5 -72l-2 -8h-86l20 291h785v-84l-596 -897h372z" />
    <glyph glyph-name="braceleft" unicode="{" horiz-adv-x="877" 
d="M639 -262q-72 0 -127.5 21t-92.5 59t-56 92.5t-19 122.5v356q0 63 -18.5 104t-51.5 65.5t-77 35t-95 12.5v86q51 2 95 12t77 34.5t51.5 65.5t18.5 103v357q0 140 74.5 216t220.5 76h135v-88h-61q-91 0 -129.5 -54t-38.5 -161v-350q0 -100 -56.5 -166.5t-171.5 -85.5v-2
q118 -20 173 -86t55 -168v-354q0 -105 38.5 -160t129.5 -55h61v-88h-135z" />
    <glyph glyph-name="bar" unicode="|" horiz-adv-x="1145" 
d="M633 -492h-123v2048h123v-2048z" />
    <glyph glyph-name="braceright" unicode="}" horiz-adv-x="877" 
d="M102 -174h62q91 0 129.5 55t38.5 160v354q0 102 54.5 168t172.5 86v2q-114 19 -170.5 85.5t-56.5 166.5v350q0 107 -38.5 161t-129.5 54h-62v88h136q145 0 219.5 -76t74.5 -216v-357q0 -62 19 -103t51.5 -65.5t76.5 -34.5t95 -12v-86q-51 -2 -95 -12.5t-76.5 -35
t-51.5 -65.5t-19 -104v-356q0 -68 -19 -122.5t-56 -92.5t-92 -59t-127 -21h-136v88z" />
    <glyph glyph-name="asciitilde" unicode="~" horiz-adv-x="1145" 
d="M774 551q-30 0 -62 12.5t-63.5 31.5t-60 41.5t-51.5 43.5t-45 40.5t-43.5 34.5t-43.5 24t-45 9q-60 0 -89 -58t-40 -179h-120q6 64 18.5 128t40.5 115t75.5 83t123.5 32q34 0 68 -13t66 -33t60.5 -44t52.5 -45q22 -20 43 -38.5t41.5 -32.5t41.5 -22.5t42 -8.5
q57 0 84 61.5t41 175.5h123q-7 -64 -21 -128t-42.5 -115t-75 -83t-119.5 -32z" />
    <glyph glyph-name="uni00A0" unicode="&#xa0;" horiz-adv-x="532" 
 />
    <glyph glyph-name="exclamdown" unicode="&#xa1;" horiz-adv-x="682" 
d="M459 -367h-238l72 1051h94zM469 971q0 -40 -10 -67t-27.5 -43t-41 -23t-50.5 -7q-26 0 -49.5 7t-41 23t-28 43t-10.5 67q0 39 10.5 65.5t28 43t41 23.5t49.5 7q27 0 50.5 -7t41 -23.5t27.5 -43t10 -65.5z" />
    <glyph glyph-name="cent" unicode="&#xa2;" horiz-adv-x="1145" 
d="M584 180q-93 10 -170.5 45.5t-133.5 102t-87 168t-31 243.5q0 152 33 258t90 173.5t134 101t165 41.5v149h102v-149q59 -5 118 -19.5t106 -40t76.5 -62.5t29.5 -85q0 -71 -45.5 -100t-136.5 -29q0 42 -9 80.5t-27 69t-46 51.5t-66 28v-909q42 0 84.5 6t81.5 15.5t73 21
t58 22.5v-112q-53 -28 -129.5 -50t-167.5 -24v-176h-102v180zM360 741q0 -183 54.5 -292t169.5 -140v897q-49 -9 -90 -37.5t-71 -83t-46.5 -139t-16.5 -205.5z" />
    <glyph glyph-name="sterling" unicode="&#xa3;" horiz-adv-x="1145" 
d="M500 690q15 -51 28 -104t13 -115q0 -88 -49.5 -155.5t-131.5 -122.5l5 -9q42 20 78.5 28.5t70.5 8.5q41 0 90 -12t97.5 -27t93 -27t75.5 -12q36 0 66.5 10.5t57.5 27.5t49.5 38.5t41.5 44.5v-133q-18 -25 -43 -52t-58 -49t-74.5 -36t-92.5 -14t-100 14.5t-99 31.5
t-101.5 31.5t-106.5 14.5q-68 0 -127 -19.5t-125 -50.5l-27 -12v108l37 23q38 23 75.5 55.5t67.5 75t49 94.5t19 113q0 60 -15 117.5t-36 113.5h-228v96h189q-14 32 -28 71t-25 81.5t-18 87t-7 86.5q0 88 29 157t83 116.5t131.5 72.5t174.5 25q99 0 168 -17.5t112 -48.5
t62.5 -73t19.5 -91q0 -66 -43.5 -99.5t-118.5 -33.5q0 48 -8.5 94.5t-31 83t-63 59.5t-105.5 23q-119 0 -174.5 -68t-55.5 -196q0 -48 8 -94t20 -88.5t26 -80t26 -67.5h348v-96h-319z" />
    <glyph glyph-name="currency" unicode="&#xa4;" horiz-adv-x="1145" 
d="M197 733q0 62 17.5 117.5t51.5 101.5l-135 135l86 87l133 -136q47 34 102.5 53t118.5 19q60 0 115.5 -19t101.5 -53l138 138l86 -89l-135 -135q34 -46 52.5 -101.5t18.5 -117.5t-18.5 -117.5t-52.5 -101.5l135 -135l-84 -86l-137 135q-47 -32 -102.5 -51t-117.5 -19
t-117 18t-102 52l-135 -135l-86 86l133 135q-32 46 -49.5 101.5t-17.5 117.5zM311 733q0 -54 20.5 -101.5t56 -83t82.5 -56.5t101 -21q56 0 104 21t83 56.5t55.5 83t20.5 101.5q0 56 -20.5 104t-55.5 83.5t-83 56t-104 20.5q-54 0 -101 -20.5t-82.5 -56t-56 -83.5
t-20.5 -104z" />
    <glyph glyph-name="yen" unicode="&#xa5;" horiz-adv-x="1145" 
d="M264 0v86h47q34 0 64 4.5t52.5 18.5t36 41.5t15.5 72.5v139h-286v97h286v143h-286v96h247l-278 570q-15 30 -28 50.5t-29.5 33.5t-37.5 18.5t-51 5.5h-6v86h498v-86h-14q-62 0 -89.5 -19t-27.5 -61q0 -24 8 -54.5t25 -65.5l98 -218q15 -32 29 -69t26.5 -73t22.5 -67
t16 -51q4 11 13 32.5t20.5 47t24 52t22.5 47.5l117 249q24 54 36.5 99.5t12.5 68.5q0 42 -28.5 62t-96.5 20h-6v86h418v-86h-19q-26 0 -45 -7t-35.5 -25t-34 -49t-40.5 -78l-250 -519h254v-96h-287v-143h287v-97h-287v-129q0 -48 13.5 -77t36 -44.5t53 -20.5t65.5 -5h47v-86
h-629z" />
    <glyph glyph-name="brokenbar" unicode="&#xa6;" horiz-adv-x="1145" 
d="M633 737h-123v819h123v-819zM633 -492h-123v820h123v-820z" />
    <glyph glyph-name="section" unicode="&#xa7;" horiz-adv-x="1114" 
d="M598 795q-74 35 -138.5 69t-117.5 76q-22 -20 -36.5 -48t-14.5 -69t14 -73.5t48 -64t91.5 -64.5t145.5 -76q62 -31 122 -62.5t109 -74.5q17 24 28 53t11 63q0 35 -10 66t-38.5 63t-80 66.5t-133.5 75.5zM571 -133q126 0 188 55.5t62 149.5q0 45 -11 78.5t-48.5 67
t-109 74t-191.5 99.5q-81 40 -138.5 81.5t-93.5 87.5t-52.5 98.5t-16.5 113.5q0 77 34 134.5t87 94.5q-38 45 -57 100.5t-19 129.5q0 78 28.5 138.5t78.5 102t119.5 63t150.5 21.5q84 0 146.5 -17.5t104 -48t62 -72.5t20.5 -91q0 -66 -39.5 -95.5t-105.5 -29.5q0 48 -10 93
t-33.5 80.5t-61 57t-92.5 21.5q-102 0 -158.5 -51t-56.5 -148q0 -54 20.5 -90.5t61 -66t99.5 -57.5t137 -66q87 -42 150 -84t104 -87.5t60.5 -96.5t19.5 -111q0 -37 -10.5 -73.5t-27.5 -70t-39 -63t-46 -53.5q29 -40 46 -90t17 -113q0 -81 -22.5 -148t-70 -115.5t-122 -75.5
t-178.5 -27q-79 0 -143.5 15.5t-110.5 45.5t-71 74t-25 102q0 42 13.5 69.5t33 44t42 23t40.5 6.5q0 -54 13.5 -104.5t42 -89.5t73 -62.5t106.5 -23.5z" />
    <glyph glyph-name="dieresis" unicode="&#xa8;" horiz-adv-x="1182" 
d="M291 1409q0 32 8 54t22 35.5t33 19.5t41 6t41 -6t33.5 -19.5t22.5 -35.5t8 -54q0 -31 -8 -53t-22.5 -36t-33.5 -20t-41 -6q-45 0 -74.5 26t-29.5 89zM680 1409q0 32 8 54t22 35.5t33 19.5t41 6t41 -6t33.5 -19.5t22.5 -35.5t8 -54q0 -31 -8 -53t-22.5 -36t-33.5 -20
t-41 -6q-45 0 -74.5 26t-29.5 89z" />
    <glyph glyph-name="copyright" unicode="&#xa9;" horiz-adv-x="1731" 
d="M901 365q47 0 87 12t72 32t55.5 45t37.5 50q12 -9 20.5 -25.5t8.5 -38.5q0 -28 -19.5 -57t-58 -53t-96 -39t-134.5 -15q-102 0 -178.5 33t-128 93t-77 144t-25.5 187q0 100 28 183t83.5 143t137 93.5t189.5 33.5q71 0 123.5 -11.5t87.5 -31t52.5 -46t17.5 -57.5
q0 -22 -11 -40t-30 -30.5t-44.5 -19t-54.5 -6.5q0 29 -7.5 56.5t-24.5 50t-44.5 36t-68.5 13.5q-72 0 -122.5 -24t-82.5 -71t-46.5 -115t-14.5 -157q0 -177 69 -272.5t199 -95.5zM113 731q0 104 27 200.5t75.5 180t117 152.5t152 118t179.5 76t200 27t200.5 -27t180 -76
t152.5 -118t118 -152.5t76 -180t27 -200.5t-27 -200t-76 -179.5t-118 -152t-152.5 -117.5t-180 -75.5t-200.5 -26.5t-200 26.5t-179.5 75.5t-152 117.5t-117 152t-75.5 179.5t-27 200zM225 731q0 -88 23 -169.5t64.5 -152.5t100 -129.5t129.5 -100t152.5 -64.5t169.5 -23
q89 0 171 23t153 64.5t129.5 100t100 129.5t64.5 152.5t23 169.5t-23 170t-64.5 153.5t-100 130t-129.5 100t-153 64.5t-171 23q-88 0 -169.5 -23t-152.5 -64.5t-129.5 -100t-100 -130t-64.5 -153t-23 -170.5z" />
    <glyph glyph-name="ordfeminine" unicode="&#xaa;" horiz-adv-x="782" 
d="M250 985q0 -64 27 -88.5t67 -24.5q34 0 61 12t45.5 34t28.5 52t10 66v97l-63 -3q-50 -1 -83.5 -11.5t-54 -29t-29.5 -44.5t-9 -60zM387 1397q-31 0 -50 -11t-29.5 -30t-14.5 -44.5t-4 -54.5q-78 0 -120 20.5t-42 68.5q0 35 21 59t57 39t84 22t102 7q68 0 118 -12
t83.5 -38.5t50 -68.5t16.5 -103v-311q0 -46 19.5 -63t69.5 -17v-69h-199l-37 94h-10q-18 -20 -39.5 -39.5t-48 -34.5t-58.5 -24t-71 -9q-99 0 -156 53t-57 156q0 102 81 150.5t248 56.5l88 4v59q0 31 -3.5 56.5t-14 44t-30.5 29t-54 10.5z" />
    <glyph glyph-name="guillemotleft" unicode="&#xab;" horiz-adv-x="1053" 
d="M133 586l313 356h103l-207 -389l207 -389h-103l-313 356v66zM504 586l313 356h103l-207 -389l207 -389h-103l-313 356v66z" />
    <glyph glyph-name="logicalnot" unicode="&#xac;" horiz-adv-x="1145" 
d="M1012 793v-541h-123v420h-756v121h879z" />
    <glyph glyph-name="uni00AD" unicode="&#xad;" horiz-adv-x="635" 
d="M51 481v154h533v-154h-533z" />
    <glyph glyph-name="registered" unicode="&#xae;" horiz-adv-x="1731" 
d="M477 358h27q20 0 38 2.5t31.5 10t21.5 21.5t9 38v600q-1 24 -9 38.5t-21.5 22t-31.5 9.5t-38 2h-27v72h369q352 0 352 -244q0 -49 -16 -86t-42 -64t-59.5 -45.5t-68.5 -29.5l182 -293q10 -17 19.5 -27.5t22.5 -16.5t30.5 -8t42.5 -2v-69h-217l-226 381h-108v-240
q2 -24 10 -38t21.5 -21.5t31 -10t37.5 -2.5h29v-69h-410v69zM758 748h86q55 0 92 11t59 33t31.5 56t9.5 80q0 45 -11 77t-34.5 51.5t-61 28.5t-91.5 9h-80v-346zM113 731q0 104 27 200.5t75.5 180t117 152.5t152 118t179.5 76t200 27t200.5 -27t180 -76t152.5 -118
t118 -152.5t76 -180t27 -200.5t-27 -200t-76 -179.5t-118 -152t-152.5 -117.5t-180 -75.5t-200.5 -26.5t-200 26.5t-179.5 75.5t-152 117.5t-117 152t-75.5 179.5t-27 200zM225 731q0 -88 23 -169.5t64.5 -152.5t100 -129.5t129.5 -100t152.5 -64.5t169.5 -23q89 0 171 23
t153 64.5t129.5 100t100 129.5t64.5 152.5t23 169.5t-23 170t-64.5 153.5t-100 130t-129.5 100t-153 64.5t-171 23q-88 0 -169.5 -23t-152.5 -64.5t-129.5 -100t-100 -130t-64.5 -153t-23 -170.5z" />
    <glyph glyph-name="macron" unicode="&#xaf;" horiz-adv-x="940" 
d="M950 1556h-960v121h960v-121z" />
    <glyph glyph-name="degree" unicode="&#xb0;" horiz-adv-x="819" 
d="M98 1151q0 65 24.5 121.5t66.5 98.5t98.5 66.5t120.5 24.5q65 0 121.5 -24.5t98.5 -66.5t66.5 -98.5t24.5 -121.5q0 -64 -24.5 -120.5t-66.5 -98.5t-98.5 -66t-121.5 -24q-64 0 -120.5 24t-98.5 66t-66.5 98.5t-24.5 120.5zM221 1151q0 -38 14.5 -72.5t40 -60t59.5 -40.5
t73 -15q40 0 74 15t59.5 40.5t40 60t14.5 72.5q0 40 -14.5 74.5t-40 60t-59.5 40.5t-74 15q-39 0 -73 -15t-59.5 -40.5t-40 -60t-14.5 -74.5z" />
    <glyph glyph-name="plusminus" unicode="&#xb1;" horiz-adv-x="1145" 
d="M633 672v-379h-123v379h-377v121h377v378h123v-378h379v-121h-379zM1012 0h-879v121h879v-121z" />
    <glyph glyph-name="uni00B2" unicode="&#xb2;" horiz-adv-x="819" 
d="M690 1262q0 -48 -11 -90t-37 -84t-68.5 -87t-106.5 -100l-217 -186h297q47 0 65.5 25t24.5 59l8 43h70l-6 -256h-623v92l260 233q45 41 76 83t49.5 84.5t26.5 84.5t8 82q0 34 -6.5 62.5t-21 49.5t-37.5 32.5t-56 11.5q-37 0 -63 -14.5t-42 -39t-23 -57t-7 -67.5
q-69 0 -108.5 17t-39.5 71q0 37 18 68.5t53.5 54.5t88.5 36t123 13q143 0 224 -56.5t81 -164.5z" />
    <glyph glyph-name="uni00B3" unicode="&#xb3;" horiz-adv-x="819" 
d="M356 573q-134 0 -204 46.5t-70 121.5q0 45 25.5 73t68.5 28q0 -32 10.5 -63.5t32 -56.5t54 -40.5t77.5 -15.5q85 0 133.5 41.5t48.5 136.5q0 72 -52 114.5t-165 42.5h-67v84h67q39 0 72 12.5t58 35.5t39 55.5t14 73.5q0 68 -27 103.5t-90 35.5q-39 0 -65 -14.5t-41.5 -39
t-22 -57t-6.5 -67.5q-35 0 -63.5 3.5t-48 13.5t-30 27t-10.5 44q0 37 18.5 68.5t55 54.5t90 36t123.5 13q68 0 124 -14t96 -40t61.5 -63.5t21.5 -85.5q0 -45 -17 -80.5t-45.5 -62.5t-66.5 -46.5t-80 -31.5v-10q41 -7 84 -19.5t78.5 -35.5t58.5 -59.5t23 -92.5
q0 -75 -33.5 -126.5t-86.5 -83t-117 -45.5t-126 -14z" />
    <glyph glyph-name="acute" unicode="&#xb4;" horiz-adv-x="1182" 
d="M391 1268q23 29 47.5 67t48 78.5t45 81t37.5 74.5h219v-21q-19 -27 -56 -67.5t-82 -84.5t-92.5 -85.5t-88.5 -69.5h-78v27z" />
    <glyph glyph-name="mu" unicode="&#xb5;" horiz-adv-x="1260" 
d="M569 -20q-86 0 -147.5 31.5t-102.5 88.5q2 -85 7 -157t21.5 -126t48.5 -87.5t89 -42.5q0 -39 -8.5 -71.5t-26 -56.5t-44.5 -37.5t-64 -13.5q-32 0 -62 12t-53 40.5t-37 75.5t-14 116q0 61 3.5 131.5t7.5 156t8.5 189.5t5.5 232v637h192v-688q0 -67 10 -122t33.5 -94.5
t63 -61t98.5 -21.5q57 0 103 24t78 67.5t49.5 104.5t17.5 135v656h192v-834q0 -45 12 -78.5t30.5 -55.5t41.5 -33t45 -11h7v-86h-111q-84 0 -132 41.5t-67 122.5h-8q-24 -41 -51.5 -75t-62 -58t-77 -37.5t-96.5 -13.5z" />
    <glyph glyph-name="paragraph" unicode="&#xb6;" horiz-adv-x="1264" 
d="M860 1452h-194v-1679h-320v86h27q35 0 65.5 5t53 20.5t36 44.5t13.5 77v785h-146q-90 0 -150 32.5t-96 88t-51.5 128t-15.5 152.5q0 82 17 149t55 115t98 74t147 26h781v-86h-27q-34 0 -65 -5t-53.5 -20.5t-36 -44.5t-13.5 -77v-1317q0 -48 13.5 -77t36 -44.5t53.5 -20.5
t65 -5h27v-86h-320v1679z" />
    <glyph glyph-name="periodcentered" unicode="&#xb7;" horiz-adv-x="512" 
d="M127 729q0 40 10 67t27.5 43t41 22.5t50.5 6.5q26 0 49.5 -6.5t41 -22.5t28 -43t10.5 -67q0 -39 -10.5 -65.5t-28 -43t-41 -23.5t-49.5 -7q-27 0 -50.5 7t-41 23.5t-27.5 43t-10 65.5z" />
    <glyph glyph-name="cedilla" unicode="&#xb8;" horiz-adv-x="682" 
d="M551 -258q0 -109 -69.5 -171.5t-200.5 -62.5q-16 0 -36 1.5t-41 4.5t-42 7.5t-39 9.5v104q37 -8 74 -12t65 -4q59 0 92 31t33 84q0 60 -43.5 90t-110.5 35l43 159h97l-21 -88q100 -8 149.5 -57.5t49.5 -130.5z" />
    <glyph glyph-name="uni00B9" unicode="&#xb9;" horiz-adv-x="819" 
d="M315 1325q-24 -24 -43 -41.5t-36.5 -28t-35.5 -15.5t-40 -5q-34 0 -54 23.5t-20 60.5q24 4 46.5 7t56.5 16.5t85 43.5t132 87h102v-738q0 -26 7 -41.5t18.5 -23.5t27 -10.5t33.5 -2.5h94v-69h-561v69h113q18 0 33 2.5t26.5 10.5t18 23.5t6.5 41.5v590h-9z" />
    <glyph glyph-name="ordmasculine" unicode="&#xba;" horiz-adv-x="813" 
d="M250 1126q0 -133 35 -199.5t123 -66.5q86 0 121.5 66.5t35.5 199.5q0 131 -36.5 195.5t-122.5 64.5t-121 -64.5t-35 -195.5zM741 1126q0 -176 -85 -262t-250 -86q-158 0 -246 86.5t-88 261.5q0 176 85 261.5t253 85.5q77 0 138 -21.5t104 -64.5t66 -108t23 -153z" />
    <glyph glyph-name="guillemotright" unicode="&#xbb;" horiz-adv-x="1053" 
d="M920 520l-314 -356h-102l207 389l-207 389h102l314 -356v-66zM549 520l-313 -356h-103l207 389l-207 389h103l313 -356v-66z" />
    <glyph glyph-name="onequarter" unicode="&#xbc;" horiz-adv-x="1720" 
d="M250 1325q-24 -24 -43 -41.5t-36.5 -28t-35.5 -15.5t-40 -5q-34 0 -54 23.5t-20 60.5q24 4 46.5 7t56.5 16.5t85 43.5t132 87h102v-738q0 -26 7 -41.5t18.5 -23.5t27 -10.5t33.5 -2.5h94v-69h-561v69h113q18 0 33 2.5t26.5 10.5t18 23.5t6.5 41.5v590h-9zM566 0h-136
l731 1462h134zM1477 261v-113q0 -26 7 -41.5t19 -23.5t27.5 -10.5t32.5 -2.5h41v-69h-451v69h57q17 0 32 2.5t26.5 10.5t18.5 23.5t7 41.5v113h-364v61l383 564h164v-537h196v-88h-196zM1294 580q0 32 3 73t8 79q-8 -17 -17 -34t-14 -25l-223 -324h243v231z" />
    <glyph glyph-name="onehalf" unicode="&#xbd;" horiz-adv-x="1720" 
d="M250 1325q-24 -24 -43 -41.5t-36.5 -28t-35.5 -15.5t-40 -5q-34 0 -54 23.5t-20 60.5q24 4 46.5 7t56.5 16.5t85 43.5t132 87h102v-738q0 -26 7 -41.5t18.5 -23.5t27 -10.5t33.5 -2.5h94v-69h-561v69h113q18 0 33 2.5t26.5 10.5t18 23.5t6.5 41.5v590h-9zM525 0h-136
l731 1462h134zM1620 677q0 -48 -11 -90t-37 -84t-68.5 -87t-106.5 -100l-217 -186h297q47 0 65.5 25t24.5 59l8 43h70l-6 -256h-623v92l260 233q45 41 76 83t49.5 84.5t26.5 84.5t8 82q0 34 -6.5 62.5t-21 49.5t-37.5 32.5t-56 11.5q-37 0 -63 -14.5t-42 -39t-23 -57
t-7 -67.5q-69 0 -108.5 17t-39.5 71q0 37 18 68.5t53.5 54.5t88.5 36t123 13q143 0 224 -56.5t81 -164.5z" />
    <glyph glyph-name="threequarters" unicode="&#xbe;" horiz-adv-x="1720" 
d="M356 573q-134 0 -204 46.5t-70 121.5q0 45 25.5 73t68.5 28q0 -32 10.5 -63.5t32 -56.5t54 -40.5t77.5 -15.5q85 0 133.5 41.5t48.5 136.5q0 72 -52 114.5t-165 42.5h-67v84h67q39 0 72 12.5t58 35.5t39 55.5t14 73.5q0 68 -27 103.5t-90 35.5q-39 0 -65 -14.5t-41.5 -39
t-22 -57t-6.5 -67.5q-35 0 -63.5 3.5t-48 13.5t-30 27t-10.5 44q0 37 18.5 68.5t55 54.5t90 36t123.5 13q68 0 124 -14t96 -40t61.5 -63.5t21.5 -85.5q0 -45 -17 -80.5t-45.5 -62.5t-66.5 -46.5t-80 -31.5v-10q41 -7 84 -19.5t78.5 -35.5t58.5 -59.5t23 -92.5
q0 -75 -33.5 -126.5t-86.5 -83t-117 -45.5t-126 -14zM607 0h-136l731 1462h134zM1477 261v-113q0 -26 7 -41.5t19 -23.5t27.5 -10.5t32.5 -2.5h41v-69h-451v69h57q17 0 32 2.5t26.5 10.5t18.5 23.5t7 41.5v113h-364v61l383 564h164v-537h196v-88h-196zM1294 580q0 32 3 73
t8 79q-8 -17 -17 -34t-14 -25l-223 -324h243v231z" />
    <glyph glyph-name="questiondown" unicode="&#xbf;" horiz-adv-x="1024" 
d="M502 682h125v-311q-89 -36 -149.5 -84t-97 -103t-52 -115t-15.5 -122q0 -53 13 -96.5t40 -74.5t69.5 -48t101.5 -17q64 0 107.5 21t70.5 57t39 83.5t12 100.5q37 0 68 -8.5t53.5 -25t35.5 -41.5t13 -58q0 -49 -22.5 -91t-70 -72.5t-119.5 -48t-171 -17.5q-97 0 -179 25
t-142 72.5t-94 116.5t-34 157q0 84 26.5 153.5t77.5 126.5t125 103.5t169 85.5v231zM696 969q0 -40 -10 -67t-27.5 -43t-41 -23t-50.5 -7q-26 0 -49.5 7t-41 23t-28 43t-10.5 67q0 39 10.5 65.5t28 43t41 23.5t49.5 7q27 0 50.5 -7t41 -23.5t27.5 -43t10 -65.5z" />
    <glyph glyph-name="Agrave" unicode="&#xc0;" horiz-adv-x="1444" 
d="M414 489l-78 -215q-9 -24 -14 -47.5t-5 -40.5q0 -52 33.5 -76t102.5 -24h47v-86h-500v86h39q30 0 51 6.5t38 24.5t32.5 49t34.5 80l454 1216h160l463 -1267q12 -32 24.5 -53t29.5 -33.5t39 -17.5t52 -5h27v-86h-563v86h47q123 0 123 98q0 17 -4.5 35t-12.5 41l-82 229
h-538zM788 950q-32 91 -58.5 170.5t-43.5 153.5q-7 -37 -16.5 -71.5t-20.5 -70.5t-25 -75.5t-32 -87.5l-139 -377h462zM805 1579h-78q-41 28 -89 69.5t-93 85.5t-82 84.5t-56 67.5v21h219q16 -34 37.5 -74.5t45.5 -81t49 -78.5t47 -67v-27z" />
    <glyph glyph-name="Aacute" unicode="&#xc1;" horiz-adv-x="1444" 
d="M414 489l-78 -215q-9 -24 -14 -47.5t-5 -40.5q0 -52 33.5 -76t102.5 -24h47v-86h-500v86h39q30 0 51 6.5t38 24.5t32.5 49t34.5 80l454 1216h160l463 -1267q12 -32 24.5 -53t29.5 -33.5t39 -17.5t52 -5h27v-86h-563v86h47q123 0 123 98q0 17 -4.5 35t-12.5 41l-82 229
h-538zM788 950q-32 91 -58.5 170.5t-43.5 153.5q-7 -37 -16.5 -71.5t-20.5 -70.5t-25 -75.5t-32 -87.5l-139 -377h462zM637 1606q23 29 47.5 67t48 78.5t45 81t37.5 74.5h219v-21q-19 -27 -56 -67.5t-82 -84.5t-92.5 -85.5t-88.5 -69.5h-78v27z" />
    <glyph glyph-name="Acircumflex" unicode="&#xc2;" horiz-adv-x="1444" 
d="M414 489l-78 -215q-9 -24 -14 -47.5t-5 -40.5q0 -52 33.5 -76t102.5 -24h47v-86h-500v86h39q30 0 51 6.5t38 24.5t32.5 49t34.5 80l454 1216h160l463 -1267q12 -32 24.5 -53t29.5 -33.5t39 -17.5t52 -5h27v-86h-563v86h47q123 0 123 98q0 17 -4.5 35t-12.5 41l-82 229
h-538zM788 950q-32 91 -58.5 170.5t-43.5 153.5q-7 -37 -16.5 -71.5t-20.5 -70.5t-25 -75.5t-32 -87.5l-139 -377h462zM422 1606q24 29 53 67t57.5 78.5t53.5 81t41 74.5h194q16 -34 41 -74.5t53.5 -81t57.5 -78.5t53 -67v-27h-80q-59 34 -118 84.5t-105 99.5
q-47 -49 -105 -99.5t-116 -84.5h-80v27z" />
    <glyph glyph-name="Atilde" unicode="&#xc3;" horiz-adv-x="1444" 
d="M414 489l-78 -215q-9 -24 -14 -47.5t-5 -40.5q0 -52 33.5 -76t102.5 -24h47v-86h-500v86h39q30 0 51 6.5t38 24.5t32.5 49t34.5 80l454 1216h160l463 -1267q12 -32 24.5 -53t29.5 -33.5t39 -17.5t52 -5h27v-86h-563v86h47q123 0 123 98q0 17 -4.5 35t-12.5 41l-82 229
h-538zM788 950q-32 91 -58.5 170.5t-43.5 153.5q-7 -37 -16.5 -71.5t-20.5 -70.5t-25 -75.5t-32 -87.5l-139 -377h462zM895 1712q30 0 48.5 9t29 24.5t15 35t7.5 40.5h92q-3 -47 -16.5 -90.5t-39.5 -77.5t-65 -54t-94 -20t-99.5 20t-83 44.5t-72 44.5t-66.5 20q-31 0 -49 -9
t-28.5 -24t-15.5 -34.5t-8 -40.5h-92q3 47 16.5 90t40 77t66 54t94.5 20t99.5 -20t83 -44.5t72 -44.5t65.5 -20z" />
    <glyph glyph-name="Adieresis" unicode="&#xc4;" horiz-adv-x="1444" 
d="M414 489l-78 -215q-9 -24 -14 -47.5t-5 -40.5q0 -52 33.5 -76t102.5 -24h47v-86h-500v86h39q30 0 51 6.5t38 24.5t32.5 49t34.5 80l454 1216h160l463 -1267q12 -32 24.5 -53t29.5 -33.5t39 -17.5t52 -5h27v-86h-563v86h47q123 0 123 98q0 17 -4.5 35t-12.5 41l-82 229
h-538zM788 950q-32 91 -58.5 170.5t-43.5 153.5q-7 -37 -16.5 -71.5t-20.5 -70.5t-25 -75.5t-32 -87.5l-139 -377h462zM424 1747q0 32 8 54t22 35.5t33 19.5t41 6t41 -6t33.5 -19.5t22.5 -35.5t8 -54q0 -31 -8 -53t-22.5 -36t-33.5 -20t-41 -6q-45 0 -74.5 26t-29.5 89z
M813 1747q0 32 8 54t22 35.5t33 19.5t41 6t41 -6t33.5 -19.5t22.5 -35.5t8 -54q0 -31 -8 -53t-22.5 -36t-33.5 -20t-41 -6q-45 0 -74.5 26t-29.5 89z" />
    <glyph glyph-name="Aring" unicode="&#xc5;" horiz-adv-x="1444" 
d="M414 489l-78 -215q-9 -24 -14 -47.5t-5 -40.5q0 -52 33.5 -76t102.5 -24h47v-86h-500v86h39q30 0 51 6.5t38 24.5t32.5 49t34.5 80l454 1216h160l463 -1267q12 -32 24.5 -53t29.5 -33.5t39 -17.5t52 -5h27v-86h-563v86h47q123 0 123 98q0 17 -4.5 35t-12.5 41l-82 229
h-538zM788 950q-32 91 -58.5 170.5t-43.5 153.5q-7 -37 -16.5 -71.5t-20.5 -70.5t-25 -75.5t-32 -87.5l-139 -377h462zM971 1585q0 -55 -19 -96.5t-52.5 -69.5t-78.5 -42.5t-96 -14.5t-96 14.5t-78.5 42.5t-52.5 69.5t-19 96.5q0 54 19 96t52.5 70t78.5 42.5t96 14.5
t96 -14.5t78.5 -42.5t52.5 -70t19 -96zM860 1585q0 33 -10.5 56.5t-29 38t-43 21.5t-52.5 7t-52.5 -7t-43 -21.5t-29 -38t-10.5 -56.5t10.5 -56.5t29 -38t43 -21.5t52.5 -7t52.5 7t43 21.5t29 38t10.5 56.5z" />
    <glyph glyph-name="AE" unicode="&#xc6;" horiz-adv-x="1948" 
d="M1151 102h395q48 0 82.5 13.5t57.5 36.5t36 53.5t19 64.5l14 88h107l-15 -358h-1097v86h26q34 0 64 4.5t52.5 18.5t36.5 41.5t15 72.5v266h-471l-113 -215q-17 -32 -24.5 -61t-7.5 -47q0 -42 31.5 -61t91.5 -19h47v-86h-498v86h33q54 0 96.5 38t85.5 122l592 1120
l-160 10v86h1135l10 -358h-106l-11 88q-4 34 -15 64t-32.5 52.5t-54 36.5t-78.5 15h-344v-545h494v-100h-494v-613zM849 1221q-41 -83 -92.5 -183.5t-110.5 -214.5t-120 -231h418v768h-29q-25 -56 -66 -139z" />
    <glyph glyph-name="Ccedilla" unicode="&#xc7;" horiz-adv-x="1257" 
d="M774 1483q105 0 182.5 -17.5t129 -48.5t77 -73t25.5 -91q0 -33 -13.5 -59.5t-37.5 -45t-56.5 -28.5t-70.5 -10q0 48 -12.5 95t-41 84.5t-74 61t-112.5 23.5q-116 0 -197 -42.5t-132 -124t-74 -201t-23 -273.5q0 -137 24 -251t76 -195.5t132.5 -126.5t193.5 -45
q75 0 132.5 14.5t101.5 38.5t77.5 55.5t59.5 65.5q17 -11 28 -30t11 -50q0 -39 -26.5 -79.5t-80.5 -73.5t-137 -54.5t-197 -21.5q-153 0 -269 54t-194.5 153t-118.5 238t-40 308q0 166 42 304t124.5 237t205.5 154t285 55zM942 -258q0 -109 -69.5 -171.5t-200.5 -62.5
q-16 0 -36 1.5t-41 4.5t-42 7.5t-39 9.5v104q37 -8 74 -12t65 -4q59 0 92 31t33 84q0 60 -43.5 90t-110.5 35l43 159h97l-21 -88q100 -8 149.5 -57.5t49.5 -130.5z" />
    <glyph glyph-name="Egrave" unicode="&#xc8;" horiz-adv-x="1276" 
d="M479 102h395q49 0 83.5 13.5t57.5 36.5t36 53.5t18 64.5l14 88h107l-14 -358h-1098v86h26q34 0 64.5 4.5t53.5 18.5t36.5 41.5t13.5 72.5v1006q0 48 -13 77t-36 44.5t-53.5 20.5t-65.5 5h-26v86h1032l10 -358h-106l-10 88q-4 34 -15.5 64.5t-33 53.5t-54 36.5t-78.5 13.5
h-344v-545h494v-100h-494v-613zM743 1579h-78q-41 28 -89 69.5t-93 85.5t-82 84.5t-56 67.5v21h219q16 -34 37.5 -74.5t45.5 -81t49 -78.5t47 -67v-27z" />
    <glyph glyph-name="Eacute" unicode="&#xc9;" horiz-adv-x="1276" 
d="M479 102h395q49 0 83.5 13.5t57.5 36.5t36 53.5t18 64.5l14 88h107l-14 -358h-1098v86h26q34 0 64.5 4.5t53.5 18.5t36.5 41.5t13.5 72.5v1006q0 48 -13 77t-36 44.5t-53.5 20.5t-65.5 5h-26v86h1032l10 -358h-106l-10 88q-4 34 -15.5 64.5t-33 53.5t-54 36.5t-78.5 13.5
h-344v-545h494v-100h-494v-613zM545 1606q23 29 47.5 67t48 78.5t45 81t37.5 74.5h219v-21q-19 -27 -56 -67.5t-82 -84.5t-92.5 -85.5t-88.5 -69.5h-78v27z" />
    <glyph glyph-name="Ecircumflex" unicode="&#xca;" horiz-adv-x="1276" 
d="M479 102h395q49 0 83.5 13.5t57.5 36.5t36 53.5t18 64.5l14 88h107l-14 -358h-1098v86h26q34 0 64.5 4.5t53.5 18.5t36.5 41.5t13.5 72.5v1006q0 48 -13 77t-36 44.5t-53.5 20.5t-65.5 5h-26v86h1032l10 -358h-106l-10 88q-4 34 -15.5 64.5t-33 53.5t-54 36.5t-78.5 13.5
h-344v-545h494v-100h-494v-613zM350 1606q24 29 53 67t57.5 78.5t53.5 81t41 74.5h194q16 -34 41 -74.5t53.5 -81t57.5 -78.5t53 -67v-27h-80q-59 34 -118 84.5t-105 99.5q-47 -49 -105 -99.5t-116 -84.5h-80v27z" />
    <glyph glyph-name="Edieresis" unicode="&#xcb;" horiz-adv-x="1276" 
d="M479 102h395q49 0 83.5 13.5t57.5 36.5t36 53.5t18 64.5l14 88h107l-14 -358h-1098v86h26q34 0 64.5 4.5t53.5 18.5t36.5 41.5t13.5 72.5v1006q0 48 -13 77t-36 44.5t-53.5 20.5t-65.5 5h-26v86h1032l10 -358h-106l-10 88q-4 34 -15.5 64.5t-33 53.5t-54 36.5t-78.5 13.5
h-344v-545h494v-100h-494v-613zM342 1747q0 32 8 54t22 35.5t33 19.5t41 6t41 -6t33.5 -19.5t22.5 -35.5t8 -54q0 -31 -8 -53t-22.5 -36t-33.5 -20t-41 -6q-45 0 -74.5 26t-29.5 89zM731 1747q0 32 8 54t22 35.5t33 19.5t41 6t41 -6t33.5 -19.5t22.5 -35.5t8 -54
q0 -31 -8 -53t-22.5 -36t-33.5 -20t-41 -6q-45 0 -74.5 26t-29.5 89z" />
    <glyph glyph-name="Igrave" unicode="&#xcc;" horiz-adv-x="752" 
d="M78 0v86h26q35 0 65.5 5t53.5 20.5t36 44.5t13 77v996q0 48 -13 77t-36 44.5t-53.5 20.5t-65.5 5h-26v86h596v-86h-27q-34 0 -65 -5t-53.5 -20.5t-36 -44.5t-13.5 -77v-996q0 -48 13.5 -77t36 -44.5t53.5 -20.5t65 -5h27v-86h-596zM473 1579h-78q-41 28 -89 69.5
t-93 85.5t-82 84.5t-56 67.5v21h219q16 -34 37.5 -74.5t45.5 -81t49 -78.5t47 -67v-27z" />
    <glyph glyph-name="Iacute" unicode="&#xcd;" horiz-adv-x="752" 
d="M78 0v86h26q35 0 65.5 5t53.5 20.5t36 44.5t13 77v996q0 48 -13 77t-36 44.5t-53.5 20.5t-65.5 5h-26v86h596v-86h-27q-34 0 -65 -5t-53.5 -20.5t-36 -44.5t-13.5 -77v-996q0 -48 13.5 -77t36 -44.5t53.5 -20.5t65 -5h27v-86h-596zM271 1606q23 29 47.5 67t48 78.5t45 81
t37.5 74.5h219v-21q-19 -27 -56 -67.5t-82 -84.5t-92.5 -85.5t-88.5 -69.5h-78v27z" />
    <glyph glyph-name="Icircumflex" unicode="&#xce;" horiz-adv-x="752" 
d="M78 0v86h26q35 0 65.5 5t53.5 20.5t36 44.5t13 77v996q0 48 -13 77t-36 44.5t-53.5 20.5t-65.5 5h-26v86h596v-86h-27q-34 0 -65 -5t-53.5 -20.5t-36 -44.5t-13.5 -77v-996q0 -48 13.5 -77t36 -44.5t53.5 -20.5t65 -5h27v-86h-596zM73 1606q24 29 53 67t57.5 78.5
t53.5 81t41 74.5h194q16 -34 41 -74.5t53.5 -81t57.5 -78.5t53 -67v-27h-80q-59 34 -118 84.5t-105 99.5q-47 -49 -105 -99.5t-116 -84.5h-80v27z" />
    <glyph glyph-name="Idieresis" unicode="&#xcf;" horiz-adv-x="752" 
d="M78 0v86h26q35 0 65.5 5t53.5 20.5t36 44.5t13 77v996q0 48 -13 77t-36 44.5t-53.5 20.5t-65.5 5h-26v86h596v-86h-27q-34 0 -65 -5t-53.5 -20.5t-36 -44.5t-13.5 -77v-996q0 -48 13.5 -77t36 -44.5t53.5 -20.5t65 -5h27v-86h-596zM73 1747q0 32 8 54t22 35.5t33 19.5
t41 6t41 -6t33.5 -19.5t22.5 -35.5t8 -54q0 -31 -8 -53t-22.5 -36t-33.5 -20t-41 -6q-45 0 -74.5 26t-29.5 89zM462 1747q0 32 8 54t22 35.5t33 19.5t41 6t41 -6t33.5 -19.5t22.5 -35.5t8 -54q0 -31 -8 -53t-22.5 -36t-33.5 -20t-41 -6q-45 0 -74.5 26t-29.5 89z" />
    <glyph glyph-name="Eth" unicode="&#xd0;" horiz-adv-x="1489" 
d="M78 815h194v422q0 45 -13.5 72.5t-36.5 42.5t-53.5 19.5t-64.5 4.5h-26v86h627q158 0 282 -48.5t209.5 -141.5t130.5 -229t45 -310q0 -168 -42 -303.5t-125 -231t-208.5 -147t-291.5 -51.5h-627v86h26q35 0 65.5 5t53.5 20.5t36 44.5t13 77v482h-194v100zM657 104
q122 0 213.5 41.5t152.5 121.5t91.5 197t30.5 269t-30.5 269t-91 196.5t-152 120.5t-212.5 41h-180v-545h348v-100h-348v-611h178z" />
    <glyph glyph-name="Ntilde" unicode="&#xd1;" horiz-adv-x="1563" 
d="M1165 0l-768 1180v-947q0 -48 13.5 -77t36 -44.5t53.5 -20.5t65 -5h27v-86h-514v86h26q35 0 65.5 5t53.5 20.5t36 44.5t13 77v1004q0 45 -13.5 72.5t-36.5 42.5t-53.5 19.5t-64.5 4.5h-26v86h375l733 -1132v907q0 45 -13.5 72.5t-36.5 42.5t-53.5 19.5t-64.5 4.5h-27v86
h514v-86h-26q-35 0 -65.5 -5t-53.5 -20.5t-36 -44.5t-13 -77v-1229h-146zM979 1712q30 0 48.5 9t29 24.5t15 35t7.5 40.5h92q-3 -47 -16.5 -90.5t-39.5 -77.5t-65 -54t-94 -20t-99.5 20t-83 44.5t-72 44.5t-66.5 20q-31 0 -49 -9t-28.5 -24t-15.5 -34.5t-8 -40.5h-92
q3 47 16.5 90t40 77t66 54t94.5 20t99.5 -20t83 -44.5t72 -44.5t65.5 -20z" />
    <glyph glyph-name="Ograve" unicode="&#xd2;" horiz-adv-x="1520" 
d="M1403 733q0 -169 -42 -308t-124 -238t-202 -153t-275 -54q-163 0 -284 54t-201 153t-120 238.5t-40 309.5t40 308.5t120 236.5t202 151.5t285 53.5q155 0 274 -53.5t201 -152t124 -237t42 -309.5zM342 733q0 -152 22.5 -271.5t72.5 -202t129.5 -126t193.5 -43.5
t193.5 43.5t129 126t71.5 202t22 271.5t-22 271.5t-71.5 201.5t-128 125t-192.5 43t-194 -43t-130.5 -125t-73 -201.5t-22.5 -271.5zM861 1579h-78q-41 28 -89 69.5t-93 85.5t-82 84.5t-56 67.5v21h219q16 -34 37.5 -74.5t45.5 -81t49 -78.5t47 -67v-27z" />
    <glyph glyph-name="Oacute" unicode="&#xd3;" horiz-adv-x="1520" 
d="M1403 733q0 -169 -42 -308t-124 -238t-202 -153t-275 -54q-163 0 -284 54t-201 153t-120 238.5t-40 309.5t40 308.5t120 236.5t202 151.5t285 53.5q155 0 274 -53.5t201 -152t124 -237t42 -309.5zM342 733q0 -152 22.5 -271.5t72.5 -202t129.5 -126t193.5 -43.5
t193.5 43.5t129 126t71.5 202t22 271.5t-22 271.5t-71.5 201.5t-128 125t-192.5 43t-194 -43t-130.5 -125t-73 -201.5t-22.5 -271.5zM649 1606q23 29 47.5 67t48 78.5t45 81t37.5 74.5h219v-21q-19 -27 -56 -67.5t-82 -84.5t-92.5 -85.5t-88.5 -69.5h-78v27z" />
    <glyph glyph-name="Ocircumflex" unicode="&#xd4;" horiz-adv-x="1520" 
d="M1403 733q0 -169 -42 -308t-124 -238t-202 -153t-275 -54q-163 0 -284 54t-201 153t-120 238.5t-40 309.5t40 308.5t120 236.5t202 151.5t285 53.5q155 0 274 -53.5t201 -152t124 -237t42 -309.5zM342 733q0 -152 22.5 -271.5t72.5 -202t129.5 -126t193.5 -43.5
t193.5 43.5t129 126t71.5 202t22 271.5t-22 271.5t-71.5 201.5t-128 125t-192.5 43t-194 -43t-130.5 -125t-73 -201.5t-22.5 -271.5zM459 1606q24 29 53 67t57.5 78.5t53.5 81t41 74.5h194q16 -34 41 -74.5t53.5 -81t57.5 -78.5t53 -67v-27h-80q-59 34 -118 84.5t-105 99.5
q-47 -49 -105 -99.5t-116 -84.5h-80v27z" />
    <glyph glyph-name="Otilde" unicode="&#xd5;" horiz-adv-x="1520" 
d="M1403 733q0 -169 -42 -308t-124 -238t-202 -153t-275 -54q-163 0 -284 54t-201 153t-120 238.5t-40 309.5t40 308.5t120 236.5t202 151.5t285 53.5q155 0 274 -53.5t201 -152t124 -237t42 -309.5zM342 733q0 -152 22.5 -271.5t72.5 -202t129.5 -126t193.5 -43.5
t193.5 43.5t129 126t71.5 202t22 271.5t-22 271.5t-71.5 201.5t-128 125t-192.5 43t-194 -43t-130.5 -125t-73 -201.5t-22.5 -271.5zM918 1712q30 0 48.5 9t29 24.5t15 35t7.5 40.5h92q-3 -47 -16.5 -90.5t-39.5 -77.5t-65 -54t-94 -20t-99.5 20t-83 44.5t-72 44.5t-66.5 20
q-31 0 -49 -9t-28.5 -24t-15.5 -34.5t-8 -40.5h-92q3 47 16.5 90t40 77t66 54t94.5 20t99.5 -20t83 -44.5t72 -44.5t65.5 -20z" />
    <glyph glyph-name="Odieresis" unicode="&#xd6;" horiz-adv-x="1520" 
d="M1403 733q0 -169 -42 -308t-124 -238t-202 -153t-275 -54q-163 0 -284 54t-201 153t-120 238.5t-40 309.5t40 308.5t120 236.5t202 151.5t285 53.5q155 0 274 -53.5t201 -152t124 -237t42 -309.5zM342 733q0 -152 22.5 -271.5t72.5 -202t129.5 -126t193.5 -43.5
t193.5 43.5t129 126t71.5 202t22 271.5t-22 271.5t-71.5 201.5t-128 125t-192.5 43t-194 -43t-130.5 -125t-73 -201.5t-22.5 -271.5zM455 1747q0 32 8 54t22 35.5t33 19.5t41 6t41 -6t33.5 -19.5t22.5 -35.5t8 -54q0 -31 -8 -53t-22.5 -36t-33.5 -20t-41 -6q-45 0 -74.5 26
t-29.5 89zM844 1747q0 32 8 54t22 35.5t33 19.5t41 6t41 -6t33.5 -19.5t22.5 -35.5t8 -54q0 -31 -8 -53t-22.5 -36t-33.5 -20t-41 -6q-45 0 -74.5 26t-29.5 89z" />
    <glyph glyph-name="multiply" unicode="&#xd7;" horiz-adv-x="1145" 
d="M571 647l-340 -340l-86 88l340 340l-340 338l86 86l340 -340l340 342l86 -88l-340 -340l340 -340l-86 -86z" />
    <glyph glyph-name="Oslash" unicode="&#xd8;" horiz-adv-x="1520" 
d="M1163 1354q118 -97 179 -255t61 -366q0 -169 -42 -308t-124 -238t-202 -153t-275 -54q-93 0 -172.5 17.5t-145.5 51.5l-71 -131h-121l104 188q-121 98 -180 258.5t-59 370.5q0 170 40 308.5t120 236.5t202 151.5t285 53.5q91 0 169 -19.5t144 -54.5l76 135h119zM342 733
q0 -155 22.5 -273t73.5 -202l572 1034q-94 82 -248 82q-114 0 -194 -43t-130.5 -125t-73 -201.5t-22.5 -271.5zM1176 733q0 153 -22.5 271.5t-72.5 201.5l-571 -1036q95 -80 250 -80q114 0 193.5 43.5t129 126t71.5 202t22 271.5z" />
    <glyph glyph-name="Ugrave" unicode="&#xd9;" horiz-adv-x="1468" 
d="M741 -20q-121 0 -217 25.5t-162.5 81t-101.5 143t-35 212.5v795q0 45 -13.5 72.5t-36.5 42.5t-53.5 19.5t-64.5 4.5h-26v86h596v-86h-27q-34 0 -65 -5t-53.5 -20.5t-36 -44.5t-13.5 -77v-799q0 -89 25.5 -151.5t71 -101.5t108 -57t137.5 -18q89 0 153.5 24t107 66.5
t63 101t20.5 128.5v815q0 45 -13.5 72.5t-36.5 42.5t-53.5 19.5t-64.5 4.5h-26v86h514v-86h-27q-34 0 -65 -5t-53.5 -20.5t-36 -44.5t-13.5 -77v-811q0 -102 -32.5 -183.5t-96 -138t-157.5 -86.5t-216 -30zM852 1579h-78q-41 28 -89 69.5t-93 85.5t-82 84.5t-56 67.5v21h219
q16 -34 37.5 -74.5t45.5 -81t49 -78.5t47 -67v-27z" />
    <glyph glyph-name="Uacute" unicode="&#xda;" horiz-adv-x="1468" 
d="M741 -20q-121 0 -217 25.5t-162.5 81t-101.5 143t-35 212.5v795q0 45 -13.5 72.5t-36.5 42.5t-53.5 19.5t-64.5 4.5h-26v86h596v-86h-27q-34 0 -65 -5t-53.5 -20.5t-36 -44.5t-13.5 -77v-799q0 -89 25.5 -151.5t71 -101.5t108 -57t137.5 -18q89 0 153.5 24t107 66.5
t63 101t20.5 128.5v815q0 45 -13.5 72.5t-36.5 42.5t-53.5 19.5t-64.5 4.5h-26v86h514v-86h-27q-34 0 -65 -5t-53.5 -20.5t-36 -44.5t-13.5 -77v-811q0 -102 -32.5 -183.5t-96 -138t-157.5 -86.5t-216 -30zM649 1606q23 29 47.5 67t48 78.5t45 81t37.5 74.5h219v-21
q-19 -27 -56 -67.5t-82 -84.5t-92.5 -85.5t-88.5 -69.5h-78v27z" />
    <glyph glyph-name="Ucircumflex" unicode="&#xdb;" horiz-adv-x="1468" 
d="M741 -20q-121 0 -217 25.5t-162.5 81t-101.5 143t-35 212.5v795q0 45 -13.5 72.5t-36.5 42.5t-53.5 19.5t-64.5 4.5h-26v86h596v-86h-27q-34 0 -65 -5t-53.5 -20.5t-36 -44.5t-13.5 -77v-799q0 -89 25.5 -151.5t71 -101.5t108 -57t137.5 -18q89 0 153.5 24t107 66.5
t63 101t20.5 128.5v815q0 45 -13.5 72.5t-36.5 42.5t-53.5 19.5t-64.5 4.5h-26v86h514v-86h-27q-34 0 -65 -5t-53.5 -20.5t-36 -44.5t-13.5 -77v-811q0 -102 -32.5 -183.5t-96 -138t-157.5 -86.5t-216 -30zM471 1606q24 29 53 67t57.5 78.5t53.5 81t41 74.5h194
q16 -34 41 -74.5t53.5 -81t57.5 -78.5t53 -67v-27h-80q-59 34 -118 84.5t-105 99.5q-47 -49 -105 -99.5t-116 -84.5h-80v27z" />
    <glyph glyph-name="Udieresis" unicode="&#xdc;" horiz-adv-x="1468" 
d="M741 -20q-121 0 -217 25.5t-162.5 81t-101.5 143t-35 212.5v795q0 45 -13.5 72.5t-36.5 42.5t-53.5 19.5t-64.5 4.5h-26v86h596v-86h-27q-34 0 -65 -5t-53.5 -20.5t-36 -44.5t-13.5 -77v-799q0 -89 25.5 -151.5t71 -101.5t108 -57t137.5 -18q89 0 153.5 24t107 66.5
t63 101t20.5 128.5v815q0 45 -13.5 72.5t-36.5 42.5t-53.5 19.5t-64.5 4.5h-26v86h514v-86h-27q-34 0 -65 -5t-53.5 -20.5t-36 -44.5t-13.5 -77v-811q0 -102 -32.5 -183.5t-96 -138t-157.5 -86.5t-216 -30zM477 1747q0 32 8 54t22 35.5t33 19.5t41 6t41 -6t33.5 -19.5
t22.5 -35.5t8 -54q0 -31 -8 -53t-22.5 -36t-33.5 -20t-41 -6q-45 0 -74.5 26t-29.5 89zM866 1747q0 32 8 54t22 35.5t33 19.5t41 6t41 -6t33.5 -19.5t22.5 -35.5t8 -54q0 -31 -8 -53t-22.5 -36t-33.5 -20t-41 -6q-45 0 -74.5 26t-29.5 89z" />
    <glyph glyph-name="Yacute" unicode="&#xdd;" horiz-adv-x="1280" 
d="M326 0v86h47q34 0 64.5 4.5t53.5 18.5t36.5 41.5t13.5 72.5v387l-379 658q-17 29 -32 49.5t-31.5 33.5t-36.5 19t-46 6h-26v86h563v-86h-76q-28 0 -45.5 -5t-27.5 -14t-13.5 -21t-3.5 -25q0 -29 12.5 -58t24.5 -51l151 -274q36 -63 61 -124.5t42 -109.5q9 22 22.5 49
t30 57.5t34.5 63t36 64.5l131 235q20 35 28.5 66.5t8.5 56.5q0 45 -32 67.5t-91 22.5h-60v86h500v-86h-24q-22 0 -41.5 -7.5t-39.5 -26t-41.5 -49t-47.5 -76.5l-344 -607v-377q0 -48 13 -77t36 -44.5t53.5 -20.5t64.5 -5h48v-86h-637zM567 1606q23 29 47.5 67t48 78.5t45 81
t37.5 74.5h219v-21q-19 -27 -56 -67.5t-82 -84.5t-92.5 -85.5t-88.5 -69.5h-78v27z" />
    <glyph glyph-name="Thorn" unicode="&#xde;" horiz-adv-x="1237" 
d="M78 0v86h26q35 0 65.5 5t53.5 20.5t36 44.5t13 77v996q0 48 -13 77t-36 44.5t-53.5 20.5t-65.5 5h-26v86h616v-86h-47q-34 0 -65 -5t-53.5 -20.5t-36 -44.5t-13.5 -77v-62h174q258 0 381 -103.5t123 -303.5q0 -91 -28.5 -172t-93.5 -142t-170 -96t-257 -35h-129v-82
q0 -48 13.5 -77t36 -44.5t53.5 -20.5t65 -5h47v-86h-616zM479 412h109q93 0 159 16.5t108 56t61.5 105t19.5 162.5q0 86 -17 146t-55 98t-98.5 55.5t-147.5 17.5h-139v-657z" />
    <glyph glyph-name="germandbls" unicode="&#xdf;" horiz-adv-x="1325" 
d="M887 78q75 0 123.5 46t48.5 140q0 34 -7.5 63t-29.5 56t-61 54t-101 57q-64 32 -113 63t-81.5 69t-49 86t-16.5 113q0 62 20.5 113t62 87.5t105 56.5t150.5 20q0 97 -14 166.5t-45 114.5t-79.5 66t-117.5 21q-62 0 -108.5 -20t-77.5 -56.5t-46.5 -88.5t-15.5 -117v-1188
h-387v86h27q35 0 65.5 5t53 20.5t36 44.5t13.5 77v768h-166v97h166v61q0 113 34 190t93.5 124.5t140 68.5t174.5 21q128 0 213 -36.5t136.5 -107t73.5 -174.5t23 -239h-149q-109 0 -160 -41.5t-51 -124.5q0 -31 10 -56.5t35 -49t66 -47t102 -52.5q77 -35 126 -74.5t77 -82.5
t38.5 -88t10.5 -91q0 -78 -24 -138t-68.5 -100t-108.5 -60.5t-145 -20.5q-72 0 -131 13.5t-101 41t-65 68t-23 94.5q0 41 12 68.5t30 43.5t38.5 22.5t36.5 6.5q0 -54 10.5 -101t34 -82.5t62 -56t94.5 -20.5z" />
    <glyph glyph-name="agrave" unicode="&#xe0;" horiz-adv-x="1153" 
d="M301 297q0 -96 40.5 -143.5t125.5 -47.5q62 0 112.5 20t86 57t54.5 90t19 118v166l-131 -6q-87 -4 -145.5 -21.5t-94.5 -49t-51.5 -77.5t-15.5 -106zM549 1016q-59 0 -95.5 -16.5t-57 -46.5t-27.5 -71t-7 -89q-85 0 -129.5 29t-44.5 100q0 53 29 90t79.5 60.5t117.5 34.5
t143 11q94 0 164 -18.5t117 -60.5t70.5 -109.5t23.5 -165.5v-531q0 -43 7 -71t22 -45t39.5 -24t58.5 -7h6v-86h-277l-32 176h-17q-32 -43 -62 -79t-66 -62t-81.5 -40.5t-109.5 -14.5q-68 0 -126.5 19.5t-101 60t-66.5 102t-24 145.5q0 163 116 242t351 86l170 6v123
q0 55 -6 101.5t-26 80t-57.5 52t-100.5 18.5zM667 1241h-78q-41 28 -89 69.5t-93 85.5t-82 84.5t-56 67.5v21h219q16 -34 37.5 -74.5t45.5 -81t49 -78.5t47 -67v-27z" />
    <glyph glyph-name="aacute" unicode="&#xe1;" horiz-adv-x="1153" 
d="M301 297q0 -96 40.5 -143.5t125.5 -47.5q62 0 112.5 20t86 57t54.5 90t19 118v166l-131 -6q-87 -4 -145.5 -21.5t-94.5 -49t-51.5 -77.5t-15.5 -106zM549 1016q-59 0 -95.5 -16.5t-57 -46.5t-27.5 -71t-7 -89q-85 0 -129.5 29t-44.5 100q0 53 29 90t79.5 60.5t117.5 34.5
t143 11q94 0 164 -18.5t117 -60.5t70.5 -109.5t23.5 -165.5v-531q0 -43 7 -71t22 -45t39.5 -24t58.5 -7h6v-86h-277l-32 176h-17q-32 -43 -62 -79t-66 -62t-81.5 -40.5t-109.5 -14.5q-68 0 -126.5 19.5t-101 60t-66.5 102t-24 145.5q0 163 116 242t351 86l170 6v123
q0 55 -6 101.5t-26 80t-57.5 52t-100.5 18.5zM471 1268q23 29 47.5 67t48 78.5t45 81t37.5 74.5h219v-21q-19 -27 -56 -67.5t-82 -84.5t-92.5 -85.5t-88.5 -69.5h-78v27z" />
    <glyph glyph-name="acircumflex" unicode="&#xe2;" horiz-adv-x="1153" 
d="M301 297q0 -96 40.5 -143.5t125.5 -47.5q62 0 112.5 20t86 57t54.5 90t19 118v166l-131 -6q-87 -4 -145.5 -21.5t-94.5 -49t-51.5 -77.5t-15.5 -106zM549 1016q-59 0 -95.5 -16.5t-57 -46.5t-27.5 -71t-7 -89q-85 0 -129.5 29t-44.5 100q0 53 29 90t79.5 60.5t117.5 34.5
t143 11q94 0 164 -18.5t117 -60.5t70.5 -109.5t23.5 -165.5v-531q0 -43 7 -71t22 -45t39.5 -24t58.5 -7h6v-86h-277l-32 176h-17q-32 -43 -62 -79t-66 -62t-81.5 -40.5t-109.5 -14.5q-68 0 -126.5 19.5t-101 60t-66.5 102t-24 145.5q0 163 116 242t351 86l170 6v123
q0 55 -6 101.5t-26 80t-57.5 52t-100.5 18.5zM261 1268q24 29 53 67t57.5 78.5t53.5 81t41 74.5h194q16 -34 41 -74.5t53.5 -81t57.5 -78.5t53 -67v-27h-80q-59 34 -118 84.5t-105 99.5q-47 -49 -105 -99.5t-116 -84.5h-80v27z" />
    <glyph glyph-name="atilde" unicode="&#xe3;" horiz-adv-x="1153" 
d="M301 297q0 -96 40.5 -143.5t125.5 -47.5q62 0 112.5 20t86 57t54.5 90t19 118v166l-131 -6q-87 -4 -145.5 -21.5t-94.5 -49t-51.5 -77.5t-15.5 -106zM549 1016q-59 0 -95.5 -16.5t-57 -46.5t-27.5 -71t-7 -89q-85 0 -129.5 29t-44.5 100q0 53 29 90t79.5 60.5t117.5 34.5
t143 11q94 0 164 -18.5t117 -60.5t70.5 -109.5t23.5 -165.5v-531q0 -43 7 -71t22 -45t39.5 -24t58.5 -7h6v-86h-277l-32 176h-17q-32 -43 -62 -79t-66 -62t-81.5 -40.5t-109.5 -14.5q-68 0 -126.5 19.5t-101 60t-66.5 102t-24 145.5q0 163 116 242t351 86l170 6v123
q0 55 -6 101.5t-26 80t-57.5 52t-100.5 18.5zM743 1374q30 0 48.5 9t29 24.5t15 35t7.5 40.5h92q-3 -47 -16.5 -90.5t-39.5 -77.5t-65 -54t-94 -20t-99.5 20t-83 44.5t-72 44.5t-66.5 20q-31 0 -49 -9t-28.5 -24t-15.5 -34.5t-8 -40.5h-92q3 47 16.5 90t40 77t66 54t94.5 20
t99.5 -20t83 -44.5t72 -44.5t65.5 -20z" />
    <glyph glyph-name="adieresis" unicode="&#xe4;" horiz-adv-x="1153" 
d="M301 297q0 -96 40.5 -143.5t125.5 -47.5q62 0 112.5 20t86 57t54.5 90t19 118v166l-131 -6q-87 -4 -145.5 -21.5t-94.5 -49t-51.5 -77.5t-15.5 -106zM549 1016q-59 0 -95.5 -16.5t-57 -46.5t-27.5 -71t-7 -89q-85 0 -129.5 29t-44.5 100q0 53 29 90t79.5 60.5t117.5 34.5
t143 11q94 0 164 -18.5t117 -60.5t70.5 -109.5t23.5 -165.5v-531q0 -43 7 -71t22 -45t39.5 -24t58.5 -7h6v-86h-277l-32 176h-17q-32 -43 -62 -79t-66 -62t-81.5 -40.5t-109.5 -14.5q-68 0 -126.5 19.5t-101 60t-66.5 102t-24 145.5q0 163 116 242t351 86l170 6v123
q0 55 -6 101.5t-26 80t-57.5 52t-100.5 18.5zM257 1409q0 32 8 54t22 35.5t33 19.5t41 6t41 -6t33.5 -19.5t22.5 -35.5t8 -54q0 -31 -8 -53t-22.5 -36t-33.5 -20t-41 -6q-45 0 -74.5 26t-29.5 89zM646 1409q0 32 8 54t22 35.5t33 19.5t41 6t41 -6t33.5 -19.5t22.5 -35.5
t8 -54q0 -31 -8 -53t-22.5 -36t-33.5 -20t-41 -6q-45 0 -74.5 26t-29.5 89z" />
    <glyph glyph-name="aring" unicode="&#xe5;" horiz-adv-x="1153" 
d="M301 297q0 -96 40.5 -143.5t125.5 -47.5q62 0 112.5 20t86 57t54.5 90t19 118v166l-131 -6q-87 -4 -145.5 -21.5t-94.5 -49t-51.5 -77.5t-15.5 -106zM549 1016q-59 0 -95.5 -16.5t-57 -46.5t-27.5 -71t-7 -89q-85 0 -129.5 29t-44.5 100q0 53 29 90t79.5 60.5t117.5 34.5
t143 11q94 0 164 -18.5t117 -60.5t70.5 -109.5t23.5 -165.5v-531q0 -43 7 -71t22 -45t39.5 -24t58.5 -7h6v-86h-277l-32 176h-17q-32 -43 -62 -79t-66 -62t-81.5 -40.5t-109.5 -14.5q-68 0 -126.5 19.5t-101 60t-66.5 102t-24 145.5q0 163 116 242t351 86l170 6v123
q0 55 -6 101.5t-26 80t-57.5 52t-100.5 18.5zM819 1444q0 -55 -19 -96.5t-52.5 -69.5t-78.5 -42.5t-96 -14.5t-96 14.5t-78.5 42.5t-52.5 69.5t-19 96.5q0 54 19 96t52.5 70t78.5 42.5t96 14.5t96 -14.5t78.5 -42.5t52.5 -70t19 -96zM708 1444q0 33 -10.5 56.5t-29 38
t-43 21.5t-52.5 7t-52.5 -7t-43 -21.5t-29 -38t-10.5 -56.5t10.5 -56.5t29 -38t43 -21.5t52.5 -7t52.5 7t43 21.5t29 38t10.5 56.5z" />
    <glyph glyph-name="ae" unicode="&#xe6;" horiz-adv-x="1722" 
d="M301 297q0 -96 40.5 -143.5t125.5 -47.5q62 0 112.5 20t86 57t54.5 90t19 118v123v27v16l-131 -6q-87 -4 -145.5 -21.5t-94.5 -49t-51.5 -77.5t-15.5 -106zM1190 1008q-115 0 -176 -92.5t-72 -270.5h471q0 81 -12 148t-38 115t-68.5 74t-104.5 26zM1221 -20
q-150 0 -254.5 59t-161.5 174q-19 -46 -53 -88t-82.5 -74.5t-111 -51.5t-138.5 -19q-68 0 -126.5 19.5t-101 60t-66.5 102t-24 145.5q0 163 116 242t351 86l170 6v123q0 55 -6 101.5t-26 80t-57.5 52t-100.5 18.5q-59 0 -95.5 -16.5t-57 -46.5t-27.5 -71t-7 -89
q-85 0 -129.5 29t-44.5 100q0 53 29 90t79.5 60.5t117.5 34.5t143 11q116 0 195.5 -29.5t124.5 -95.5q114 125 317 125q99 0 178 -31t134 -92.5t84.5 -153t29.5 -212.5v-94h-682q2 -112 21.5 -192.5t58 -132.5t97.5 -76.5t140 -24.5q45 0 87 11t78.5 30.5t66 45.5t49.5 56
q14 -6 26.5 -25t12.5 -45q0 -31 -22 -66.5t-66 -65.5t-110.5 -50t-155.5 -20z" />
    <glyph glyph-name="ccedilla" unicode="&#xe7;" horiz-adv-x="1008" 
d="M580 -20q-102 0 -188 31.5t-148 99.5t-96.5 174.5t-34.5 257.5q0 164 34.5 274.5t96 177.5t145 95t180.5 28q64 0 127.5 -12.5t114.5 -38.5t83 -65.5t32 -92.5q0 -71 -46 -100t-137 -29q0 48 -8 91t-27.5 75.5t-53 51t-85.5 18.5q-59 0 -106.5 -22t-81.5 -76t-52 -145
t-18 -228q0 -218 72.5 -325t237.5 -107q95 0 166 40t106 103q15 -12 25 -32t10 -48q0 -35 -22 -70t-65.5 -63t-108.5 -45.5t-152 -17.5zM784 -258q0 -109 -69.5 -171.5t-200.5 -62.5q-16 0 -36 1.5t-41 4.5t-42 7.5t-39 9.5v104q37 -8 74 -12t65 -4q59 0 92 31t33 84
q0 60 -43.5 90t-110.5 35l43 159h97l-21 -88q100 -8 149.5 -57.5t49.5 -130.5z" />
    <glyph glyph-name="egrave" unicode="&#xe8;" horiz-adv-x="1096" 
d="M563 1008q-114 0 -175.5 -92.5t-72.5 -270.5h471q0 81 -12 148t-38 115t-68.5 74t-104.5 26zM588 -20q-111 0 -199.5 37.5t-149.5 109.5t-93.5 176.5t-32.5 237.5q0 287 118 432t336 145q99 0 178 -31t134 -92.5t84.5 -153t29.5 -212.5v-94h-682q2 -112 22.5 -192.5
t59 -132.5t94.5 -76.5t129 -24.5q53 0 98.5 12t82.5 32t65.5 45.5t46.5 53.5q14 -6 26.5 -25t12.5 -45q0 -31 -22 -66.5t-67 -65.5t-112.5 -50t-158.5 -20zM683 1241h-78q-41 28 -89 69.5t-93 85.5t-82 84.5t-56 67.5v21h219q16 -34 37.5 -74.5t45.5 -81t49 -78.5t47 -67
v-27z" />
    <glyph glyph-name="eacute" unicode="&#xe9;" horiz-adv-x="1096" 
d="M563 1008q-114 0 -175.5 -92.5t-72.5 -270.5h471q0 81 -12 148t-38 115t-68.5 74t-104.5 26zM588 -20q-111 0 -199.5 37.5t-149.5 109.5t-93.5 176.5t-32.5 237.5q0 287 118 432t336 145q99 0 178 -31t134 -92.5t84.5 -153t29.5 -212.5v-94h-682q2 -112 22.5 -192.5
t59 -132.5t94.5 -76.5t129 -24.5q53 0 98.5 12t82.5 32t65.5 45.5t46.5 53.5q14 -6 26.5 -25t12.5 -45q0 -31 -22 -66.5t-67 -65.5t-112.5 -50t-158.5 -20zM473 1268q23 29 47.5 67t48 78.5t45 81t37.5 74.5h219v-21q-19 -27 -56 -67.5t-82 -84.5t-92.5 -85.5t-88.5 -69.5
h-78v27z" />
    <glyph glyph-name="ecircumflex" unicode="&#xea;" horiz-adv-x="1096" 
d="M563 1008q-114 0 -175.5 -92.5t-72.5 -270.5h471q0 81 -12 148t-38 115t-68.5 74t-104.5 26zM588 -20q-111 0 -199.5 37.5t-149.5 109.5t-93.5 176.5t-32.5 237.5q0 287 118 432t336 145q99 0 178 -31t134 -92.5t84.5 -153t29.5 -212.5v-94h-682q2 -112 22.5 -192.5
t59 -132.5t94.5 -76.5t129 -24.5q53 0 98.5 12t82.5 32t65.5 45.5t46.5 53.5q14 -6 26.5 -25t12.5 -45q0 -31 -22 -66.5t-67 -65.5t-112.5 -50t-158.5 -20zM255 1268q24 29 53 67t57.5 78.5t53.5 81t41 74.5h194q16 -34 41 -74.5t53.5 -81t57.5 -78.5t53 -67v-27h-80
q-59 34 -118 84.5t-105 99.5q-47 -49 -105 -99.5t-116 -84.5h-80v27z" />
    <glyph glyph-name="edieresis" unicode="&#xeb;" horiz-adv-x="1096" 
d="M563 1008q-114 0 -175.5 -92.5t-72.5 -270.5h471q0 81 -12 148t-38 115t-68.5 74t-104.5 26zM588 -20q-111 0 -199.5 37.5t-149.5 109.5t-93.5 176.5t-32.5 237.5q0 287 118 432t336 145q99 0 178 -31t134 -92.5t84.5 -153t29.5 -212.5v-94h-682q2 -112 22.5 -192.5
t59 -132.5t94.5 -76.5t129 -24.5q53 0 98.5 12t82.5 32t65.5 45.5t46.5 53.5q14 -6 26.5 -25t12.5 -45q0 -31 -22 -66.5t-67 -65.5t-112.5 -50t-158.5 -20zM253 1409q0 32 8 54t22 35.5t33 19.5t41 6t41 -6t33.5 -19.5t22.5 -35.5t8 -54q0 -31 -8 -53t-22.5 -36t-33.5 -20
t-41 -6q-45 0 -74.5 26t-29.5 89zM642 1409q0 32 8 54t22 35.5t33 19.5t41 6t41 -6t33.5 -19.5t22.5 -35.5t8 -54q0 -31 -8 -53t-22.5 -36t-33.5 -20t-41 -6q-45 0 -74.5 26t-29.5 89z" />
    <glyph glyph-name="igrave" unicode="&#xec;" horiz-adv-x="655" 
d="M74 86q34 0 64.5 4.5t53.5 18.5t36.5 41.5t13.5 72.5v649q0 45 -13.5 72.5t-36.5 42.5t-53.5 20t-64.5 5h-6v86h366v-865q0 -48 13.5 -77t36 -44.5t53.5 -20.5t65 -5h27v-86h-582v86h27zM436 1241h-78q-41 28 -89 69.5t-93 85.5t-82 84.5t-56 67.5v21h219
q16 -34 37.5 -74.5t45.5 -81t49 -78.5t47 -67v-27z" />
    <glyph glyph-name="iacute" unicode="&#xed;" horiz-adv-x="655" 
d="M74 86q34 0 64.5 4.5t53.5 18.5t36.5 41.5t13.5 72.5v649q0 45 -13.5 72.5t-36.5 42.5t-53.5 20t-64.5 5h-6v86h366v-865q0 -48 13.5 -77t36 -44.5t53.5 -20.5t65 -5h27v-86h-582v86h27zM240 1268q23 29 47.5 67t48 78.5t45 81t37.5 74.5h219v-21q-19 -27 -56 -67.5
t-82 -84.5t-92.5 -85.5t-88.5 -69.5h-78v27z" />
    <glyph glyph-name="icircumflex" unicode="&#xee;" horiz-adv-x="655" 
d="M74 86q34 0 64.5 4.5t53.5 18.5t36.5 41.5t13.5 72.5v649q0 45 -13.5 72.5t-36.5 42.5t-53.5 20t-64.5 5h-6v86h366v-865q0 -48 13.5 -77t36 -44.5t53.5 -20.5t65 -5h27v-86h-582v86h27zM22 1268q24 29 53 67t57.5 78.5t53.5 81t41 74.5h194q16 -34 41 -74.5t53.5 -81
t57.5 -78.5t53 -67v-27h-80q-59 34 -118 84.5t-105 99.5q-47 -49 -105 -99.5t-116 -84.5h-80v27z" />
    <glyph glyph-name="idieresis" unicode="&#xef;" horiz-adv-x="655" 
d="M74 86q34 0 64.5 4.5t53.5 18.5t36.5 41.5t13.5 72.5v649q0 45 -13.5 72.5t-36.5 42.5t-53.5 20t-64.5 5h-6v86h366v-865q0 -48 13.5 -77t36 -44.5t53.5 -20.5t65 -5h27v-86h-582v86h27zM18 1409q0 32 8 54t22 35.5t33 19.5t41 6t41 -6t33.5 -19.5t22.5 -35.5t8 -54
q0 -31 -8 -53t-22.5 -36t-33.5 -20t-41 -6q-45 0 -74.5 26t-29.5 89zM407 1409q0 32 8 54t22 35.5t33 19.5t41 6t41 -6t33.5 -19.5t22.5 -35.5t8 -54q0 -31 -8 -53t-22.5 -36t-33.5 -20t-41 -6q-45 0 -74.5 26t-29.5 89z" />
    <glyph glyph-name="eth" unicode="&#xf0;" horiz-adv-x="1182" 
d="M307 1559q94 -23 184 -60.5t171 -91.5l264 154v-117l-181 -103q72 -60 132 -137.5t102.5 -171.5t66 -203.5t23.5 -232.5q0 -312 -122.5 -464t-358.5 -152q-111 0 -199 32.5t-149.5 98.5t-94 165.5t-32.5 233.5q0 266 121.5 396t359.5 130q68 0 126 -14t109 -39
q-21 68 -74.5 143.5t-131.5 143.5l-256 -146v115l172 98q-51 34 -109 62.5t-123 48.5v111zM311 510q0 -105 15 -184t48.5 -132.5t87 -80.5t130.5 -27t130 27t86 80.5t47.5 132.5t14.5 184q0 104 -15 182.5t-48 131t-86.5 78.5t-130.5 26t-130 -26t-86 -78.5t-48 -131
t-15 -182.5z" />
    <glyph glyph-name="ntilde" unicode="&#xf1;" horiz-adv-x="1321" 
d="M608 86v-86h-551v86h17q35 0 65.5 5t53 20.5t36 44.5t13.5 77v639q0 45 -13.5 72.5t-36.5 42.5t-53.5 20t-64.5 5h-6v86h331l27 -166h10q32 57 67.5 93.5t75 57t84 28t93.5 7.5q81 0 144.5 -23.5t108 -72t68 -124.5t23.5 -181v-484q0 -48 11.5 -77t32.5 -44.5t50 -20.5
t63 -5h7v-86h-357v707q0 67 -12 119t-38.5 88t-69.5 54.5t-105 18.5q-70 0 -117.5 -27t-76.5 -73t-41.5 -106t-12.5 -126v-432q0 -45 13.5 -72.5t36.5 -41.5t53.5 -18.5t64.5 -4.5h6zM842 1374q30 0 48.5 9t29 24.5t15 35t7.5 40.5h92q-3 -47 -16.5 -90.5t-39.5 -77.5
t-65 -54t-94 -20t-99.5 20t-83 44.5t-72 44.5t-66.5 20q-31 0 -49 -9t-28.5 -24t-15.5 -34.5t-8 -40.5h-92q3 47 16.5 90t40 77t66 54t94.5 20t99.5 -20t83 -44.5t72 -44.5t65.5 -20z" />
    <glyph glyph-name="ograve" unicode="&#xf2;" horiz-adv-x="1182" 
d="M1069 551q0 -289 -122.5 -430t-358.5 -141q-111 0 -199 35t-149.5 106t-94 178.5t-32.5 251.5q0 287 121.5 427t359.5 140q111 0 199 -34.5t149.5 -105t94 -177t32.5 -250.5zM311 551q0 -114 15 -201t48.5 -145.5t87 -88.5t130.5 -30t130 30t86 88.5t47.5 145.5t14.5 201
t-15 200t-48 143.5t-86.5 86.5t-130.5 29t-130 -29t-86 -86.5t-48 -143.5t-15 -200zM696 1241h-78q-41 28 -89 69.5t-93 85.5t-82 84.5t-56 67.5v21h219q16 -34 37.5 -74.5t45.5 -81t49 -78.5t47 -67v-27z" />
    <glyph glyph-name="oacute" unicode="&#xf3;" horiz-adv-x="1182" 
d="M1069 551q0 -289 -122.5 -430t-358.5 -141q-111 0 -199 35t-149.5 106t-94 178.5t-32.5 251.5q0 287 121.5 427t359.5 140q111 0 199 -34.5t149.5 -105t94 -177t32.5 -250.5zM311 551q0 -114 15 -201t48.5 -145.5t87 -88.5t130.5 -30t130 30t86 88.5t47.5 145.5t14.5 201
t-15 200t-48 143.5t-86.5 86.5t-130.5 29t-130 -29t-86 -86.5t-48 -143.5t-15 -200zM512 1268q23 29 47.5 67t48 78.5t45 81t37.5 74.5h219v-21q-19 -27 -56 -67.5t-82 -84.5t-92.5 -85.5t-88.5 -69.5h-78v27z" />
    <glyph glyph-name="ocircumflex" unicode="&#xf4;" horiz-adv-x="1182" 
d="M1069 551q0 -289 -122.5 -430t-358.5 -141q-111 0 -199 35t-149.5 106t-94 178.5t-32.5 251.5q0 287 121.5 427t359.5 140q111 0 199 -34.5t149.5 -105t94 -177t32.5 -250.5zM311 551q0 -114 15 -201t48.5 -145.5t87 -88.5t130.5 -30t130 30t86 88.5t47.5 145.5t14.5 201
t-15 200t-48 143.5t-86.5 86.5t-130.5 29t-130 -29t-86 -86.5t-48 -143.5t-15 -200zM284 1268q24 29 53 67t57.5 78.5t53.5 81t41 74.5h194q16 -34 41 -74.5t53.5 -81t57.5 -78.5t53 -67v-27h-80q-59 34 -118 84.5t-105 99.5q-47 -49 -105 -99.5t-116 -84.5h-80v27z" />
    <glyph glyph-name="otilde" unicode="&#xf5;" horiz-adv-x="1182" 
d="M1069 551q0 -289 -122.5 -430t-358.5 -141q-111 0 -199 35t-149.5 106t-94 178.5t-32.5 251.5q0 287 121.5 427t359.5 140q111 0 199 -34.5t149.5 -105t94 -177t32.5 -250.5zM311 551q0 -114 15 -201t48.5 -145.5t87 -88.5t130.5 -30t130 30t86 88.5t47.5 145.5t14.5 201
t-15 200t-48 143.5t-86.5 86.5t-130.5 29t-130 -29t-86 -86.5t-48 -143.5t-15 -200zM757 1374q30 0 48.5 9t29 24.5t15 35t7.5 40.5h92q-3 -47 -16.5 -90.5t-39.5 -77.5t-65 -54t-94 -20t-99.5 20t-83 44.5t-72 44.5t-66.5 20q-31 0 -49 -9t-28.5 -24t-15.5 -34.5t-8 -40.5
h-92q3 47 16.5 90t40 77t66 54t94.5 20t99.5 -20t83 -44.5t72 -44.5t65.5 -20z" />
    <glyph glyph-name="odieresis" unicode="&#xf6;" horiz-adv-x="1182" 
d="M1069 551q0 -289 -122.5 -430t-358.5 -141q-111 0 -199 35t-149.5 106t-94 178.5t-32.5 251.5q0 287 121.5 427t359.5 140q111 0 199 -34.5t149.5 -105t94 -177t32.5 -250.5zM311 551q0 -114 15 -201t48.5 -145.5t87 -88.5t130.5 -30t130 30t86 88.5t47.5 145.5t14.5 201
t-15 200t-48 143.5t-86.5 86.5t-130.5 29t-130 -29t-86 -86.5t-48 -143.5t-15 -200zM284 1409q0 32 8 54t22 35.5t33 19.5t41 6t41 -6t33.5 -19.5t22.5 -35.5t8 -54q0 -31 -8 -53t-22.5 -36t-33.5 -20t-41 -6q-45 0 -74.5 26t-29.5 89zM673 1409q0 32 8 54t22 35.5t33 19.5
t41 6t41 -6t33.5 -19.5t22.5 -35.5t8 -54q0 -31 -8 -53t-22.5 -36t-33.5 -20t-41 -6q-45 0 -74.5 26t-29.5 89z" />
    <glyph glyph-name="divide" unicode="&#xf7;" horiz-adv-x="1145" 
d="M1012 672h-879v121h879v-121zM469 1120q0 32 8 54t22 35t33 18.5t41 5.5t41 -5.5t33.5 -18.5t22.5 -35t8 -54q0 -31 -8 -52.5t-22.5 -35t-33.5 -19t-41 -5.5t-41 5.5t-33 19t-22 35t-8 52.5zM469 344q0 32 8 54t22 35t33 18.5t41 5.5t41 -5.5t33.5 -18.5t22.5 -35t8 -54
q0 -31 -8 -53t-22.5 -35t-33.5 -19t-41 -6q-45 0 -74.5 25t-29.5 88z" />
    <glyph glyph-name="oslash" unicode="&#xf8;" horiz-adv-x="1182" 
d="M930 991q68 -69 103.5 -178.5t35.5 -261.5q0 -289 -122.5 -430t-358.5 -141q-71 0 -133 14t-113 43l-74 -119h-121l111 180q-71 72 -108 183.5t-37 269.5q0 287 121.5 427t359.5 140q74 0 137.5 -16t116.5 -47l78 125h118zM311 551q0 -94 10 -169t31 -132l424 686
q-68 74 -186 74q-77 0 -130 -29t-86 -86.5t-48 -143.5t-15 -200zM870 551q0 177 -36 285l-422 -684q32 -32 76.5 -49t103.5 -17q77 0 130 30t86 88.5t47.5 145.5t14.5 201z" />
    <glyph glyph-name="ugrave" unicode="&#xf9;" horiz-adv-x="1300" 
d="M1079 223q0 -45 13.5 -72.5t36.5 -41.5t53.5 -18.5t64.5 -4.5h6v-86h-325l-27 166h-10q-31 -58 -68.5 -94t-79.5 -56.5t-88 -28t-96 -7.5q-81 0 -144 23t-106 72t-65.5 125t-22.5 181v491q0 45 -13.5 72.5t-36.5 42.5t-53.5 20t-64.5 5h-6v86h367v-707q0 -67 10.5 -119
t35 -88t66 -54.5t103.5 -18.5q68 0 116.5 24t80 67.5t46.5 104.5t15 135v422q0 48 -13.5 77.5t-36 45t-53 20.5t-65.5 5h-6v86h366v-875zM712 1241h-78q-41 28 -89 69.5t-93 85.5t-82 84.5t-56 67.5v21h219q16 -34 37.5 -74.5t45.5 -81t49 -78.5t47 -67v-27z" />
    <glyph glyph-name="uacute" unicode="&#xfa;" horiz-adv-x="1300" 
d="M1079 223q0 -45 13.5 -72.5t36.5 -41.5t53.5 -18.5t64.5 -4.5h6v-86h-325l-27 166h-10q-31 -58 -68.5 -94t-79.5 -56.5t-88 -28t-96 -7.5q-81 0 -144 23t-106 72t-65.5 125t-22.5 181v491q0 45 -13.5 72.5t-36.5 42.5t-53.5 20t-64.5 5h-6v86h367v-707q0 -67 10.5 -119
t35 -88t66 -54.5t103.5 -18.5q68 0 116.5 24t80 67.5t46.5 104.5t15 135v422q0 48 -13.5 77.5t-36 45t-53 20.5t-65.5 5h-6v86h366v-875zM541 1268q23 29 47.5 67t48 78.5t45 81t37.5 74.5h219v-21q-19 -27 -56 -67.5t-82 -84.5t-92.5 -85.5t-88.5 -69.5h-78v27z" />
    <glyph glyph-name="ucircumflex" unicode="&#xfb;" horiz-adv-x="1300" 
d="M1079 223q0 -45 13.5 -72.5t36.5 -41.5t53.5 -18.5t64.5 -4.5h6v-86h-325l-27 166h-10q-31 -58 -68.5 -94t-79.5 -56.5t-88 -28t-96 -7.5q-81 0 -144 23t-106 72t-65.5 125t-22.5 181v491q0 45 -13.5 72.5t-36.5 42.5t-53.5 20t-64.5 5h-6v86h367v-707q0 -67 10.5 -119
t35 -88t66 -54.5t103.5 -18.5q68 0 116.5 24t80 67.5t46.5 104.5t15 135v422q0 48 -13.5 77.5t-36 45t-53 20.5t-65.5 5h-6v86h366v-875zM342 1268q24 29 53 67t57.5 78.5t53.5 81t41 74.5h194q16 -34 41 -74.5t53.5 -81t57.5 -78.5t53 -67v-27h-80q-59 34 -118 84.5
t-105 99.5q-47 -49 -105 -99.5t-116 -84.5h-80v27z" />
    <glyph glyph-name="udieresis" unicode="&#xfc;" horiz-adv-x="1300" 
d="M1079 223q0 -45 13.5 -72.5t36.5 -41.5t53.5 -18.5t64.5 -4.5h6v-86h-325l-27 166h-10q-31 -58 -68.5 -94t-79.5 -56.5t-88 -28t-96 -7.5q-81 0 -144 23t-106 72t-65.5 125t-22.5 181v491q0 45 -13.5 72.5t-36.5 42.5t-53.5 20t-64.5 5h-6v86h367v-707q0 -67 10.5 -119
t35 -88t66 -54.5t103.5 -18.5q68 0 116.5 24t80 67.5t46.5 104.5t15 135v422q0 48 -13.5 77.5t-36 45t-53 20.5t-65.5 5h-6v86h366v-875zM348 1409q0 32 8 54t22 35.5t33 19.5t41 6t41 -6t33.5 -19.5t22.5 -35.5t8 -54q0 -31 -8 -53t-22.5 -36t-33.5 -20t-41 -6
q-45 0 -74.5 26t-29.5 89zM737 1409q0 32 8 54t22 35.5t33 19.5t41 6t41 -6t33.5 -19.5t22.5 -35.5t8 -54q0 -31 -8 -53t-22.5 -36t-33.5 -20t-41 -6q-45 0 -74.5 26t-29.5 89z" />
    <glyph glyph-name="yacute" unicode="&#xfd;" horiz-adv-x="1157" 
d="M1157 1098v-86h-6q-30 0 -51.5 -6.5t-39 -24.5t-32.5 -49t-33 -80l-311 -860q-36 -99 -68 -174t-67 -128.5t-76.5 -88.5t-94.5 -56t-122 -29t-160 -8h-18v97q104 0 179 31t129.5 85t91 127.5t61.5 159.5l-379 895q-14 32 -27 52.5t-29.5 33.5t-38 18t-51.5 5h-6v86h492
v-86h-6q-62 0 -92.5 -24t-30.5 -75q0 -17 3.5 -34.5t12.5 -40.5l150 -365q14 -35 29.5 -76.5t29 -82t24.5 -76.5t15 -62h6q11 45 30.5 109.5t45.5 138.5l137 399q9 25 13.5 48t4.5 40q0 53 -33.5 77t-101.5 24h-6v86h426zM504 1268q23 29 47.5 67t48 78.5t45 81t37.5 74.5
h219v-21q-19 -27 -56 -67.5t-82 -84.5t-92.5 -85.5t-88.5 -69.5h-78v27z" />
    <glyph glyph-name="thorn" unicode="&#xfe;" horiz-adv-x="1257" 
d="M692 987q-80 0 -133.5 -26.5t-85.5 -80.5t-45.5 -136t-13.5 -193q0 -107 13.5 -189t46 -138t86 -84.5t134.5 -28.5q67 0 115 28.5t78.5 84.5t44.5 138.5t14 190.5q0 218 -59 326t-195 108zM1145 551q0 -148 -27.5 -256t-80.5 -178t-131 -103.5t-179 -33.5q-59 0 -107 13
t-86.5 37t-68 57t-51.5 73h-8q2 -53 4 -99q1 -20 1.5 -40t1 -38t1 -32.5t0.5 -22.5v-196q0 -45 13.5 -72.5t36.5 -42t53.5 -19t64.5 -4.5h6v-86h-551v86h16q34 0 65 5t53.5 20.5t36 45t13.5 77.5v1589q0 45 -13.5 72.5t-36.5 42.5t-53.5 19.5t-64.5 4.5h-16v86h377v-376
q0 -35 -1 -80.5t-3 -87.5q-2 -48 -4 -99h8q23 47 52 85t67 64.5t86 41t108 14.5q101 0 179 -33.5t131 -103t80.5 -176.5t27.5 -254z" />
    <glyph glyph-name="ydieresis" unicode="&#xff;" horiz-adv-x="1157" 
d="M1157 1098v-86h-6q-30 0 -51.5 -6.5t-39 -24.5t-32.5 -49t-33 -80l-311 -860q-36 -99 -68 -174t-67 -128.5t-76.5 -88.5t-94.5 -56t-122 -29t-160 -8h-18v97q104 0 179 31t129.5 85t91 127.5t61.5 159.5l-379 895q-14 32 -27 52.5t-29.5 33.5t-38 18t-51.5 5h-6v86h492
v-86h-6q-62 0 -92.5 -24t-30.5 -75q0 -17 3.5 -34.5t12.5 -40.5l150 -365q14 -35 29.5 -76.5t29 -82t24.5 -76.5t15 -62h6q11 45 30.5 109.5t45.5 138.5l137 399q9 25 13.5 48t4.5 40q0 53 -33.5 77t-101.5 24h-6v86h426zM320 1409q0 32 8 54t22 35.5t33 19.5t41 6t41 -6
t33.5 -19.5t22.5 -35.5t8 -54q0 -31 -8 -53t-22.5 -36t-33.5 -20t-41 -6q-45 0 -74.5 26t-29.5 89zM709 1409q0 32 8 54t22 35.5t33 19.5t41 6t41 -6t33.5 -19.5t22.5 -35.5t8 -54q0 -31 -8 -53t-22.5 -36t-33.5 -20t-41 -6q-45 0 -74.5 26t-29.5 89z" />
    <glyph glyph-name="Amacron" unicode="&#x100;" horiz-adv-x="1444" 
d="M414 489l-78 -215q-9 -24 -14 -47.5t-5 -40.5q0 -52 33.5 -76t102.5 -24h47v-86h-500v86h39q30 0 51 6.5t38 24.5t32.5 49t34.5 80l454 1216h160l463 -1267q12 -32 24.5 -53t29.5 -33.5t39 -17.5t52 -5h27v-86h-563v86h47q123 0 123 98q0 17 -4.5 35t-12.5 41l-82 229
h-538zM788 950q-32 91 -58.5 170.5t-43.5 153.5q-7 -37 -16.5 -71.5t-20.5 -70.5t-25 -75.5t-32 -87.5l-139 -377h462zM1014 1600h-594v121h594v-121z" />
    <glyph glyph-name="amacron" unicode="&#x101;" horiz-adv-x="1153" 
d="M301 297q0 -96 40.5 -143.5t125.5 -47.5q62 0 112.5 20t86 57t54.5 90t19 118v166l-131 -6q-87 -4 -145.5 -21.5t-94.5 -49t-51.5 -77.5t-15.5 -106zM549 1016q-59 0 -95.5 -16.5t-57 -46.5t-27.5 -71t-7 -89q-85 0 -129.5 29t-44.5 100q0 53 29 90t79.5 60.5t117.5 34.5
t143 11q94 0 164 -18.5t117 -60.5t70.5 -109.5t23.5 -165.5v-531q0 -43 7 -71t22 -45t39.5 -24t58.5 -7h6v-86h-277l-32 176h-17q-32 -43 -62 -79t-66 -62t-81.5 -40.5t-109.5 -14.5q-68 0 -126.5 19.5t-101 60t-66.5 102t-24 145.5q0 163 116 242t351 86l170 6v123
q0 55 -6 101.5t-26 80t-57.5 52t-100.5 18.5zM852 1262h-594v121h594v-121z" />
    <glyph glyph-name="Abreve" unicode="&#x102;" horiz-adv-x="1444" 
d="M414 489l-78 -215q-9 -24 -14 -47.5t-5 -40.5q0 -52 33.5 -76t102.5 -24h47v-86h-500v86h39q30 0 51 6.5t38 24.5t32.5 49t34.5 80l454 1216h160l463 -1267q12 -32 24.5 -53t29.5 -33.5t39 -17.5t52 -5h27v-86h-563v86h47q123 0 123 98q0 17 -4.5 35t-12.5 41l-82 229
h-538zM788 950q-32 91 -58.5 170.5t-43.5 153.5q-7 -37 -16.5 -71.5t-20.5 -70.5t-25 -75.5t-32 -87.5l-139 -377h462zM717 1579q-73 0 -126.5 22.5t-88.5 60.5t-52.5 89t-19.5 109h94q17 -75 67 -107.5t126 -32.5q75 0 125 32.5t67 107.5h95q-2 -58 -19.5 -109t-53 -89
t-88.5 -60.5t-126 -22.5z" />
    <glyph glyph-name="abreve" unicode="&#x103;" horiz-adv-x="1153" 
d="M301 297q0 -96 40.5 -143.5t125.5 -47.5q62 0 112.5 20t86 57t54.5 90t19 118v166l-131 -6q-87 -4 -145.5 -21.5t-94.5 -49t-51.5 -77.5t-15.5 -106zM549 1016q-59 0 -95.5 -16.5t-57 -46.5t-27.5 -71t-7 -89q-85 0 -129.5 29t-44.5 100q0 53 29 90t79.5 60.5t117.5 34.5
t143 11q94 0 164 -18.5t117 -60.5t70.5 -109.5t23.5 -165.5v-531q0 -43 7 -71t22 -45t39.5 -24t58.5 -7h6v-86h-277l-32 176h-17q-32 -43 -62 -79t-66 -62t-81.5 -40.5t-109.5 -14.5q-68 0 -126.5 19.5t-101 60t-66.5 102t-24 145.5q0 163 116 242t351 86l170 6v123
q0 55 -6 101.5t-26 80t-57.5 52t-100.5 18.5zM564 1241q-73 0 -126.5 22.5t-88.5 60.5t-52.5 89t-19.5 109h94q17 -75 67 -107.5t126 -32.5q75 0 125 32.5t67 107.5h95q-2 -58 -19.5 -109t-53 -89t-88.5 -60.5t-126 -22.5z" />
    <glyph glyph-name="Aogonek" unicode="&#x104;" horiz-adv-x="1444" 
d="M414 489l-78 -215q-9 -24 -14 -47.5t-5 -40.5q0 -52 33.5 -76t102.5 -24h47v-86h-500v86h39q30 0 51 6.5t38 24.5t32.5 49t34.5 80l454 1216h160l463 -1267q12 -32 24.5 -53t29.5 -33.5t39 -17.5t52 -5h27v-86h-563v86h47q123 0 123 98q0 17 -4.5 35t-12.5 41l-82 229
h-538zM788 950q-32 91 -58.5 170.5t-43.5 153.5q-7 -37 -16.5 -71.5t-20.5 -70.5t-25 -75.5t-32 -87.5l-139 -377h462zM934 -266q0 48 20 91t54 78.5t77.5 60.5t90.5 36h117q-32 -10 -66 -30t-61.5 -49.5t-45.5 -68.5t-18 -88q0 -34 10.5 -58.5t29.5 -40t45 -23t57 -7.5
q27 0 59 4.5t70 12.5v-111q-16 -8 -36.5 -14t-42.5 -10t-42.5 -6.5t-36.5 -2.5q-65 0 -117 13.5t-88.5 41t-56 70t-19.5 101.5z" />
    <glyph glyph-name="aogonek" unicode="&#x105;" horiz-adv-x="1153" 
d="M301 297q0 -96 40.5 -143.5t125.5 -47.5q62 0 112.5 20t86 57t54.5 90t19 118v166l-131 -6q-87 -4 -145.5 -21.5t-94.5 -49t-51.5 -77.5t-15.5 -106zM549 1016q-59 0 -95.5 -16.5t-57 -46.5t-27.5 -71t-7 -89q-85 0 -129.5 29t-44.5 100q0 53 29 90t79.5 60.5t117.5 34.5
t143 11q94 0 164 -18.5t117 -60.5t70.5 -109.5t23.5 -165.5v-531q0 -43 7 -71t22 -45t39.5 -24t58.5 -7h6v-86h-277l-32 176h-17q-32 -43 -62 -79t-66 -62t-81.5 -40.5t-109.5 -14.5q-68 0 -126.5 19.5t-101 60t-66.5 102t-24 145.5q0 163 116 242t351 86l170 6v123
q0 55 -6 101.5t-26 80t-57.5 52t-100.5 18.5zM549 -266q0 48 20 91t54 78.5t77.5 60.5t90.5 36h117q-32 -10 -66 -30t-61.5 -49.5t-45.5 -68.5t-18 -88q0 -34 10.5 -58.5t29.5 -40t45 -23t57 -7.5q27 0 59 4.5t70 12.5v-111q-16 -8 -36.5 -14t-42.5 -10t-42.5 -6.5
t-36.5 -2.5q-65 0 -117 13.5t-88.5 41t-56 70t-19.5 101.5z" />
    <glyph glyph-name="Cacute" unicode="&#x106;" horiz-adv-x="1257" 
d="M774 1483q105 0 182.5 -17.5t129 -48.5t77 -73t25.5 -91q0 -33 -13.5 -59.5t-37.5 -45t-56.5 -28.5t-70.5 -10q0 48 -12.5 95t-41 84.5t-74 61t-112.5 23.5q-116 0 -197 -42.5t-132 -124t-74 -201t-23 -273.5q0 -137 24 -251t76 -195.5t132.5 -126.5t193.5 -45
q75 0 132.5 14.5t101.5 38.5t77.5 55.5t59.5 65.5q17 -11 28 -30t11 -50q0 -39 -26.5 -79.5t-80.5 -73.5t-137 -54.5t-197 -21.5q-153 0 -269 54t-194.5 153t-118.5 238t-40 308q0 166 42 304t124.5 237t205.5 154t285 55zM657 1606q23 29 47.5 67t48 78.5t45 81t37.5 74.5
h219v-21q-19 -27 -56 -67.5t-82 -84.5t-92.5 -85.5t-88.5 -69.5h-78v27z" />
    <glyph glyph-name="cacute" unicode="&#x107;" horiz-adv-x="1008" 
d="M580 -20q-102 0 -188 31.5t-148 99.5t-96.5 174.5t-34.5 257.5q0 164 34.5 274.5t96 177.5t145 95t180.5 28q64 0 127.5 -12.5t114.5 -38.5t83 -65.5t32 -92.5q0 -71 -46 -100t-137 -29q0 48 -8 91t-27.5 75.5t-53 51t-85.5 18.5q-59 0 -106.5 -22t-81.5 -76t-52 -145
t-18 -228q0 -218 72.5 -325t237.5 -107q95 0 166 40t106 103q15 -12 25 -32t10 -48q0 -35 -22 -70t-65.5 -63t-108.5 -45.5t-152 -17.5zM465 1268q23 29 47.5 67t48 78.5t45 81t37.5 74.5h219v-21q-19 -27 -56 -67.5t-82 -84.5t-92.5 -85.5t-88.5 -69.5h-78v27z" />
    <glyph glyph-name="Ccircumflex" unicode="&#x108;" horiz-adv-x="1257" 
d="M774 1483q105 0 182.5 -17.5t129 -48.5t77 -73t25.5 -91q0 -33 -13.5 -59.5t-37.5 -45t-56.5 -28.5t-70.5 -10q0 48 -12.5 95t-41 84.5t-74 61t-112.5 23.5q-116 0 -197 -42.5t-132 -124t-74 -201t-23 -273.5q0 -137 24 -251t76 -195.5t132.5 -126.5t193.5 -45
q75 0 132.5 14.5t101.5 38.5t77.5 55.5t59.5 65.5q17 -11 28 -30t11 -50q0 -39 -26.5 -79.5t-80.5 -73.5t-137 -54.5t-197 -21.5q-153 0 -269 54t-194.5 153t-118.5 238t-40 308q0 166 42 304t124.5 237t205.5 154t285 55zM459 1606q24 29 53 67t57.5 78.5t53.5 81t41 74.5
h194q16 -34 41 -74.5t53.5 -81t57.5 -78.5t53 -67v-27h-80q-59 34 -118 84.5t-105 99.5q-47 -49 -105 -99.5t-116 -84.5h-80v27z" />
    <glyph glyph-name="ccircumflex" unicode="&#x109;" horiz-adv-x="1008" 
d="M580 -20q-102 0 -188 31.5t-148 99.5t-96.5 174.5t-34.5 257.5q0 164 34.5 274.5t96 177.5t145 95t180.5 28q64 0 127.5 -12.5t114.5 -38.5t83 -65.5t32 -92.5q0 -71 -46 -100t-137 -29q0 48 -8 91t-27.5 75.5t-53 51t-85.5 18.5q-59 0 -106.5 -22t-81.5 -76t-52 -145
t-18 -228q0 -218 72.5 -325t237.5 -107q95 0 166 40t106 103q15 -12 25 -32t10 -48q0 -35 -22 -70t-65.5 -63t-108.5 -45.5t-152 -17.5zM278 1268q24 29 53 67t57.5 78.5t53.5 81t41 74.5h194q16 -34 41 -74.5t53.5 -81t57.5 -78.5t53 -67v-27h-80q-59 34 -118 84.5
t-105 99.5q-47 -49 -105 -99.5t-116 -84.5h-80v27z" />
    <glyph glyph-name="Cdotaccent" unicode="&#x10a;" horiz-adv-x="1257" 
d="M774 1483q105 0 182.5 -17.5t129 -48.5t77 -73t25.5 -91q0 -33 -13.5 -59.5t-37.5 -45t-56.5 -28.5t-70.5 -10q0 48 -12.5 95t-41 84.5t-74 61t-112.5 23.5q-116 0 -197 -42.5t-132 -124t-74 -201t-23 -273.5q0 -137 24 -251t76 -195.5t132.5 -126.5t193.5 -45
q75 0 132.5 14.5t101.5 38.5t77.5 55.5t59.5 65.5q17 -11 28 -30t11 -50q0 -39 -26.5 -79.5t-80.5 -73.5t-137 -54.5t-197 -21.5q-153 0 -269 54t-194.5 153t-118.5 238t-40 308q0 166 42 304t124.5 237t205.5 154t285 55zM651 1737q0 36 9 60t25 39t37 21t46 6q24 0 45 -6
t37 -21t25.5 -39t9.5 -60t-9.5 -60t-25.5 -39t-37 -21.5t-45 -6.5q-25 0 -46 6.5t-37 21.5t-25 39t-9 60z" />
    <glyph glyph-name="cdotaccent" unicode="&#x10b;" horiz-adv-x="1008" 
d="M580 -20q-102 0 -188 31.5t-148 99.5t-96.5 174.5t-34.5 257.5q0 164 34.5 274.5t96 177.5t145 95t180.5 28q64 0 127.5 -12.5t114.5 -38.5t83 -65.5t32 -92.5q0 -71 -46 -100t-137 -29q0 48 -8 91t-27.5 75.5t-53 51t-85.5 18.5q-59 0 -106.5 -22t-81.5 -76t-52 -145
t-18 -228q0 -218 72.5 -325t237.5 -107q95 0 166 40t106 103q15 -12 25 -32t10 -48q0 -35 -22 -70t-65.5 -63t-108.5 -45.5t-152 -17.5zM463 1399q0 36 9 60t25 39t37 21t46 6q24 0 45 -6t37 -21t25.5 -39t9.5 -60t-9.5 -60t-25.5 -39t-37 -21.5t-45 -6.5q-25 0 -46 6.5
t-37 21.5t-25 39t-9 60z" />
    <glyph glyph-name="Ccaron" unicode="&#x10c;" horiz-adv-x="1257" 
d="M774 1483q105 0 182.5 -17.5t129 -48.5t77 -73t25.5 -91q0 -33 -13.5 -59.5t-37.5 -45t-56.5 -28.5t-70.5 -10q0 48 -12.5 95t-41 84.5t-74 61t-112.5 23.5q-116 0 -197 -42.5t-132 -124t-74 -201t-23 -273.5q0 -137 24 -251t76 -195.5t132.5 -126.5t193.5 -45
q75 0 132.5 14.5t101.5 38.5t77.5 55.5t59.5 65.5q17 -11 28 -30t11 -50q0 -39 -26.5 -79.5t-80.5 -73.5t-137 -54.5t-197 -21.5q-153 0 -269 54t-194.5 153t-118.5 238t-40 308q0 166 42 304t124.5 237t205.5 154t285 55zM436 1907h80q29 -18 58.5 -40t58 -46.5t55 -50
t49.5 -50.5q23 25 49.5 50.5t55.5 50t59 46.5t59 40h80v-27q-24 -29 -53 -67t-57.5 -78.5t-53.5 -80.5t-41 -75h-194q-16 35 -41 75t-53.5 80.5t-57.5 78.5t-53 67v27z" />
    <glyph glyph-name="ccaron" unicode="&#x10d;" horiz-adv-x="1008" 
d="M580 -20q-102 0 -188 31.5t-148 99.5t-96.5 174.5t-34.5 257.5q0 164 34.5 274.5t96 177.5t145 95t180.5 28q64 0 127.5 -12.5t114.5 -38.5t83 -65.5t32 -92.5q0 -71 -46 -100t-137 -29q0 48 -8 91t-27.5 75.5t-53 51t-85.5 18.5q-59 0 -106.5 -22t-81.5 -76t-52 -145
t-18 -228q0 -218 72.5 -325t237.5 -107q95 0 166 40t106 103q15 -12 25 -32t10 -48q0 -35 -22 -70t-65.5 -63t-108.5 -45.5t-152 -17.5zM274 1569h80q29 -18 58.5 -40t58 -46.5t55 -50t49.5 -50.5q23 25 49.5 50.5t55.5 50t59 46.5t59 40h80v-27q-24 -29 -53 -67
t-57.5 -78.5t-53.5 -80.5t-41 -75h-194q-16 35 -41 75t-53.5 80.5t-57.5 78.5t-53 67v27z" />
    <glyph glyph-name="Dcaron" unicode="&#x10e;" horiz-adv-x="1489" 
d="M1372 733q0 -168 -42 -303.5t-125 -231t-208 -147t-292 -51.5h-627v86h26q35 0 65.5 5t53.5 20.5t36 44.5t13 77v1004q0 45 -13.5 72.5t-36.5 42.5t-53.5 19.5t-64.5 4.5h-26v86h627q158 0 282 -48.5t209.5 -141.5t130.5 -229t45 -310zM657 104q122 0 213.5 41.5
t152.5 121.5t91.5 197t30.5 269q0 305 -121.5 466t-364.5 161h-180v-1256h178zM377 1907h80q29 -18 58.5 -40t58 -46.5t55 -50t49.5 -50.5q23 25 49.5 50.5t55.5 50t59 46.5t59 40h80v-27q-24 -29 -53 -67t-57.5 -78.5t-53.5 -80.5t-41 -75h-194q-16 35 -41 75t-53.5 80.5
t-57.5 78.5t-53 67v27z" />
    <glyph glyph-name="dcaron" unicode="&#x10f;" horiz-adv-x="1257" 
d="M1036 225q0 -45 13.5 -72.5t36.5 -42.5t53.5 -19.5t64.5 -4.5h17v-86h-347l-22 184h-8q-23 -47 -52.5 -84.5t-67.5 -64t-86 -41t-108 -14.5q-101 0 -179 33.5t-131 103t-80 176.5t-27 254q0 148 27 256t80 178t131 103.5t179 33.5q59 0 107 -13t86.5 -37t68.5 -57t52 -73
h12q-3 50 -6 94q-2 38 -4 75.5t-2 55.5v168q0 45 -13.5 72.5t-36.5 42.5t-53.5 19.5t-64.5 4.5h-17v86h377v-1331zM565 111q80 0 133.5 26.5t86 80.5t46 136t13.5 193q0 107 -13.5 189t-46 137.5t-86.5 84.5t-135 29q-67 0 -115 -29t-78.5 -85t-44.5 -138.5t-14 -189.5
q0 -218 59 -326t195 -108zM1149 1255q17 69 33 148t29 153h178v-20q-14 -32 -34 -72t-43.5 -81.5t-47.5 -81.5t-45 -72h-70v26z" />
    <glyph glyph-name="Dcroat" unicode="&#x110;" horiz-adv-x="1489" 
d="M78 815h194v422q0 45 -13.5 72.5t-36.5 42.5t-53.5 19.5t-64.5 4.5h-26v86h627q158 0 282 -48.5t209.5 -141.5t130.5 -229t45 -310q0 -168 -42 -303.5t-125 -231t-208.5 -147t-291.5 -51.5h-627v86h26q35 0 65.5 5t53.5 20.5t36 44.5t13 77v482h-194v100zM657 104
q122 0 213.5 41.5t152.5 121.5t91.5 197t30.5 269t-30.5 269t-91 196.5t-152 120.5t-212.5 41h-180v-545h348v-100h-348v-611h178z" />
    <glyph glyph-name="dcroat" unicode="&#x111;" horiz-adv-x="1257" 
d="M1036 1311h187v-97h-187v-989q0 -45 13.5 -72.5t36.5 -42.5t53.5 -19.5t64.5 -4.5h17v-86h-347l-22 184h-8q-23 -47 -52.5 -84.5t-67.5 -64t-86 -41t-108 -14.5q-101 0 -179 32t-131 99t-80 170t-27 245q0 143 27 247t80 171.5t131 100t179 32.5q59 0 107 -13t86.5 -37
t68.5 -57t52 -73h12q-3 50 -6 95q-2 38 -4 77t-2 59v86h-350v97h350v20q0 45 -13.5 72t-36.5 42t-53.5 20t-64.5 5h-17v86h377v-245zM565 111q80 0 133.5 25.5t86 77t46 129.5t13.5 183q0 102 -13.5 180.5t-46 132t-86.5 80.5t-135 27q-135 0 -193.5 -108t-58.5 -314
q0 -207 59 -310t195 -103z" />
    <glyph glyph-name="Emacron" unicode="&#x112;" horiz-adv-x="1276" 
d="M479 102h395q49 0 83.5 13.5t57.5 36.5t36 53.5t18 64.5l14 88h107l-14 -358h-1098v86h26q34 0 64.5 4.5t53.5 18.5t36.5 41.5t13.5 72.5v1006q0 48 -13 77t-36 44.5t-53.5 20.5t-65.5 5h-26v86h1032l10 -358h-106l-10 88q-4 34 -15.5 64.5t-33 53.5t-54 36.5t-78.5 13.5
h-344v-545h494v-100h-494v-613zM948 1600h-594v121h594v-121z" />
    <glyph glyph-name="emacron" unicode="&#x113;" horiz-adv-x="1096" 
d="M563 1008q-114 0 -175.5 -92.5t-72.5 -270.5h471q0 81 -12 148t-38 115t-68.5 74t-104.5 26zM588 -20q-111 0 -199.5 37.5t-149.5 109.5t-93.5 176.5t-32.5 237.5q0 287 118 432t336 145q99 0 178 -31t134 -92.5t84.5 -153t29.5 -212.5v-94h-682q2 -112 22.5 -192.5
t59 -132.5t94.5 -76.5t129 -24.5q53 0 98.5 12t82.5 32t65.5 45.5t46.5 53.5q14 -6 26.5 -25t12.5 -45q0 -31 -22 -66.5t-67 -65.5t-112.5 -50t-158.5 -20zM856 1262h-594v121h594v-121z" />
    <glyph glyph-name="Ebreve" unicode="&#x114;" horiz-adv-x="1276" 
d="M479 102h395q49 0 83.5 13.5t57.5 36.5t36 53.5t18 64.5l14 88h107l-14 -358h-1098v86h26q34 0 64.5 4.5t53.5 18.5t36.5 41.5t13.5 72.5v1006q0 48 -13 77t-36 44.5t-53.5 20.5t-65.5 5h-26v86h1032l10 -358h-106l-10 88q-4 34 -15.5 64.5t-33 53.5t-54 36.5t-78.5 13.5
h-344v-545h494v-100h-494v-613zM639 1579q-73 0 -126.5 22.5t-88.5 60.5t-52.5 89t-19.5 109h94q17 -75 67 -107.5t126 -32.5q75 0 125 32.5t67 107.5h95q-2 -58 -19.5 -109t-53 -89t-88.5 -60.5t-126 -22.5z" />
    <glyph glyph-name="ebreve" unicode="&#x115;" horiz-adv-x="1096" 
d="M563 1008q-114 0 -175.5 -92.5t-72.5 -270.5h471q0 81 -12 148t-38 115t-68.5 74t-104.5 26zM588 -20q-111 0 -199.5 37.5t-149.5 109.5t-93.5 176.5t-32.5 237.5q0 287 118 432t336 145q99 0 178 -31t134 -92.5t84.5 -153t29.5 -212.5v-94h-682q2 -112 22.5 -192.5
t59 -132.5t94.5 -76.5t129 -24.5q53 0 98.5 12t82.5 32t65.5 45.5t46.5 53.5q14 -6 26.5 -25t12.5 -45q0 -31 -22 -66.5t-67 -65.5t-112.5 -50t-158.5 -20zM568 1241q-73 0 -126.5 22.5t-88.5 60.5t-52.5 89t-19.5 109h94q17 -75 67 -107.5t126 -32.5q75 0 125 32.5
t67 107.5h95q-2 -58 -19.5 -109t-53 -89t-88.5 -60.5t-126 -22.5z" />
    <glyph glyph-name="Edotaccent" unicode="&#x116;" horiz-adv-x="1276" 
d="M479 102h395q49 0 83.5 13.5t57.5 36.5t36 53.5t18 64.5l14 88h107l-14 -358h-1098v86h26q34 0 64.5 4.5t53.5 18.5t36.5 41.5t13.5 72.5v1006q0 48 -13 77t-36 44.5t-53.5 20.5t-65.5 5h-26v86h1032l10 -358h-106l-10 88q-4 34 -15.5 64.5t-33 53.5t-54 36.5t-78.5 13.5
h-344v-545h494v-100h-494v-613zM542 1708q0 36 9 60t25 39t37 21t46 6q24 0 45 -6t37 -21t25.5 -39t9.5 -60t-9.5 -60t-25.5 -39t-37 -21.5t-45 -6.5q-25 0 -46 6.5t-37 21.5t-25 39t-9 60z" />
    <glyph glyph-name="edotaccent" unicode="&#x117;" horiz-adv-x="1096" 
d="M563 1008q-114 0 -175.5 -92.5t-72.5 -270.5h471q0 81 -12 148t-38 115t-68.5 74t-104.5 26zM588 -20q-111 0 -199.5 37.5t-149.5 109.5t-93.5 176.5t-32.5 237.5q0 287 118 432t336 145q99 0 178 -31t134 -92.5t84.5 -153t29.5 -212.5v-94h-682q2 -112 22.5 -192.5
t59 -132.5t94.5 -76.5t129 -24.5q53 0 98.5 12t82.5 32t65.5 45.5t46.5 53.5q14 -6 26.5 -25t12.5 -45q0 -31 -22 -66.5t-67 -65.5t-112.5 -50t-158.5 -20zM446 1399q0 36 9 60t25 39t37 21t46 6q24 0 45 -6t37 -21t25.5 -39t9.5 -60t-9.5 -60t-25.5 -39t-37 -21.5t-45 -6.5
q-25 0 -46 6.5t-37 21.5t-25 39t-9 60z" />
    <glyph glyph-name="Eogonek" unicode="&#x118;" horiz-adv-x="1276" 
d="M479 102h395q49 0 83.5 13.5t57.5 36.5t36 53.5t18 64.5l14 88h107l-14 -358h-1098v86h26q34 0 64.5 4.5t53.5 18.5t36.5 41.5t13.5 72.5v1006q0 48 -13 77t-36 44.5t-53.5 20.5t-65.5 5h-26v86h1032l10 -358h-106l-10 88q-4 34 -15.5 64.5t-33 53.5t-54 36.5t-78.5 13.5
h-344v-545h494v-100h-494v-613zM714 -266q0 48 20 91t54 78.5t77.5 60.5t90.5 36h117q-32 -10 -66 -30t-61.5 -49.5t-45.5 -68.5t-18 -88q0 -34 10.5 -58.5t29.5 -40t45 -23t57 -7.5q27 0 59 4.5t70 12.5v-111q-16 -8 -36.5 -14t-42.5 -10t-42.5 -6.5t-36.5 -2.5
q-65 0 -117 13.5t-88.5 41t-56 70t-19.5 101.5z" />
    <glyph glyph-name="eogonek" unicode="&#x119;" horiz-adv-x="1096" 
d="M563 1008q-114 0 -175.5 -92.5t-72.5 -270.5h471q0 81 -12 148t-38 115t-68.5 74t-104.5 26zM588 -20q-111 0 -199.5 37.5t-149.5 109.5t-93.5 176.5t-32.5 237.5q0 287 118 432t336 145q99 0 178 -31t134 -92.5t84.5 -153t29.5 -212.5v-94h-682q2 -112 22.5 -192.5
t59 -132.5t94.5 -76.5t129 -24.5q53 0 98.5 12t82.5 32t65.5 45.5t46.5 53.5q14 -6 26.5 -25t12.5 -45q0 -31 -22 -66.5t-67 -65.5t-112.5 -50t-158.5 -20zM471 -235q0 48 20 91t54 78.5t77.5 60.5t90.5 36h117q-32 -10 -66 -30t-61.5 -49.5t-45.5 -68.5t-18 -88
q0 -34 10.5 -58.5t29.5 -40t45 -23t57 -7.5q27 0 59 4.5t70 12.5v-111q-16 -8 -36.5 -14t-42.5 -10t-42.5 -6.5t-36.5 -2.5q-65 0 -117 13.5t-88.5 41t-56 70t-19.5 101.5z" />
    <glyph glyph-name="Ecaron" unicode="&#x11a;" horiz-adv-x="1276" 
d="M479 102h395q49 0 83.5 13.5t57.5 36.5t36 53.5t18 64.5l14 88h107l-14 -358h-1098v86h26q34 0 64.5 4.5t53.5 18.5t36.5 41.5t13.5 72.5v1006q0 48 -13 77t-36 44.5t-53.5 20.5t-65.5 5h-26v86h1032l10 -358h-106l-10 88q-4 34 -15.5 64.5t-33 53.5t-54 36.5t-78.5 13.5
h-344v-545h494v-100h-494v-613zM332 1907h80q29 -18 58.5 -40t58 -46.5t55 -50t49.5 -50.5q23 25 49.5 50.5t55.5 50t59 46.5t59 40h80v-27q-24 -29 -53 -67t-57.5 -78.5t-53.5 -80.5t-41 -75h-194q-16 35 -41 75t-53.5 80.5t-57.5 78.5t-53 67v27z" />
    <glyph glyph-name="ecaron" unicode="&#x11b;" horiz-adv-x="1096" 
d="M563 1008q-114 0 -175.5 -92.5t-72.5 -270.5h471q0 81 -12 148t-38 115t-68.5 74t-104.5 26zM588 -20q-111 0 -199.5 37.5t-149.5 109.5t-93.5 176.5t-32.5 237.5q0 287 118 432t336 145q99 0 178 -31t134 -92.5t84.5 -153t29.5 -212.5v-94h-682q2 -112 22.5 -192.5
t59 -132.5t94.5 -76.5t129 -24.5q53 0 98.5 12t82.5 32t65.5 45.5t46.5 53.5q14 -6 26.5 -25t12.5 -45q0 -31 -22 -66.5t-67 -65.5t-112.5 -50t-158.5 -20zM261 1569h80q29 -18 58.5 -40t58 -46.5t55 -50t49.5 -50.5q23 25 49.5 50.5t55.5 50t59 46.5t59 40h80v-27
q-24 -29 -53 -67t-57.5 -78.5t-53.5 -80.5t-41 -75h-194q-16 35 -41 75t-53.5 80.5t-57.5 78.5t-53 67v27z" />
    <glyph glyph-name="Gcircumflex" unicode="&#x11c;" horiz-adv-x="1462" 
d="M821 -20q-178 0 -310.5 54t-220 153t-130.5 238t-43 308q0 166 45.5 304t136 237t224.5 154t311 55q114 0 198.5 -17.5t141 -48.5t84.5 -73t28 -91q0 -33 -15 -59.5t-40.5 -45t-60 -28.5t-74.5 -10q0 48 -14 95t-46 84.5t-84 61t-127 23.5q-130 0 -221.5 -42.5
t-149.5 -124t-84 -201t-26 -273.5q0 -153 27 -272t88 -200t158 -123t237 -42q59 0 114.5 6t98.5 19v330q0 45 -13.5 72.5t-36.5 42t-53.5 19.5t-64.5 5h-8v86h532v-86h-8q-29 0 -55 -5t-45 -20.5t-30 -45t-11 -77.5v-368q-103 -48 -212 -71t-241 -23zM504 1606q24 29 53 67
t57.5 78.5t53.5 81t41 74.5h194q16 -34 41 -74.5t53.5 -81t57.5 -78.5t53 -67v-27h-80q-59 34 -118 84.5t-105 99.5q-47 -49 -105 -99.5t-116 -84.5h-80v27z" />
    <glyph glyph-name="gcircumflex" unicode="&#x11d;" horiz-adv-x="1102" 
d="M1077 1055q0 -22 -6.5 -41.5t-19.5 -34t-33.5 -23t-48.5 -8.5q0 12 -3 24t-10.5 22.5t-20.5 17t-34 6.5q-26 0 -47 -6t-41 -19q35 -43 57.5 -101.5t22.5 -146.5q0 -76 -23 -140.5t-68.5 -111.5t-115 -73.5t-162.5 -26.5q-12 0 -27 0.5l-30 1t-28 2t-21 2.5
q-20 -10 -38 -22t-31.5 -27t-21.5 -34t-8 -42q0 -25 9.5 -40t26.5 -23.5t40.5 -11t50.5 -2.5h232q92 0 156 -23t104.5 -63.5t59 -97t18.5 -122.5q0 -88 -32.5 -159t-99.5 -120.5t-169.5 -76.5t-241.5 -27q-214 0 -320 79t-106 220q0 60 21 105t56.5 77t81.5 52t97 29
q-21 9 -41 24t-36 36t-26 48t-10 60q0 61 32 105.5t102 86.5q-44 18 -78.5 49.5t-58 72t-36 88.5t-12.5 99q0 89 24 159t72 119t120 75t169 26q37 0 73 -5.5t66.5 -15t55 -21.5t39.5 -25q15 16 35 35.5t45 36t54.5 27.5t63.5 11q31 0 53.5 -8.5t37.5 -23t22.5 -34t7.5 -40.5
zM213 -180q0 -45 12 -84t42 -67t81 -44t129 -16q110 0 181.5 18.5t113.5 51.5t59 78.5t17 99.5q0 47 -13.5 77.5t-40 48t-65.5 24.5t-90 7h-201q-43 0 -83.5 -7.5t-72 -28.5t-50.5 -59t-19 -99zM332 745q0 -131 43.5 -192t142.5 -61q50 0 84.5 15t56.5 46t31.5 79.5
t9.5 115.5q0 138 -42 204t-142 66q-99 0 -141.5 -67.5t-42.5 -205.5zM231 1268q24 29 53 67t57.5 78.5t53.5 81t41 74.5h194q16 -34 41 -74.5t53.5 -81t57.5 -78.5t53 -67v-27h-80q-59 34 -118 84.5t-105 99.5q-47 -49 -105 -99.5t-116 -84.5h-80v27z" />
    <glyph glyph-name="Gbreve" unicode="&#x11e;" horiz-adv-x="1462" 
d="M821 -20q-178 0 -310.5 54t-220 153t-130.5 238t-43 308q0 166 45.5 304t136 237t224.5 154t311 55q114 0 198.5 -17.5t141 -48.5t84.5 -73t28 -91q0 -33 -15 -59.5t-40.5 -45t-60 -28.5t-74.5 -10q0 48 -14 95t-46 84.5t-84 61t-127 23.5q-130 0 -221.5 -42.5
t-149.5 -124t-84 -201t-26 -273.5q0 -153 27 -272t88 -200t158 -123t237 -42q59 0 114.5 6t98.5 19v330q0 45 -13.5 72.5t-36.5 42t-53.5 19.5t-64.5 5h-8v86h532v-86h-8q-29 0 -55 -5t-45 -20.5t-30 -45t-11 -77.5v-368q-103 -48 -212 -71t-241 -23zM807 1579
q-73 0 -126.5 22.5t-88.5 60.5t-52.5 89t-19.5 109h94q17 -75 67 -107.5t126 -32.5q75 0 125 32.5t67 107.5h95q-2 -58 -19.5 -109t-53 -89t-88.5 -60.5t-126 -22.5z" />
    <glyph glyph-name="gbreve" unicode="&#x11f;" horiz-adv-x="1102" 
d="M1077 1055q0 -22 -6.5 -41.5t-19.5 -34t-33.5 -23t-48.5 -8.5q0 12 -3 24t-10.5 22.5t-20.5 17t-34 6.5q-26 0 -47 -6t-41 -19q35 -43 57.5 -101.5t22.5 -146.5q0 -76 -23 -140.5t-68.5 -111.5t-115 -73.5t-162.5 -26.5q-12 0 -27 0.5l-30 1t-28 2t-21 2.5
q-20 -10 -38 -22t-31.5 -27t-21.5 -34t-8 -42q0 -25 9.5 -40t26.5 -23.5t40.5 -11t50.5 -2.5h232q92 0 156 -23t104.5 -63.5t59 -97t18.5 -122.5q0 -88 -32.5 -159t-99.5 -120.5t-169.5 -76.5t-241.5 -27q-214 0 -320 79t-106 220q0 60 21 105t56.5 77t81.5 52t97 29
q-21 9 -41 24t-36 36t-26 48t-10 60q0 61 32 105.5t102 86.5q-44 18 -78.5 49.5t-58 72t-36 88.5t-12.5 99q0 89 24 159t72 119t120 75t169 26q37 0 73 -5.5t66.5 -15t55 -21.5t39.5 -25q15 16 35 35.5t45 36t54.5 27.5t63.5 11q31 0 53.5 -8.5t37.5 -23t22.5 -34t7.5 -40.5
zM213 -180q0 -45 12 -84t42 -67t81 -44t129 -16q110 0 181.5 18.5t113.5 51.5t59 78.5t17 99.5q0 47 -13.5 77.5t-40 48t-65.5 24.5t-90 7h-201q-43 0 -83.5 -7.5t-72 -28.5t-50.5 -59t-19 -99zM332 745q0 -131 43.5 -192t142.5 -61q50 0 84.5 15t56.5 46t31.5 79.5
t9.5 115.5q0 138 -42 204t-142 66q-99 0 -141.5 -67.5t-42.5 -205.5zM525 1241q-73 0 -126.5 22.5t-88.5 60.5t-52.5 89t-19.5 109h94q17 -75 67 -107.5t126 -32.5q75 0 125 32.5t67 107.5h95q-2 -58 -19.5 -109t-53 -89t-88.5 -60.5t-126 -22.5z" />
    <glyph glyph-name="Gdotaccent" unicode="&#x120;" horiz-adv-x="1462" 
d="M821 -20q-178 0 -310.5 54t-220 153t-130.5 238t-43 308q0 166 45.5 304t136 237t224.5 154t311 55q114 0 198.5 -17.5t141 -48.5t84.5 -73t28 -91q0 -33 -15 -59.5t-40.5 -45t-60 -28.5t-74.5 -10q0 48 -14 95t-46 84.5t-84 61t-127 23.5q-130 0 -221.5 -42.5
t-149.5 -124t-84 -201t-26 -273.5q0 -153 27 -272t88 -200t158 -123t237 -42q59 0 114.5 6t98.5 19v330q0 45 -13.5 72.5t-36.5 42t-53.5 19.5t-64.5 5h-8v86h532v-86h-8q-29 0 -55 -5t-45 -20.5t-30 -45t-11 -77.5v-368q-103 -48 -212 -71t-241 -23zM708 1737q0 36 9 60
t25 39t37 21t46 6q24 0 45 -6t37 -21t25.5 -39t9.5 -60t-9.5 -60t-25.5 -39t-37 -21.5t-45 -6.5q-25 0 -46 6.5t-37 21.5t-25 39t-9 60z" />
    <glyph glyph-name="gdotaccent" unicode="&#x121;" horiz-adv-x="1102" 
d="M1077 1055q0 -22 -6.5 -41.5t-19.5 -34t-33.5 -23t-48.5 -8.5q0 12 -3 24t-10.5 22.5t-20.5 17t-34 6.5q-26 0 -47 -6t-41 -19q35 -43 57.5 -101.5t22.5 -146.5q0 -76 -23 -140.5t-68.5 -111.5t-115 -73.5t-162.5 -26.5q-12 0 -27 0.5l-30 1t-28 2t-21 2.5
q-20 -10 -38 -22t-31.5 -27t-21.5 -34t-8 -42q0 -25 9.5 -40t26.5 -23.5t40.5 -11t50.5 -2.5h232q92 0 156 -23t104.5 -63.5t59 -97t18.5 -122.5q0 -88 -32.5 -159t-99.5 -120.5t-169.5 -76.5t-241.5 -27q-214 0 -320 79t-106 220q0 60 21 105t56.5 77t81.5 52t97 29
q-21 9 -41 24t-36 36t-26 48t-10 60q0 61 32 105.5t102 86.5q-44 18 -78.5 49.5t-58 72t-36 88.5t-12.5 99q0 89 24 159t72 119t120 75t169 26q37 0 73 -5.5t66.5 -15t55 -21.5t39.5 -25q15 16 35 35.5t45 36t54.5 27.5t63.5 11q31 0 53.5 -8.5t37.5 -23t22.5 -34t7.5 -40.5
zM213 -180q0 -45 12 -84t42 -67t81 -44t129 -16q110 0 181.5 18.5t113.5 51.5t59 78.5t17 99.5q0 47 -13.5 77.5t-40 48t-65.5 24.5t-90 7h-201q-43 0 -83.5 -7.5t-72 -28.5t-50.5 -59t-19 -99zM332 745q0 -131 43.5 -192t142.5 -61q50 0 84.5 15t56.5 46t31.5 79.5
t9.5 115.5q0 138 -42 204t-142 66q-99 0 -141.5 -67.5t-42.5 -205.5zM407 1399q0 36 9 60t25 39t37 21t46 6q24 0 45 -6t37 -21t25.5 -39t9.5 -60t-9.5 -60t-25.5 -39t-37 -21.5t-45 -6.5q-25 0 -46 6.5t-37 21.5t-25 39t-9 60z" />
    <glyph glyph-name="uni0122" unicode="&#x122;" horiz-adv-x="1462" 
d="M821 -20q-178 0 -310.5 54t-220 153t-130.5 238t-43 308q0 166 45.5 304t136 237t224.5 154t311 55q114 0 198.5 -17.5t141 -48.5t84.5 -73t28 -91q0 -33 -15 -59.5t-40.5 -45t-60 -28.5t-74.5 -10q0 48 -14 95t-46 84.5t-84 61t-127 23.5q-130 0 -221.5 -42.5
t-149.5 -124t-84 -201t-26 -273.5q0 -153 27 -272t88 -200t158 -123t237 -42q59 0 114.5 6t98.5 19v330q0 45 -13.5 72.5t-36.5 42t-53.5 19.5t-64.5 5h-8v86h532v-86h-8q-29 0 -55 -5t-45 -20.5t-30 -45t-11 -77.5v-368q-103 -48 -212 -71t-241 -23zM658 -426
q17 68 33 147.5t28 153.5h199v-20q-14 -32 -34 -72t-43.5 -82t-47.5 -82t-45 -72h-90v27z" />
    <glyph glyph-name="uni0123" unicode="&#x123;" horiz-adv-x="1102" 
d="M1077 1055q0 -22 -6.5 -41.5t-19.5 -34t-33.5 -23t-48.5 -8.5q0 12 -3 24t-10.5 22.5t-20.5 17t-34 6.5q-26 0 -47 -6t-41 -19q35 -43 57.5 -101.5t22.5 -146.5q0 -76 -23 -140.5t-68.5 -111.5t-115 -73.5t-162.5 -26.5q-12 0 -27 0.5l-30 1t-28 2t-21 2.5
q-20 -10 -38 -22t-31.5 -27t-21.5 -34t-8 -42q0 -25 9.5 -40t26.5 -23.5t40.5 -11t50.5 -2.5h232q92 0 156 -23t104.5 -63.5t59 -97t18.5 -122.5q0 -88 -32.5 -159t-99.5 -120.5t-169.5 -76.5t-241.5 -27q-214 0 -320 79t-106 220q0 60 21 105t56.5 77t81.5 52t97 29
q-21 9 -41 24t-36 36t-26 48t-10 60q0 61 32 105.5t102 86.5q-44 18 -78.5 49.5t-58 72t-36 88.5t-12.5 99q0 89 24 159t72 119t120 75t169 26q37 0 73 -5.5t66.5 -15t55 -21.5t39.5 -25q15 16 35 35.5t45 36t54.5 27.5t63.5 11q31 0 53.5 -8.5t37.5 -23t22.5 -34t7.5 -40.5
zM213 -180q0 -45 12 -84t42 -67t81 -44t129 -16q110 0 181.5 18.5t113.5 51.5t59 78.5t17 99.5q0 47 -13.5 77.5t-40 48t-65.5 24.5t-90 7h-201q-43 0 -83.5 -7.5t-72 -28.5t-50.5 -59t-19 -99zM332 745q0 -131 43.5 -192t142.5 -61q50 0 84.5 15t56.5 46t31.5 79.5
t9.5 115.5q0 138 -42 204t-142 66q-99 0 -141.5 -67.5t-42.5 -205.5zM690 1542q-17 -68 -33 -147.5t-29 -153.5h-198v21q14 32 34 72t43 81.5t47 81.5t46 72h90v-27z" />
    <glyph glyph-name="Hcircumflex" unicode="&#x124;" horiz-adv-x="1624" 
d="M950 0v86h27q35 0 65.5 5t53 20.5t36 44.5t13.5 77v480h-666v-480q0 -48 13.5 -77t36 -44.5t53.5 -20.5t65 -5h27v-86h-596v86h26q35 0 65.5 5t53.5 20.5t36 44.5t13 77v1004q0 45 -13.5 72.5t-36.5 42.5t-53.5 19.5t-64.5 4.5h-26v86h596v-86h-27q-34 0 -65 -5
t-53.5 -20.5t-36 -44.5t-13.5 -77v-414h666v414q0 48 -13.5 77t-36 44.5t-53 20.5t-65.5 5h-27v86h596v-86h-26q-35 0 -65.5 -5t-53.5 -20.5t-36 -44.5t-13 -77v-1006q0 -45 13.5 -72.5t36.5 -41.5t53.5 -18.5t64.5 -4.5h26v-86h-596zM510 1606q24 29 53 67t57.5 78.5
t53.5 81t41 74.5h194q16 -34 41 -74.5t53.5 -81t57.5 -78.5t53 -67v-27h-80q-59 34 -118 84.5t-105 99.5q-47 -49 -105 -99.5t-116 -84.5h-80v27z" />
    <glyph glyph-name="hcircumflex" unicode="&#x125;" horiz-adv-x="1300" 
d="M588 86v-86h-551v86h16q35 0 65.5 5t53 20.5t36 44.5t13.5 77v1098q0 45 -13.5 72.5t-36.5 42.5t-53.5 19.5t-64.5 4.5h-16v86h377v-450q0 -28 -1 -58.5t-3 -56.5q-2 -30 -4 -59h10q92 186 301 186q87 0 154.5 -23.5t113.5 -72t70 -124.5t24 -181v-484q0 -48 12 -77
t33 -44.5t50 -20.5t63 -5h6v-86h-356v707q0 67 -12 119t-38.5 88t-69.5 54.5t-105 18.5q-64 0 -110.5 -23.5t-77 -67t-45.5 -105t-15 -136.5v-432q0 -45 13.5 -72.5t36.5 -41.5t53.5 -18.5t64.5 -4.5h6zM332 1661q24 29 53 67t57.5 78.5t53.5 81t41 74.5h194
q16 -34 41 -74.5t53.5 -81t57.5 -78.5t53 -67v-27h-80q-59 34 -118 84.5t-105 99.5q-47 -49 -105 -99.5t-116 -84.5h-80v27z" />
    <glyph glyph-name="Hbar" unicode="&#x126;" horiz-adv-x="1624" 
d="M1352 1022v-799q0 -45 13.5 -72.5t36.5 -41.5t53.5 -18.5t64.5 -4.5h26v-86h-596v86h27q35 0 65.5 5t53 20.5t36 44.5t13.5 77v480h-666v-480q0 -48 13.5 -77t36 -44.5t53.5 -20.5t65 -5h27v-86h-596v86h26q35 0 65.5 5t53.5 20.5t36 44.5t13 77v789h-194v100h194v115
q0 45 -13.5 72.5t-36.5 42.5t-53.5 19.5t-64.5 4.5h-26v86h596v-86h-27q-34 0 -65 -5t-53.5 -20.5t-36 -44.5t-13.5 -77v-107h666v107q0 48 -13.5 77t-36 44.5t-53 20.5t-65.5 5h-27v86h596v-86h-26q-35 0 -65.5 -5t-53.5 -20.5t-36 -44.5t-13 -77v-107h194v-100h-194z
M1145 815v207h-666v-207h666z" />
    <glyph glyph-name="hbar" unicode="&#x127;" horiz-adv-x="1300" 
d="M588 86v-86h-551v86h16q35 0 65.5 5t53 20.5t36 44.5t13.5 77v981h-186v97h186v20q0 45 -13.5 72.5t-36.5 42.5t-53.5 19.5t-64.5 4.5h-16v86h377v-245h350v-97h-350v-149q0 -28 -1 -58.5t-3 -56.5q-2 -30 -4 -59h10q92 186 301 186q87 0 154.5 -23.5t113.5 -72
t70 -124.5t24 -181v-443q0 -48 12 -77t33 -44.5t50 -20.5t63 -5h6v-86h-356v666q0 67 -12 119t-38.5 88t-69.5 54.5t-105 18.5q-64 0 -110.5 -23.5t-77 -67t-45.5 -105t-15 -136.5v-391q0 -45 13.5 -72.5t36.5 -41.5t53.5 -18.5t64.5 -4.5h6z" />
    <glyph glyph-name="Itilde" unicode="&#x128;" horiz-adv-x="752" 
d="M78 0v86h26q35 0 65.5 5t53.5 20.5t36 44.5t13 77v996q0 48 -13 77t-36 44.5t-53.5 20.5t-65.5 5h-26v86h596v-86h-27q-34 0 -65 -5t-53.5 -20.5t-36 -44.5t-13.5 -77v-996q0 -48 13.5 -77t36 -44.5t53.5 -20.5t65 -5h27v-86h-596zM548 1712q30 0 48.5 9t29 24.5t15 35
t7.5 40.5h92q-3 -47 -16.5 -90.5t-39.5 -77.5t-65 -54t-94 -20t-99.5 20t-83 44.5t-72 44.5t-66.5 20q-31 0 -49 -9t-28.5 -24t-15.5 -34.5t-8 -40.5h-92q3 47 16.5 90t40 77t66 54t94.5 20t99.5 -20t83 -44.5t72 -44.5t65.5 -20z" />
    <glyph glyph-name="itilde" unicode="&#x129;" horiz-adv-x="655" 
d="M74 86q34 0 64.5 4.5t53.5 18.5t36.5 41.5t13.5 72.5v649q0 45 -13.5 72.5t-36.5 42.5t-53.5 20t-64.5 5h-6v86h366v-865q0 -48 13.5 -77t36 -44.5t53.5 -20.5t65 -5h27v-86h-582v86h27zM489 1374q30 0 48.5 9t29 24.5t15 35t7.5 40.5h92q-3 -47 -16.5 -90.5t-39.5 -77.5
t-65 -54t-94 -20t-99.5 20t-83 44.5t-72 44.5t-66.5 20q-31 0 -49 -9t-28.5 -24t-15.5 -34.5t-8 -40.5h-92q3 47 16.5 90t40 77t66 54t94.5 20t99.5 -20t83 -44.5t72 -44.5t65.5 -20z" />
    <glyph glyph-name="Imacron" unicode="&#x12a;" horiz-adv-x="752" 
d="M78 0v86h26q35 0 65.5 5t53.5 20.5t36 44.5t13 77v996q0 48 -13 77t-36 44.5t-53.5 20.5t-65.5 5h-26v86h596v-86h-27q-34 0 -65 -5t-53.5 -20.5t-36 -44.5t-13.5 -77v-996q0 -48 13.5 -77t36 -44.5t53.5 -20.5t65 -5h27v-86h-596zM673 1600h-594v121h594v-121z" />
    <glyph glyph-name="imacron" unicode="&#x12b;" horiz-adv-x="655" 
d="M74 86q34 0 64.5 4.5t53.5 18.5t36.5 41.5t13.5 72.5v649q0 45 -13.5 72.5t-36.5 42.5t-53.5 20t-64.5 5h-6v86h366v-865q0 -48 13.5 -77t36 -44.5t53.5 -20.5t65 -5h27v-86h-582v86h27zM595 1262h-594v121h594v-121z" />
    <glyph glyph-name="Ibreve" unicode="&#x12c;" horiz-adv-x="752" 
d="M78 0v86h26q35 0 65.5 5t53.5 20.5t36 44.5t13 77v996q0 48 -13 77t-36 44.5t-53.5 20.5t-65.5 5h-26v86h596v-86h-27q-34 0 -65 -5t-53.5 -20.5t-36 -44.5t-13.5 -77v-996q0 -48 13.5 -77t36 -44.5t53.5 -20.5t65 -5h27v-86h-596zM376 1579q-73 0 -126.5 22.5
t-88.5 60.5t-52.5 89t-19.5 109h94q17 -75 67 -107.5t126 -32.5q75 0 125 32.5t67 107.5h95q-2 -58 -19.5 -109t-53 -89t-88.5 -60.5t-126 -22.5z" />
    <glyph glyph-name="ibreve" unicode="&#x12d;" horiz-adv-x="655" 
d="M74 86q34 0 64.5 4.5t53.5 18.5t36.5 41.5t13.5 72.5v649q0 45 -13.5 72.5t-36.5 42.5t-53.5 20t-64.5 5h-6v86h366v-865q0 -48 13.5 -77t36 -44.5t53.5 -20.5t65 -5h27v-86h-582v86h27zM312 1241q-73 0 -126.5 22.5t-88.5 60.5t-52.5 89t-19.5 109h94q17 -75 67 -107.5
t126 -32.5q75 0 125 32.5t67 107.5h95q-2 -58 -19.5 -109t-53 -89t-88.5 -60.5t-126 -22.5z" />
    <glyph glyph-name="Iogonek" unicode="&#x12e;" horiz-adv-x="752" 
d="M78 0v86h26q35 0 65.5 5t53.5 20.5t36 44.5t13 77v996q0 48 -13 77t-36 44.5t-53.5 20.5t-65.5 5h-26v86h596v-86h-27q-34 0 -65 -5t-53.5 -20.5t-36 -44.5t-13.5 -77v-996q0 -48 13.5 -77t36 -44.5t53.5 -20.5t65 -5h27v-86h-596zM181 -266q0 48 20 91t54 78.5
t77.5 60.5t90.5 36h117q-32 -10 -66 -30t-61.5 -49.5t-45.5 -68.5t-18 -88q0 -34 10.5 -58.5t29.5 -40t45 -23t57 -7.5q27 0 59 4.5t70 12.5v-111q-16 -8 -36.5 -14t-42.5 -10t-42.5 -6.5t-36.5 -2.5q-65 0 -117 13.5t-88.5 41t-56 70t-19.5 101.5z" />
    <glyph glyph-name="iogonek" unicode="&#x12f;" horiz-adv-x="655" 
d="M74 86q34 0 64.5 4.5t53.5 18.5t36.5 41.5t13.5 72.5v649q0 45 -13.5 72.5t-36.5 42.5t-53.5 20t-64.5 5h-6v86h366v-865q0 -48 13.5 -77t36 -44.5t53.5 -20.5t65 -5h27v-86h-582v86h27zM213 1430q0 36 9 60t25 39t37 21t46 6q24 0 45 -6t36.5 -21t25 -39t9.5 -60
t-9.5 -60t-25 -39t-36.5 -21.5t-45 -6.5q-25 0 -46 6.5t-37 21.5t-25 39t-9 60zM103 -266q0 48 20 91t54 78.5t77.5 60.5t90.5 36h117q-32 -10 -66 -30t-61.5 -49.5t-45.5 -68.5t-18 -88q0 -34 10.5 -58.5t29.5 -40t45 -23t57 -7.5q27 0 59 4.5t70 12.5v-111
q-16 -8 -36.5 -14t-42.5 -10t-42.5 -6.5t-36.5 -2.5q-65 0 -117 13.5t-88.5 41t-56 70t-19.5 101.5z" />
    <glyph glyph-name="Idotaccent" unicode="&#x130;" horiz-adv-x="752" 
d="M78 0v86h26q35 0 65.5 5t53.5 20.5t36 44.5t13 77v996q0 48 -13 77t-36 44.5t-53.5 20.5t-65.5 5h-26v86h596v-86h-27q-34 0 -65 -5t-53.5 -20.5t-36 -44.5t-13.5 -77v-996q0 -48 13.5 -77t36 -44.5t53.5 -20.5t65 -5h27v-86h-596zM258 1737q0 36 9 60t25 39t37 21t46 6
q24 0 45 -6t37 -21t25.5 -39t9.5 -60t-9.5 -60t-25.5 -39t-37 -21.5t-45 -6.5q-25 0 -46 6.5t-37 21.5t-25 39t-9 60z" />
    <glyph glyph-name="dotlessi" unicode="&#x131;" horiz-adv-x="655" 
d="M74 86q34 0 64.5 4.5t53.5 18.5t36.5 41.5t13.5 72.5v649q0 45 -13.5 72.5t-36.5 42.5t-53.5 20t-64.5 5h-6v86h366v-865q0 -48 13.5 -77t36 -44.5t53.5 -20.5t65 -5h27v-86h-582v86h27z" />
    <glyph glyph-name="IJ" unicode="&#x132;" horiz-adv-x="1425" 
d="M78 0v86h26q35 0 65.5 5t53.5 20.5t36 44.5t13 77v996q0 48 -13 77t-36 44.5t-53.5 20.5t-65.5 5h-26v86h596v-86h-27q-34 0 -65 -5t-53.5 -20.5t-36 -44.5t-13.5 -77v-996q0 -48 13.5 -77t36 -44.5t53.5 -20.5t65 -5h27v-86h-596zM671 -395h19q66 0 117.5 18.5t86.5 62
t53.5 116t18.5 180.5v1255q0 45 -13.5 72.5t-36.5 42.5t-53.5 19.5t-64.5 4.5h-26v86h596v-86h-27q-34 0 -65 -5t-53.5 -20.5t-36 -44.5t-13.5 -77v-1245q0 -138 -36 -229.5t-99 -146t-148.5 -77.5t-183.5 -23h-35v97z" />
    <glyph glyph-name="ij" unicode="&#x133;" horiz-adv-x="1270" 
d="M74 86q34 0 64.5 4.5t53.5 18.5t36.5 41.5t13.5 72.5v649q0 45 -13.5 72.5t-36.5 42.5t-53.5 20t-64.5 5h-6v86h366v-865q0 -48 13.5 -77t36 -44.5t53.5 -20.5t65 -5h27v-86h-582v86h27zM213 1430q0 36 9 60t25 39t37 21t46 6q24 0 45 -6t36.5 -21t25 -39t9.5 -60
t-9.5 -60t-25 -39t-36.5 -21.5t-45 -6.5q-25 0 -46 6.5t-37 21.5t-25 39t-9 60zM1069 1098v-1114q0 -138 -30 -229.5t-84 -146t-128.5 -77.5t-163.5 -23h-33v97h15q55 0 98 18.5t72.5 62t45 116t15.5 180.5v890q0 45 -13.5 72.5t-36.5 42.5t-53.5 20t-64.5 5h-6v86h367z
M848 1430q0 36 9 60t24.5 39t37 21t45.5 6t45.5 -6t37 -21t25 -39t9.5 -60t-9.5 -60t-25 -39t-37 -21.5t-45.5 -6.5t-45.5 6.5t-37 21.5t-24.5 39t-9 60z" />
    <glyph glyph-name="Jcircumflex" unicode="&#x134;" horiz-adv-x="731" 
d="M-23 -395h19q66 0 117.5 18.5t86.5 62t53.5 116t18.5 180.5v1255q0 45 -13.5 72.5t-36.5 42.5t-53.5 19.5t-64.5 4.5h-26v86h596v-86h-27q-34 0 -65 -5t-53.5 -20.5t-36 -44.5t-13.5 -77v-1245q0 -138 -36 -229.5t-99 -146t-148.5 -77.5t-183.5 -23h-35v97zM73 1606
q24 29 53 67t57.5 78.5t53.5 81t41 74.5h194q16 -34 41 -74.5t53.5 -81t57.5 -78.5t53 -67v-27h-80q-59 34 -118 84.5t-105 99.5q-47 -49 -105 -99.5t-116 -84.5h-80v27z" />
    <glyph glyph-name="jcircumflex" unicode="&#x135;" horiz-adv-x="614" 
d="M414 1098v-1114q0 -138 -30 -229.5t-84 -146t-128.5 -77.5t-163.5 -23h-33v97h15q55 0 98 18.5t72.5 62t45 116t15.5 180.5v890q0 45 -13.5 72.5t-36.5 42.5t-53.5 20t-64.5 5h-6v86h367zM-23 1268q24 29 53 67t57.5 78.5t53.5 81t41 74.5h194q16 -34 41 -74.5t53.5 -81
t57.5 -78.5t53 -67v-27h-80q-59 34 -118 84.5t-105 99.5q-47 -49 -105 -99.5t-116 -84.5h-80v27z" />
    <glyph glyph-name="uni0136" unicode="&#x136;" horiz-adv-x="1434" 
d="M903 1137q33 38 55 67.5t34.5 53.5t18 42t5.5 33q0 26 -25 35.5t-76 9.5v84h453v-84q-35 0 -67.5 -13.5t-65 -38t-67 -60t-74.5 -80.5l-297 -334l432 -602q59 -81 113.5 -122.5t111.5 -41.5h4v-86h-22q-103 0 -169 8t-111 29t-78.5 56.5t-71.5 90.5l-353 506l-174 -141
v-316q0 -48 13.5 -77t36 -44.5t53.5 -20.5t65 -5h27v-86h-596v86h26q34 0 64.5 4.5t53.5 18.5t36.5 41.5t13.5 72.5v1014q0 45 -13.5 72.5t-36.5 42.5t-53.5 19.5t-64.5 4.5h-26v86h596v-86h-27q-34 0 -65 -5t-53.5 -20.5t-36 -44.5t-13.5 -77v-578zM612 -426
q17 68 33 147.5t28 153.5h199v-20q-14 -32 -34 -72t-43.5 -82t-47.5 -82t-45 -72h-90v27z" />
    <glyph glyph-name="uni0137" unicode="&#x137;" horiz-adv-x="1198" 
d="M694 659l273 -405q53 -82 105.5 -125t121.5 -43h6v-86h-29q-89 0 -146.5 5.5t-99.5 26t-77 60t-78 107.5l-205 321l-151 -112v-185q0 -45 13.5 -72.5t36.5 -41.5t53.5 -18.5t64.5 -4.5h6v-86h-551v86h16q35 0 65.5 5t53 20.5t36 44.5t13.5 77v1098q0 45 -13.5 72.5
t-36.5 42.5t-53.5 19.5t-64.5 4.5h-16v86h377v-790q0 -28 -1 -71.5t-3 -85.5q-2 -48 -4 -101l256 280q33 37 54.5 65t34.5 49t18 37.5t5 31.5q0 26 -24.5 33.5t-75.5 7.5v86h452v-86q-71 0 -139.5 -50t-148.5 -141zM494 -426q17 68 33 147.5t28 153.5h199v-20
q-14 -32 -34 -72t-43.5 -82t-47.5 -82t-45 -72h-90v27z" />
    <glyph glyph-name="kgreenlandic" unicode="&#x138;" horiz-adv-x="1198" 
d="M694 659l273 -405q53 -82 105.5 -125t121.5 -43h6v-86h-29q-89 0 -146.5 5.5t-99.5 26t-77 60t-78 107.5l-205 321l-151 -112v-185q0 -45 13.5 -72.5t36.5 -41.5t53.5 -18.5t64.5 -4.5h6v-86h-551v86h16q35 0 65.5 5t53 20.5t36 44.5t13.5 77v640q0 45 -13.5 72.5
t-36.5 42.5t-53.5 19.5t-64.5 4.5h-16v86h377v-332q0 -28 -1 -71.5t-3 -85.5q-2 -48 -4 -101l256 280q33 37 54.5 65t34.5 49t18 37.5t5 31.5q0 26 -24.5 33.5t-75.5 7.5v86h452v-86q-71 0 -139.5 -50t-148.5 -141z" />
    <glyph glyph-name="Lacute" unicode="&#x139;" horiz-adv-x="1276" 
d="M78 0v86h26q35 0 65.5 5t53.5 20.5t36 44.5t13 77v996q0 48 -13 77t-36 44.5t-53.5 20.5t-65.5 5h-26v86h596v-86h-27q-34 0 -64.5 -4.5t-53.5 -19.5t-36.5 -42.5t-13.5 -72.5v-1135h404q46 0 78.5 16.5t53.5 43t32.5 59.5t15.5 66l20 153h107l-14 -440h-1098zM304 1606
q23 29 47.5 67t48 78.5t45 81t37.5 74.5h219v-21q-19 -27 -56 -67.5t-82 -84.5t-92.5 -85.5t-88.5 -69.5h-78v27z" />
    <glyph glyph-name="lacute" unicode="&#x13a;" horiz-adv-x="635" 
d="M53 86q35 0 65.5 5t53 20.5t36 44.5t13.5 77v1098q0 45 -13.5 72.5t-36.5 42.5t-53.5 19.5t-64.5 4.5h-26v86h387v-1323q0 -48 13 -77t36 -44.5t53.5 -20.5t65.5 -5h26v-86h-581v86h26zM216 1663q23 29 47.5 67t48 78.5t45 81t37.5 74.5h219v-21q-19 -27 -56 -67.5
t-82 -84.5t-92.5 -85.5t-88.5 -69.5h-78v27z" />
    <glyph glyph-name="uni013B" unicode="&#x13b;" horiz-adv-x="1276" 
d="M78 0v86h26q35 0 65.5 5t53.5 20.5t36 44.5t13 77v996q0 48 -13 77t-36 44.5t-53.5 20.5t-65.5 5h-26v86h596v-86h-27q-34 0 -64.5 -4.5t-53.5 -19.5t-36.5 -42.5t-13.5 -72.5v-1135h404q46 0 78.5 16.5t53.5 43t32.5 59.5t15.5 66l20 153h107l-14 -440h-1098zM522 -426
q17 68 33 147.5t28 153.5h199v-20q-14 -32 -34 -72t-43.5 -82t-47.5 -82t-45 -72h-90v27z" />
    <glyph glyph-name="uni013C" unicode="&#x13c;" horiz-adv-x="635" 
d="M53 86q35 0 65.5 5t53 20.5t36 44.5t13.5 77v1098q0 45 -13.5 72.5t-36.5 42.5t-53.5 19.5t-64.5 4.5h-26v86h387v-1323q0 -48 13 -77t36 -44.5t53.5 -20.5t65.5 -5h26v-86h-581v86h26zM163 -426q17 68 33 147.5t28 153.5h199v-20q-14 -32 -34 -72t-43.5 -82t-47.5 -82
t-45 -72h-90v27z" />
    <glyph glyph-name="Lcaron" unicode="&#x13d;" horiz-adv-x="1276" 
d="M78 0v86h26q35 0 65.5 5t53.5 20.5t36 44.5t13 77v996q0 48 -13 77t-36 44.5t-53.5 20.5t-65.5 5h-26v86h596v-86h-27q-34 0 -64.5 -4.5t-53.5 -19.5t-36.5 -42.5t-13.5 -72.5v-1135h404q46 0 78.5 16.5t53.5 43t32.5 59.5t15.5 66l20 153h107l-14 -440h-1098zM864 1162
q17 69 33 148t29 153h178v-20q-14 -32 -34 -72t-43.5 -81.5t-47.5 -81.5t-45 -72h-70v26z" />
    <glyph glyph-name="lcaron" unicode="&#x13e;" horiz-adv-x="635" 
d="M53 86q35 0 65.5 5t53 20.5t36 44.5t13.5 77v1098q0 45 -13.5 72.5t-36.5 42.5t-53.5 19.5t-64.5 4.5h-26v86h387v-1323q0 -48 13 -77t36 -44.5t53.5 -20.5t65.5 -5h26v-86h-581v86h26zM526 1255q17 69 33 148t29 153h178v-20q-14 -32 -34 -72t-43.5 -81.5t-47.5 -81.5
t-45 -72h-70v26z" />
    <glyph glyph-name="Ldot" unicode="&#x13f;" horiz-adv-x="1276" 
d="M78 0v86h26q35 0 65.5 5t53.5 20.5t36 44.5t13 77v996q0 48 -13 77t-36 44.5t-53.5 20.5t-65.5 5h-26v86h596v-86h-27q-34 0 -64.5 -4.5t-53.5 -19.5t-36.5 -42.5t-13.5 -72.5v-1135h404q46 0 78.5 16.5t53.5 43t32.5 59.5t15.5 66l20 153h107l-14 -440h-1098zM880 755
q0 36 9 60t25 39t37 21t46 6q24 0 45 -6t37 -21t25.5 -39t9.5 -60t-9.5 -60t-25.5 -39t-37 -21.5t-45 -6.5q-25 0 -46 6.5t-37 21.5t-25 39t-9 60z" />
    <glyph glyph-name="ldot" unicode="&#x140;" horiz-adv-x="758" 
d="M53 86q35 0 65.5 5t53 20.5t36 44.5t13.5 77v1098q0 45 -13.5 72.5t-36.5 42.5t-53.5 19.5t-64.5 4.5h-26v86h387v-1323q0 -48 13 -77t36 -44.5t53.5 -20.5t65.5 -5h26v-86h-581v86h26zM579 642q0 36 9 60t25 39t37 21t46 6q24 0 45 -6t37 -21t25.5 -39t9.5 -60t-9.5 -60
t-25.5 -39t-37 -21.5t-45 -6.5q-25 0 -46 6.5t-37 21.5t-25 39t-9 60z" />
    <glyph glyph-name="Lslash" unicode="&#x141;" horiz-adv-x="1276" 
d="M78 584l194 112v533q0 48 -13 77t-36 44.5t-53.5 20.5t-65.5 5h-26v86h596v-86h-27q-34 0 -64.5 -4.5t-53.5 -19.5t-36.5 -42.5t-13.5 -72.5v-422l320 186v-118l-320 -185v-596h404q46 0 78.5 16.5t53.5 43t32.5 59.5t15.5 66l20 153h107l-14 -440h-1098v86h26
q35 0 65.5 5t53.5 20.5t36 44.5t13 77v347l-194 -111v115z" />
    <glyph glyph-name="lslash" unicode="&#x142;" horiz-adv-x="664" 
d="M252 684v647q0 45 -13.5 72.5t-36.5 42.5t-53.5 19.5t-64.5 4.5h-27v86h387v-761l193 110v-119l-193 -108v-445q0 -48 13.5 -77t36 -44.5t53.5 -20.5t65 -5h27v-86h-582v86h27q35 0 65.5 5t53 20.5t36 44.5t13.5 77v334l-174 -98v115z" />
    <glyph glyph-name="Nacute" unicode="&#x143;" horiz-adv-x="1563" 
d="M1165 0l-768 1180v-947q0 -48 13.5 -77t36 -44.5t53.5 -20.5t65 -5h27v-86h-514v86h26q35 0 65.5 5t53.5 20.5t36 44.5t13 77v1004q0 45 -13.5 72.5t-36.5 42.5t-53.5 19.5t-64.5 4.5h-26v86h375l733 -1132v907q0 45 -13.5 72.5t-36.5 42.5t-53.5 19.5t-64.5 4.5h-27v86
h514v-86h-26q-35 0 -65.5 -5t-53.5 -20.5t-36 -44.5t-13 -77v-1229h-146zM706 1606q23 29 47.5 67t48 78.5t45 81t37.5 74.5h219v-21q-19 -27 -56 -67.5t-82 -84.5t-92.5 -85.5t-88.5 -69.5h-78v27z" />
    <glyph glyph-name="nacute" unicode="&#x144;" horiz-adv-x="1321" 
d="M608 86v-86h-551v86h17q35 0 65.5 5t53 20.5t36 44.5t13.5 77v639q0 45 -13.5 72.5t-36.5 42.5t-53.5 20t-64.5 5h-6v86h331l27 -166h10q32 57 67.5 93.5t75 57t84 28t93.5 7.5q81 0 144.5 -23.5t108 -72t68 -124.5t23.5 -181v-484q0 -48 11.5 -77t32.5 -44.5t50 -20.5
t63 -5h7v-86h-357v707q0 67 -12 119t-38.5 88t-69.5 54.5t-105 18.5q-70 0 -117.5 -27t-76.5 -73t-41.5 -106t-12.5 -126v-432q0 -45 13.5 -72.5t36.5 -41.5t53.5 -18.5t64.5 -4.5h6zM569 1268q23 29 47.5 67t48 78.5t45 81t37.5 74.5h219v-21q-19 -27 -56 -67.5t-82 -84.5
t-92.5 -85.5t-88.5 -69.5h-78v27z" />
    <glyph glyph-name="uni0145" unicode="&#x145;" horiz-adv-x="1563" 
d="M1165 0l-768 1180v-947q0 -48 13.5 -77t36 -44.5t53.5 -20.5t65 -5h27v-86h-514v86h26q35 0 65.5 5t53.5 20.5t36 44.5t13 77v1004q0 45 -13.5 72.5t-36.5 42.5t-53.5 19.5t-64.5 4.5h-26v86h375l733 -1132v907q0 45 -13.5 72.5t-36.5 42.5t-53.5 19.5t-64.5 4.5h-27v86
h514v-86h-26q-35 0 -65.5 -5t-53.5 -20.5t-36 -44.5t-13 -77v-1229h-146zM672 -426q17 68 33 147.5t28 153.5h199v-20q-14 -32 -34 -72t-43.5 -82t-47.5 -82t-45 -72h-90v27z" />
    <glyph glyph-name="uni0146" unicode="&#x146;" horiz-adv-x="1321" 
d="M608 86v-86h-551v86h17q35 0 65.5 5t53 20.5t36 44.5t13.5 77v639q0 45 -13.5 72.5t-36.5 42.5t-53.5 20t-64.5 5h-6v86h331l27 -166h10q32 57 67.5 93.5t75 57t84 28t93.5 7.5q81 0 144.5 -23.5t108 -72t68 -124.5t23.5 -181v-484q0 -48 11.5 -77t32.5 -44.5t50 -20.5
t63 -5h7v-86h-357v707q0 67 -12 119t-38.5 88t-69.5 54.5t-105 18.5q-70 0 -117.5 -27t-76.5 -73t-41.5 -106t-12.5 -126v-432q0 -45 13.5 -72.5t36.5 -41.5t53.5 -18.5t64.5 -4.5h6zM533 -426q17 68 33 147.5t28 153.5h199v-20q-14 -32 -34 -72t-43.5 -82t-47.5 -82
t-45 -72h-90v27z" />
    <glyph glyph-name="Ncaron" unicode="&#x147;" horiz-adv-x="1563" 
d="M1165 0l-768 1180v-947q0 -48 13.5 -77t36 -44.5t53.5 -20.5t65 -5h27v-86h-514v86h26q35 0 65.5 5t53.5 20.5t36 44.5t13 77v1004q0 45 -13.5 72.5t-36.5 42.5t-53.5 19.5t-64.5 4.5h-26v86h375l733 -1132v907q0 45 -13.5 72.5t-36.5 42.5t-53.5 19.5t-64.5 4.5h-27v86
h514v-86h-26q-35 0 -65.5 -5t-53.5 -20.5t-36 -44.5t-13 -77v-1229h-146zM527 1907h80q29 -18 58.5 -40t58 -46.5t55 -50t49.5 -50.5q23 25 49.5 50.5t55.5 50t59 46.5t59 40h80v-27q-24 -29 -53 -67t-57.5 -78.5t-53.5 -80.5t-41 -75h-194q-16 35 -41 75t-53.5 80.5
t-57.5 78.5t-53 67v27z" />
    <glyph glyph-name="ncaron" unicode="&#x148;" horiz-adv-x="1321" 
d="M608 86v-86h-551v86h17q35 0 65.5 5t53 20.5t36 44.5t13.5 77v639q0 45 -13.5 72.5t-36.5 42.5t-53.5 20t-64.5 5h-6v86h331l27 -166h10q32 57 67.5 93.5t75 57t84 28t93.5 7.5q81 0 144.5 -23.5t108 -72t68 -124.5t23.5 -181v-484q0 -48 11.5 -77t32.5 -44.5t50 -20.5
t63 -5h7v-86h-357v707q0 67 -12 119t-38.5 88t-69.5 54.5t-105 18.5q-70 0 -117.5 -27t-76.5 -73t-41.5 -106t-12.5 -126v-432q0 -45 13.5 -72.5t36.5 -41.5t53.5 -18.5t64.5 -4.5h6zM375 1569h80q29 -18 58.5 -40t58 -46.5t55 -50t49.5 -50.5q23 25 49.5 50.5t55.5 50
t59 46.5t59 40h80v-27q-24 -29 -53 -67t-57.5 -78.5t-53.5 -80.5t-41 -75h-194q-16 35 -41 75t-53.5 80.5t-57.5 78.5t-53 67v27z" />
    <glyph glyph-name="napostrophe" unicode="&#x149;" horiz-adv-x="1597" 
d="M884 86v-86h-551v86h17q35 0 65.5 5t53 20.5t36 44.5t13.5 77v639q0 45 -13.5 72.5t-36.5 42.5t-53.5 20t-64.5 5h-6v86h331l27 -166h10q32 57 67.5 93.5t75 57t84 28t93.5 7.5q81 0 144.5 -23.5t108 -72t68 -124.5t23.5 -181v-484q0 -48 11.5 -77t32.5 -44.5t50 -20.5
t63 -5h7v-86h-357v707q0 67 -12 119t-38.5 88t-69.5 54.5t-105 18.5q-70 0 -117.5 -27t-76.5 -73t-41.5 -106t-12.5 -126v-432q0 -45 13.5 -72.5t36.5 -41.5t53.5 -18.5t64.5 -4.5h6zM337 1284q0 -65 -18 -126t-58.5 -113t-104 -93.5t-155.5 -68.5v86q101 32 148 78t47 106
q0 20 -11 33.5t-28 24t-36 20.5t-36 24t-28 34.5t-11 51.5q0 59 38.5 90t95.5 31q32 0 60 -11.5t50 -34t34.5 -56t12.5 -76.5z" />
    <glyph glyph-name="Eng" unicode="&#x14a;" horiz-adv-x="1563" 
d="M1311 -16q0 -138 -19.5 -229.5t-58.5 -146t-97.5 -77.5t-136.5 -23h-47v97h29q49 0 87 18.5t64.5 62t40 116t13.5 180.5v18l-789 1180v-947q0 -48 13.5 -77t36 -44.5t53 -20.5t65.5 -5h27v-86h-514v86h26q35 0 65.5 5t53.5 20.5t36 44.5t13 77v1004q0 45 -13.5 72.5
t-36.5 42.5t-53.5 19.5t-64.5 4.5h-26v86h375l733 -1104v879q0 45 -13.5 72.5t-36.5 42.5t-53.5 19.5t-64.5 4.5h-27v86h514v-86h-26q-35 0 -65.5 -5t-53.5 -20.5t-36 -44.5t-13 -77v-1245z" />
    <glyph glyph-name="eng" unicode="&#x14b;" horiz-adv-x="1300" 
d="M608 86v-86h-551v86h17q35 0 65.5 5t53 20.5t36 44.5t13.5 77v639q0 45 -13.5 72.5t-36.5 42.5t-53.5 20t-64.5 5h-6v86h331l27 -166h10q32 57 67.5 93.5t75 57t84 28t93.5 7.5q81 0 144.5 -23.5t108 -72t68 -124.5t23.5 -181v-733q0 -138 -28 -229.5t-78.5 -146
t-120 -77.5t-152.5 -23h-31v97h12q50 0 88 18.5t64 62t39.5 116t13.5 180.5v725q0 67 -12 119t-38.5 88t-69.5 54.5t-105 18.5q-70 0 -117.5 -27t-76.5 -73t-41.5 -106t-12.5 -126v-432q0 -45 13.5 -72.5t36.5 -41.5t53.5 -18.5t64.5 -4.5h6z" />
    <glyph glyph-name="Omacron" unicode="&#x14c;" horiz-adv-x="1520" 
d="M1403 733q0 -169 -42 -308t-124 -238t-202 -153t-275 -54q-163 0 -284 54t-201 153t-120 238.5t-40 309.5t40 308.5t120 236.5t202 151.5t285 53.5q155 0 274 -53.5t201 -152t124 -237t42 -309.5zM342 733q0 -152 22.5 -271.5t72.5 -202t129.5 -126t193.5 -43.5
t193.5 43.5t129 126t71.5 202t22 271.5t-22 271.5t-71.5 201.5t-128 125t-192.5 43t-194 -43t-130.5 -125t-73 -201.5t-22.5 -271.5zM1053 1600h-594v121h594v-121z" />
    <glyph glyph-name="omacron" unicode="&#x14d;" horiz-adv-x="1182" 
d="M1069 551q0 -289 -122.5 -430t-358.5 -141q-111 0 -199 35t-149.5 106t-94 178.5t-32.5 251.5q0 287 121.5 427t359.5 140q111 0 199 -34.5t149.5 -105t94 -177t32.5 -250.5zM311 551q0 -114 15 -201t48.5 -145.5t87 -88.5t130.5 -30t130 30t86 88.5t47.5 145.5t14.5 201
t-15 200t-48 143.5t-86.5 86.5t-130.5 29t-130 -29t-86 -86.5t-48 -143.5t-15 -200zM883 1262h-594v121h594v-121z" />
    <glyph glyph-name="Obreve" unicode="&#x14e;" horiz-adv-x="1520" 
d="M1403 733q0 -169 -42 -308t-124 -238t-202 -153t-275 -54q-163 0 -284 54t-201 153t-120 238.5t-40 309.5t40 308.5t120 236.5t202 151.5t285 53.5q155 0 274 -53.5t201 -152t124 -237t42 -309.5zM342 733q0 -152 22.5 -271.5t72.5 -202t129.5 -126t193.5 -43.5
t193.5 43.5t129 126t71.5 202t22 271.5t-22 271.5t-71.5 201.5t-128 125t-192.5 43t-194 -43t-130.5 -125t-73 -201.5t-22.5 -271.5zM760 1579q-73 0 -126.5 22.5t-88.5 60.5t-52.5 89t-19.5 109h94q17 -75 67 -107.5t126 -32.5q75 0 125 32.5t67 107.5h95
q-2 -58 -19.5 -109t-53 -89t-88.5 -60.5t-126 -22.5z" />
    <glyph glyph-name="obreve" unicode="&#x14f;" horiz-adv-x="1182" 
d="M1069 551q0 -289 -122.5 -430t-358.5 -141q-111 0 -199 35t-149.5 106t-94 178.5t-32.5 251.5q0 287 121.5 427t359.5 140q111 0 199 -34.5t149.5 -105t94 -177t32.5 -250.5zM311 551q0 -114 15 -201t48.5 -145.5t87 -88.5t130.5 -30t130 30t86 88.5t47.5 145.5t14.5 201
t-15 200t-48 143.5t-86.5 86.5t-130.5 29t-130 -29t-86 -86.5t-48 -143.5t-15 -200zM590 1241q-73 0 -126.5 22.5t-88.5 60.5t-52.5 89t-19.5 109h94q17 -75 67 -107.5t126 -32.5q75 0 125 32.5t67 107.5h95q-2 -58 -19.5 -109t-53 -89t-88.5 -60.5t-126 -22.5z" />
    <glyph glyph-name="Ohungarumlaut" unicode="&#x150;" horiz-adv-x="1520" 
d="M1403 733q0 -169 -42 -308t-124 -238t-202 -153t-275 -54q-163 0 -284 54t-201 153t-120 238.5t-40 309.5t40 308.5t120 236.5t202 151.5t285 53.5q155 0 274 -53.5t201 -152t124 -237t42 -309.5zM342 733q0 -152 22.5 -271.5t72.5 -202t129.5 -126t193.5 -43.5
t193.5 43.5t129 126t71.5 202t22 271.5t-22 271.5t-71.5 201.5t-128 125t-192.5 43t-194 -43t-130.5 -125t-73 -201.5t-22.5 -271.5zM445 1579v27q21 33 45 71t47.5 78t44.5 79t37 73h219v-21q-11 -18 -30.5 -42.5t-44.5 -52.5t-53.5 -57.5t-57.5 -57.5t-56.5 -53t-50.5 -44
h-100zM814 1579v27q21 33 45 71t47.5 78t44.5 79t37 73h219v-21q-11 -18 -30.5 -42.5t-44.5 -52.5t-53.5 -57.5t-57.5 -57.5t-56.5 -53t-50.5 -44h-100z" />
    <glyph glyph-name="ohungarumlaut" unicode="&#x151;" horiz-adv-x="1182" 
d="M1069 551q0 -289 -122.5 -430t-358.5 -141q-111 0 -199 35t-149.5 106t-94 178.5t-32.5 251.5q0 287 121.5 427t359.5 140q111 0 199 -34.5t149.5 -105t94 -177t32.5 -250.5zM311 551q0 -114 15 -201t48.5 -145.5t87 -88.5t130.5 -30t130 30t86 88.5t47.5 145.5t14.5 201
t-15 200t-48 143.5t-86.5 86.5t-130.5 29t-130 -29t-86 -86.5t-48 -143.5t-15 -200zM279 1241v27q21 33 45 71t47.5 78t44.5 79t37 73h219v-21q-11 -18 -30.5 -42.5t-44.5 -52.5t-53.5 -57.5t-57.5 -57.5t-56.5 -53t-50.5 -44h-100zM648 1241v27q21 33 45 71t47.5 78
t44.5 79t37 73h219v-21q-11 -18 -30.5 -42.5t-44.5 -52.5t-53.5 -57.5t-57.5 -57.5t-56.5 -53t-50.5 -44h-100z" />
    <glyph glyph-name="OE" unicode="&#x152;" horiz-adv-x="1964" 
d="M1167 102h396q48 0 82.5 13.5t57.5 36.5t36 53.5t18 64.5l15 88h106l-14 -358h-893q-21 -5 -47.5 -8.5t-55 -6t-56.5 -4t-52 -1.5q-163 0 -284 54t-201 153t-120 238.5t-40 309.5t40 308.5t120 236.5t202 151.5t285 53.5q24 0 52.5 -1.5t57 -4.5t54.5 -7t47 -10h825
l10 -358h-106l-10 88q-4 34 -15.5 64.5t-33 53.5t-54 36.5t-78.5 13.5h-344v-545h494v-100h-494v-613zM760 90q60 0 110 8.5t91 22.5v1218q-41 17 -90 26t-109 9q-114 0 -194 -43t-130.5 -125t-73 -201.5t-22.5 -271.5t22.5 -271.5t72.5 -202t129.5 -126t193.5 -43.5z" />
    <glyph glyph-name="oe" unicode="&#x153;" horiz-adv-x="1853" 
d="M311 551q0 -114 15 -201t48.5 -145.5t87 -88.5t130.5 -30q76 0 128.5 29t85.5 86.5t48 142.5t16 197v28q-1 110 -17 192.5t-49 138t-86 83t-128 27.5q-77 0 -130 -29t-86 -86.5t-48 -143.5t-15 -200zM1321 1008q-115 0 -176 -92.5t-72 -270.5h471q0 81 -12 148t-38 115
t-68.5 74t-104.5 26zM1346 -20q-130 0 -221.5 52t-151.5 152q-119 -204 -385 -204q-111 0 -199 35t-149.5 106t-94 178.5t-32.5 251.5q0 287 121.5 427t359.5 140q124 0 217.5 -49t155.5 -149q58 100 147.5 149t210.5 49q99 0 178 -31t134 -92.5t84.5 -153t29.5 -212.5v-94
h-682q2 -99 19 -177.5t53 -134t93 -85t140 -29.5q53 0 98.5 12t82.5 32t65.5 45.5t46.5 53.5q14 -6 26.5 -25t12.5 -45q0 -31 -22 -66.5t-67 -65.5t-112.5 -50t-158.5 -20z" />
    <glyph glyph-name="Racute" unicode="&#x154;" horiz-adv-x="1343" 
d="M1135 250q52 -82 101 -123t114 -41h6v-86h-29q-96 0 -157.5 7t-104.5 27t-73.5 56t-65.5 94l-277 461h-170v-422q0 -45 13.5 -72.5t36.5 -41.5t53.5 -18.5t64.5 -4.5h27v-86h-596v86h26q34 0 64.5 4.5t53.5 18.5t36.5 41.5t13.5 72.5v1014q0 45 -13.5 72.5t-36.5 42.5
t-53.5 19.5t-64.5 4.5h-26v86h551q266 0 396 -98.5t130 -296.5q0 -82 -26.5 -143.5t-69.5 -106.5t-97 -75t-108 -48zM479 741h144q90 0 150 20t96 60t51.5 100t15.5 140q0 82 -17 139.5t-55 94t-98.5 53t-147.5 16.5h-139v-623zM524 1606q23 29 47.5 67t48 78.5t45 81
t37.5 74.5h219v-21q-19 -27 -56 -67.5t-82 -84.5t-92.5 -85.5t-88.5 -69.5h-78v27z" />
    <glyph glyph-name="racute" unicode="&#x155;" horiz-adv-x="965" 
d="M659 0h-591v86h6q35 0 65.5 5t53 20.5t36 44.5t13.5 77v639q0 45 -13.5 72.5t-36.5 42.5t-53.5 20t-64.5 5h-6v86h315l39 -203h10q20 46 41 86.5t51.5 71t75.5 48t113 17.5q112 0 166.5 -39t54.5 -110q0 -32 -10.5 -59t-33.5 -46.5t-59 -30t-88 -10.5q0 85 -24 122.5
t-84 37.5q-38 0 -68 -21.5t-52.5 -57t-38 -81.5t-25 -94.5t-13.5 -96.5t-4 -87v-322q0 -45 13.5 -72.5t36.5 -41.5t53.5 -18.5t64.5 -4.5h57v-86zM374 1268q23 29 47.5 67t48 78.5t45 81t37.5 74.5h219v-21q-19 -27 -56 -67.5t-82 -84.5t-92.5 -85.5t-88.5 -69.5h-78v27z
" />
    <glyph glyph-name="uni0156" unicode="&#x156;" horiz-adv-x="1343" 
d="M1135 250q52 -82 101 -123t114 -41h6v-86h-29q-96 0 -157.5 7t-104.5 27t-73.5 56t-65.5 94l-277 461h-170v-422q0 -45 13.5 -72.5t36.5 -41.5t53.5 -18.5t64.5 -4.5h27v-86h-596v86h26q34 0 64.5 4.5t53.5 18.5t36.5 41.5t13.5 72.5v1014q0 45 -13.5 72.5t-36.5 42.5
t-53.5 19.5t-64.5 4.5h-26v86h551q266 0 396 -98.5t130 -296.5q0 -82 -26.5 -143.5t-69.5 -106.5t-97 -75t-108 -48zM479 741h144q90 0 150 20t96 60t51.5 100t15.5 140q0 82 -17 139.5t-55 94t-98.5 53t-147.5 16.5h-139v-623zM533 -426q17 68 33 147.5t28 153.5h199v-20
q-14 -32 -34 -72t-43.5 -82t-47.5 -82t-45 -72h-90v27z" />
    <glyph glyph-name="uni0157" unicode="&#x157;" horiz-adv-x="965" 
d="M659 0h-591v86h6q35 0 65.5 5t53 20.5t36 44.5t13.5 77v639q0 45 -13.5 72.5t-36.5 42.5t-53.5 20t-64.5 5h-6v86h315l39 -203h10q20 46 41 86.5t51.5 71t75.5 48t113 17.5q112 0 166.5 -39t54.5 -110q0 -32 -10.5 -59t-33.5 -46.5t-59 -30t-88 -10.5q0 85 -24 122.5
t-84 37.5q-38 0 -68 -21.5t-52.5 -57t-38 -81.5t-25 -94.5t-13.5 -96.5t-4 -87v-322q0 -45 13.5 -72.5t36.5 -41.5t53.5 -18.5t64.5 -4.5h57v-86zM179 -426q17 68 33 147.5t28 153.5h199v-20q-14 -32 -34 -72t-43.5 -82t-47.5 -82t-45 -72h-90v27z" />
    <glyph glyph-name="Rcaron" unicode="&#x158;" horiz-adv-x="1343" 
d="M1135 250q52 -82 101 -123t114 -41h6v-86h-29q-96 0 -157.5 7t-104.5 27t-73.5 56t-65.5 94l-277 461h-170v-422q0 -45 13.5 -72.5t36.5 -41.5t53.5 -18.5t64.5 -4.5h27v-86h-596v86h26q34 0 64.5 4.5t53.5 18.5t36.5 41.5t13.5 72.5v1014q0 45 -13.5 72.5t-36.5 42.5
t-53.5 19.5t-64.5 4.5h-26v86h551q266 0 396 -98.5t130 -296.5q0 -82 -26.5 -143.5t-69.5 -106.5t-97 -75t-108 -48zM479 741h144q90 0 150 20t96 60t51.5 100t15.5 140q0 82 -17 139.5t-55 94t-98.5 53t-147.5 16.5h-139v-623zM322 1907h80q29 -18 58.5 -40t58 -46.5
t55 -50t49.5 -50.5q23 25 49.5 50.5t55.5 50t59 46.5t59 40h80v-27q-24 -29 -53 -67t-57.5 -78.5t-53.5 -80.5t-41 -75h-194q-16 35 -41 75t-53.5 80.5t-57.5 78.5t-53 67v27z" />
    <glyph glyph-name="rcaron" unicode="&#x159;" horiz-adv-x="965" 
d="M659 0h-591v86h6q35 0 65.5 5t53 20.5t36 44.5t13.5 77v639q0 45 -13.5 72.5t-36.5 42.5t-53.5 20t-64.5 5h-6v86h315l39 -203h10q20 46 41 86.5t51.5 71t75.5 48t113 17.5q112 0 166.5 -39t54.5 -110q0 -32 -10.5 -59t-33.5 -46.5t-59 -30t-88 -10.5q0 85 -24 122.5
t-84 37.5q-38 0 -68 -21.5t-52.5 -57t-38 -81.5t-25 -94.5t-13.5 -96.5t-4 -87v-322q0 -45 13.5 -72.5t36.5 -41.5t53.5 -18.5t64.5 -4.5h57v-86zM155 1569h80q29 -18 58.5 -40t58 -46.5t55 -50t49.5 -50.5q23 25 49.5 50.5t55.5 50t59 46.5t59 40h80v-27q-24 -29 -53 -67
t-57.5 -78.5t-53.5 -80.5t-41 -75h-194q-16 35 -41 75t-53.5 80.5t-57.5 78.5t-53 67v27z" />
    <glyph glyph-name="Sacute" unicode="&#x15a;" horiz-adv-x="1114" 
d="M506 -20q-100 0 -176.5 21t-128 58.5t-77.5 91t-26 117.5q0 62 38.5 100t109.5 38q3 -64 19.5 -123t49.5 -104t84 -72t123 -27q138 0 215.5 66.5t77.5 191.5q0 56 -16 99t-53 79.5t-97.5 70t-150.5 70.5q-95 39 -166 83.5t-118 99t-70 121.5t-23 151q0 88 33.5 157
t93.5 116.5t142 72.5t179 25q92 0 163 -19t120 -51t74.5 -73.5t25.5 -86.5q0 -66 -43.5 -99.5t-117.5 -33.5q0 48 -11.5 94.5t-38.5 83t-71 59.5t-109 23q-59 0 -105.5 -16.5t-78.5 -47t-49 -73.5t-17 -96q0 -61 16 -107.5t53.5 -84t98.5 -71t150 -69.5q90 -37 160.5 -78
t119.5 -91.5t75 -113t26 -141.5q0 -97 -35.5 -173.5t-101.5 -129.5t-159 -80.5t-208 -27.5zM450 1606q23 29 47.5 67t48 78.5t45 81t37.5 74.5h219v-21q-19 -27 -56 -67.5t-82 -84.5t-92.5 -85.5t-88.5 -69.5h-78v27z" />
    <glyph glyph-name="sacute" unicode="&#x15b;" horiz-adv-x="924" 
d="M430 -20q-77 0 -139.5 13.5t-106.5 41t-68 68t-24 94.5q0 41 13.5 68.5t33 43.5t42 22.5t40.5 6.5q0 -54 11 -101t37 -82.5t68.5 -56t104.5 -20.5q55 0 97 13.5t70.5 38t43.5 59t15 75.5q0 38 -11.5 65.5t-40 51.5t-77.5 49t-123 57q-79 35 -137.5 67.5t-96.5 70.5
t-57 86.5t-19 115.5q0 70 27.5 124t78.5 90.5t122 55.5t158 19q73 0 129 -15t94 -40.5t57 -60t19 -72.5q0 -56 -38.5 -89.5t-109.5 -33.5q0 103 -42.5 160t-133.5 57q-52 0 -89 -12t-60.5 -34t-34.5 -52t-11 -66q0 -39 14 -67.5t44.5 -52.5t79 -46.5t116.5 -50.5
q81 -34 139 -67t95.5 -72t55.5 -88t18 -113q0 -80 -29 -140t-82 -100.5t-127.5 -60.5t-165.5 -20zM365 1268q23 29 47.5 67t48 78.5t45 81t37.5 74.5h219v-21q-19 -27 -56 -67.5t-82 -84.5t-92.5 -85.5t-88.5 -69.5h-78v27z" />
    <glyph glyph-name="Scircumflex" unicode="&#x15c;" horiz-adv-x="1114" 
d="M506 -20q-100 0 -176.5 21t-128 58.5t-77.5 91t-26 117.5q0 62 38.5 100t109.5 38q3 -64 19.5 -123t49.5 -104t84 -72t123 -27q138 0 215.5 66.5t77.5 191.5q0 56 -16 99t-53 79.5t-97.5 70t-150.5 70.5q-95 39 -166 83.5t-118 99t-70 121.5t-23 151q0 88 33.5 157
t93.5 116.5t142 72.5t179 25q92 0 163 -19t120 -51t74.5 -73.5t25.5 -86.5q0 -66 -43.5 -99.5t-117.5 -33.5q0 48 -11.5 94.5t-38.5 83t-71 59.5t-109 23q-59 0 -105.5 -16.5t-78.5 -47t-49 -73.5t-17 -96q0 -61 16 -107.5t53.5 -84t98.5 -71t150 -69.5q90 -37 160.5 -78
t119.5 -91.5t75 -113t26 -141.5q0 -97 -35.5 -173.5t-101.5 -129.5t-159 -80.5t-208 -27.5zM270 1606q24 29 53 67t57.5 78.5t53.5 81t41 74.5h194q16 -34 41 -74.5t53.5 -81t57.5 -78.5t53 -67v-27h-80q-59 34 -118 84.5t-105 99.5q-47 -49 -105 -99.5t-116 -84.5h-80v27z
" />
    <glyph glyph-name="scircumflex" unicode="&#x15d;" horiz-adv-x="924" 
d="M430 -20q-77 0 -139.5 13.5t-106.5 41t-68 68t-24 94.5q0 41 13.5 68.5t33 43.5t42 22.5t40.5 6.5q0 -54 11 -101t37 -82.5t68.5 -56t104.5 -20.5q55 0 97 13.5t70.5 38t43.5 59t15 75.5q0 38 -11.5 65.5t-40 51.5t-77.5 49t-123 57q-79 35 -137.5 67.5t-96.5 70.5
t-57 86.5t-19 115.5q0 70 27.5 124t78.5 90.5t122 55.5t158 19q73 0 129 -15t94 -40.5t57 -60t19 -72.5q0 -56 -38.5 -89.5t-109.5 -33.5q0 103 -42.5 160t-133.5 57q-52 0 -89 -12t-60.5 -34t-34.5 -52t-11 -66q0 -39 14 -67.5t44.5 -52.5t79 -46.5t116.5 -50.5
q81 -34 139 -67t95.5 -72t55.5 -88t18 -113q0 -80 -29 -140t-82 -100.5t-127.5 -60.5t-165.5 -20zM188 1268q24 29 53 67t57.5 78.5t53.5 81t41 74.5h194q16 -34 41 -74.5t53.5 -81t57.5 -78.5t53 -67v-27h-80q-59 34 -118 84.5t-105 99.5q-47 -49 -105 -99.5t-116 -84.5
h-80v27z" />
    <glyph glyph-name="Scedilla" unicode="&#x15e;" horiz-adv-x="1114" 
d="M506 -20q-100 0 -176.5 21t-128 58.5t-77.5 91t-26 117.5q0 62 38.5 100t109.5 38q3 -64 19.5 -123t49.5 -104t84 -72t123 -27q138 0 215.5 66.5t77.5 191.5q0 56 -16 99t-53 79.5t-97.5 70t-150.5 70.5q-95 39 -166 83.5t-118 99t-70 121.5t-23 151q0 88 33.5 157
t93.5 116.5t142 72.5t179 25q92 0 163 -19t120 -51t74.5 -73.5t25.5 -86.5q0 -66 -43.5 -99.5t-117.5 -33.5q0 48 -11.5 94.5t-38.5 83t-71 59.5t-109 23q-59 0 -105.5 -16.5t-78.5 -47t-49 -73.5t-17 -96q0 -61 16 -107.5t53.5 -84t98.5 -71t150 -69.5q90 -37 160.5 -78
t119.5 -91.5t75 -113t26 -141.5q0 -97 -35.5 -173.5t-101.5 -129.5t-159 -80.5t-208 -27.5zM746 -258q0 -109 -69.5 -171.5t-200.5 -62.5q-16 0 -36 1.5t-41 4.5t-42 7.5t-39 9.5v104q37 -8 74 -12t65 -4q59 0 92 31t33 84q0 60 -43.5 90t-110.5 35l43 159h97l-21 -88
q100 -8 149.5 -57.5t49.5 -130.5z" />
    <glyph glyph-name="scedilla" unicode="&#x15f;" horiz-adv-x="924" 
d="M430 -20q-77 0 -139.5 13.5t-106.5 41t-68 68t-24 94.5q0 41 13.5 68.5t33 43.5t42 22.5t40.5 6.5q0 -54 11 -101t37 -82.5t68.5 -56t104.5 -20.5q55 0 97 13.5t70.5 38t43.5 59t15 75.5q0 38 -11.5 65.5t-40 51.5t-77.5 49t-123 57q-79 35 -137.5 67.5t-96.5 70.5
t-57 86.5t-19 115.5q0 70 27.5 124t78.5 90.5t122 55.5t158 19q73 0 129 -15t94 -40.5t57 -60t19 -72.5q0 -56 -38.5 -89.5t-109.5 -33.5q0 103 -42.5 160t-133.5 57q-52 0 -89 -12t-60.5 -34t-34.5 -52t-11 -66q0 -39 14 -67.5t44.5 -52.5t79 -46.5t116.5 -50.5
q81 -34 139 -67t95.5 -72t55.5 -88t18 -113q0 -80 -29 -140t-82 -100.5t-127.5 -60.5t-165.5 -20zM674 -258q0 -109 -69.5 -171.5t-200.5 -62.5q-16 0 -36 1.5t-41 4.5t-42 7.5t-39 9.5v104q37 -8 74 -12t65 -4q59 0 92 31t33 84q0 60 -43.5 90t-110.5 35l43 159h97l-21 -88
q100 -8 149.5 -57.5t49.5 -130.5z" />
    <glyph glyph-name="Scaron" unicode="&#x160;" horiz-adv-x="1114" 
d="M506 -20q-100 0 -176.5 21t-128 58.5t-77.5 91t-26 117.5q0 62 38.5 100t109.5 38q3 -64 19.5 -123t49.5 -104t84 -72t123 -27q138 0 215.5 66.5t77.5 191.5q0 56 -16 99t-53 79.5t-97.5 70t-150.5 70.5q-95 39 -166 83.5t-118 99t-70 121.5t-23 151q0 88 33.5 157
t93.5 116.5t142 72.5t179 25q92 0 163 -19t120 -51t74.5 -73.5t25.5 -86.5q0 -66 -43.5 -99.5t-117.5 -33.5q0 48 -11.5 94.5t-38.5 83t-71 59.5t-109 23q-59 0 -105.5 -16.5t-78.5 -47t-49 -73.5t-17 -96q0 -61 16 -107.5t53.5 -84t98.5 -71t150 -69.5q90 -37 160.5 -78
t119.5 -91.5t75 -113t26 -141.5q0 -97 -35.5 -173.5t-101.5 -129.5t-159 -80.5t-208 -27.5zM263 1907h80q29 -18 58.5 -40t58 -46.5t55 -50t49.5 -50.5q23 25 49.5 50.5t55.5 50t59 46.5t59 40h80v-27q-24 -29 -53 -67t-57.5 -78.5t-53.5 -80.5t-41 -75h-194q-16 35 -41 75
t-53.5 80.5t-57.5 78.5t-53 67v27z" />
    <glyph glyph-name="scaron" unicode="&#x161;" horiz-adv-x="924" 
d="M430 -20q-77 0 -139.5 13.5t-106.5 41t-68 68t-24 94.5q0 41 13.5 68.5t33 43.5t42 22.5t40.5 6.5q0 -54 11 -101t37 -82.5t68.5 -56t104.5 -20.5q55 0 97 13.5t70.5 38t43.5 59t15 75.5q0 38 -11.5 65.5t-40 51.5t-77.5 49t-123 57q-79 35 -137.5 67.5t-96.5 70.5
t-57 86.5t-19 115.5q0 70 27.5 124t78.5 90.5t122 55.5t158 19q73 0 129 -15t94 -40.5t57 -60t19 -72.5q0 -56 -38.5 -89.5t-109.5 -33.5q0 103 -42.5 160t-133.5 57q-52 0 -89 -12t-60.5 -34t-34.5 -52t-11 -66q0 -39 14 -67.5t44.5 -52.5t79 -46.5t116.5 -50.5
q81 -34 139 -67t95.5 -72t55.5 -88t18 -113q0 -80 -29 -140t-82 -100.5t-127.5 -60.5t-165.5 -20zM169 1569h80q29 -18 58.5 -40t58 -46.5t55 -50t49.5 -50.5q23 25 49.5 50.5t55.5 50t59 46.5t59 40h80v-27q-24 -29 -53 -67t-57.5 -78.5t-53.5 -80.5t-41 -75h-194
q-16 35 -41 75t-53.5 80.5t-57.5 78.5t-53 67v27z" />
    <glyph glyph-name="uni0162" unicode="&#x162;" horiz-adv-x="1255" 
d="M729 233q0 -48 13.5 -77t36 -44.5t53.5 -20.5t65 -5h47v-86h-637v86h47q34 0 64.5 4.5t53.5 18.5t36.5 41.5t13.5 72.5v1137h-196q-45 0 -75.5 -13.5t-50 -36.5t-29 -53.5t-13.5 -64.5l-11 -88h-106l10 358h1153l10 -358h-106l-10 88q-4 34 -14 64.5t-29 53.5t-50 36.5
t-77 13.5h-199v-1127zM851 -258q0 -109 -69.5 -171.5t-200.5 -62.5q-16 0 -36 1.5t-41 4.5t-42 7.5t-39 9.5v104q37 -8 74 -12t65 -4q59 0 92 31t33 84q0 60 -43.5 90t-110.5 35l43 159h97l-21 -88q100 -8 149.5 -57.5t49.5 -130.5z" />
    <glyph glyph-name="uni0163" unicode="&#x163;" horiz-adv-x="721" 
d="M543 88q37 0 68 4t63 10v-90q-13 -6 -34 -12t-45.5 -10.5t-51.5 -7t-51 -2.5q-78 0 -134 16.5t-92 53.5t-53.5 98t-17.5 149v684h-156v82q37 0 81.5 15t78.5 50q35 38 56.5 90.5t37.5 131.5h94v-252h268v-117h-268v-690q0 -105 42.5 -154t113.5 -49zM621 -258
q0 -109 -69.5 -171.5t-200.5 -62.5q-16 0 -36 1.5t-41 4.5t-42 7.5t-39 9.5v104q37 -8 74 -12t65 -4q59 0 92 31t33 84q0 60 -43.5 90t-110.5 35l43 159h97l-21 -88q100 -8 149.5 -57.5t49.5 -130.5z" />
    <glyph glyph-name="Tcaron" unicode="&#x164;" horiz-adv-x="1255" 
d="M729 233q0 -48 13.5 -77t36 -44.5t53.5 -20.5t65 -5h47v-86h-637v86h47q34 0 64.5 4.5t53.5 18.5t36.5 41.5t13.5 72.5v1137h-196q-45 0 -75.5 -13.5t-50 -36.5t-29 -53.5t-13.5 -64.5l-11 -88h-106l10 358h1153l10 -358h-106l-10 88q-4 34 -14 64.5t-29 53.5t-50 36.5
t-77 13.5h-199v-1127zM324 1907h80q29 -18 58.5 -40t58 -46.5t55 -50t49.5 -50.5q23 25 49.5 50.5t55.5 50t59 46.5t59 40h80v-27q-24 -29 -53 -67t-57.5 -78.5t-53.5 -80.5t-41 -75h-194q-16 35 -41 75t-53.5 80.5t-57.5 78.5t-53 67v27z" />
    <glyph glyph-name="tcaron" unicode="&#x165;" horiz-adv-x="721" 
d="M543 88q37 0 68 4t63 10v-90q-13 -6 -34 -12t-45.5 -10.5t-51.5 -7t-51 -2.5q-78 0 -134 16.5t-92 53.5t-53.5 98t-17.5 149v684h-156v82q37 0 81.5 15t78.5 50q35 38 56.5 90.5t37.5 131.5h94v-252h268v-117h-268v-690q0 -105 42.5 -154t113.5 -49zM532 1255
q17 69 33 148t29 153h178v-20q-14 -32 -34 -72t-43.5 -81.5t-47.5 -81.5t-45 -72h-70v26z" />
    <glyph glyph-name="Tbar" unicode="&#x166;" horiz-adv-x="1255" 
d="M729 772h346v-100h-346v-439q0 -48 13.5 -77t36 -44.5t53.5 -20.5t65 -5h47v-86h-637v86h47q34 0 64.5 4.5t53.5 18.5t36.5 41.5t13.5 72.5v449h-342v100h342v588h-196q-45 0 -75.5 -13.5t-50 -36.5t-29 -53.5t-13.5 -64.5l-11 -88h-106l10 358h1153l10 -358h-106l-10 88
q-4 34 -14 64.5t-29 53.5t-50 36.5t-77 13.5h-199v-588z" />
    <glyph glyph-name="tbar" unicode="&#x167;" horiz-adv-x="721" 
d="M543 88q37 0 68 4t63 10v-90q-13 -6 -34 -12t-45.5 -10.5t-51.5 -7t-51 -2.5q-78 0 -134 16.5t-92 53.5t-53.5 98t-17.5 149v299h-140v96h140v289h-156v82q37 0 81.5 15t78.5 50q35 38 56.5 90.5t37.5 131.5h94v-252h268v-117h-268v-289h248v-96h-248v-305
q0 -105 42.5 -154t113.5 -49z" />
    <glyph glyph-name="Utilde" unicode="&#x168;" horiz-adv-x="1468" 
d="M741 -20q-121 0 -217 25.5t-162.5 81t-101.5 143t-35 212.5v795q0 45 -13.5 72.5t-36.5 42.5t-53.5 19.5t-64.5 4.5h-26v86h596v-86h-27q-34 0 -65 -5t-53.5 -20.5t-36 -44.5t-13.5 -77v-799q0 -89 25.5 -151.5t71 -101.5t108 -57t137.5 -18q89 0 153.5 24t107 66.5
t63 101t20.5 128.5v815q0 45 -13.5 72.5t-36.5 42.5t-53.5 19.5t-64.5 4.5h-26v86h514v-86h-27q-34 0 -65 -5t-53.5 -20.5t-36 -44.5t-13.5 -77v-811q0 -102 -32.5 -183.5t-96 -138t-157.5 -86.5t-216 -30zM930 1712q30 0 48.5 9t29 24.5t15 35t7.5 40.5h92
q-3 -47 -16.5 -90.5t-39.5 -77.5t-65 -54t-94 -20t-99.5 20t-83 44.5t-72 44.5t-66.5 20q-31 0 -49 -9t-28.5 -24t-15.5 -34.5t-8 -40.5h-92q3 47 16.5 90t40 77t66 54t94.5 20t99.5 -20t83 -44.5t72 -44.5t65.5 -20z" />
    <glyph glyph-name="utilde" unicode="&#x169;" horiz-adv-x="1300" 
d="M1079 223q0 -45 13.5 -72.5t36.5 -41.5t53.5 -18.5t64.5 -4.5h6v-86h-325l-27 166h-10q-31 -58 -68.5 -94t-79.5 -56.5t-88 -28t-96 -7.5q-81 0 -144 23t-106 72t-65.5 125t-22.5 181v491q0 45 -13.5 72.5t-36.5 42.5t-53.5 20t-64.5 5h-6v86h367v-707q0 -67 10.5 -119
t35 -88t66 -54.5t103.5 -18.5q68 0 116.5 24t80 67.5t46.5 104.5t15 135v422q0 48 -13.5 77.5t-36 45t-53 20.5t-65.5 5h-6v86h366v-875zM807 1374q30 0 48.5 9t29 24.5t15 35t7.5 40.5h92q-3 -47 -16.5 -90.5t-39.5 -77.5t-65 -54t-94 -20t-99.5 20t-83 44.5t-72 44.5
t-66.5 20q-31 0 -49 -9t-28.5 -24t-15.5 -34.5t-8 -40.5h-92q3 47 16.5 90t40 77t66 54t94.5 20t99.5 -20t83 -44.5t72 -44.5t65.5 -20z" />
    <glyph glyph-name="Umacron" unicode="&#x16a;" horiz-adv-x="1468" 
d="M741 -20q-121 0 -217 25.5t-162.5 81t-101.5 143t-35 212.5v795q0 45 -13.5 72.5t-36.5 42.5t-53.5 19.5t-64.5 4.5h-26v86h596v-86h-27q-34 0 -65 -5t-53.5 -20.5t-36 -44.5t-13.5 -77v-799q0 -89 25.5 -151.5t71 -101.5t108 -57t137.5 -18q89 0 153.5 24t107 66.5
t63 101t20.5 128.5v815q0 45 -13.5 72.5t-36.5 42.5t-53.5 19.5t-64.5 4.5h-26v86h514v-86h-27q-34 0 -65 -5t-53.5 -20.5t-36 -44.5t-13.5 -77v-811q0 -102 -32.5 -183.5t-96 -138t-157.5 -86.5t-216 -30zM1069 1600h-594v121h594v-121z" />
    <glyph glyph-name="umacron" unicode="&#x16b;" horiz-adv-x="1300" 
d="M1079 223q0 -45 13.5 -72.5t36.5 -41.5t53.5 -18.5t64.5 -4.5h6v-86h-325l-27 166h-10q-31 -58 -68.5 -94t-79.5 -56.5t-88 -28t-96 -7.5q-81 0 -144 23t-106 72t-65.5 125t-22.5 181v491q0 45 -13.5 72.5t-36.5 42.5t-53.5 20t-64.5 5h-6v86h367v-707q0 -67 10.5 -119
t35 -88t66 -54.5t103.5 -18.5q68 0 116.5 24t80 67.5t46.5 104.5t15 135v422q0 48 -13.5 77.5t-36 45t-53 20.5t-65.5 5h-6v86h366v-875zM922 1262h-594v121h594v-121z" />
    <glyph glyph-name="Ubreve" unicode="&#x16c;" horiz-adv-x="1468" 
d="M741 -20q-121 0 -217 25.5t-162.5 81t-101.5 143t-35 212.5v795q0 45 -13.5 72.5t-36.5 42.5t-53.5 19.5t-64.5 4.5h-26v86h596v-86h-27q-34 0 -65 -5t-53.5 -20.5t-36 -44.5t-13.5 -77v-799q0 -89 25.5 -151.5t71 -101.5t108 -57t137.5 -18q89 0 153.5 24t107 66.5
t63 101t20.5 128.5v815q0 45 -13.5 72.5t-36.5 42.5t-53.5 19.5t-64.5 4.5h-26v86h514v-86h-27q-34 0 -65 -5t-53.5 -20.5t-36 -44.5t-13.5 -77v-811q0 -102 -32.5 -183.5t-96 -138t-157.5 -86.5t-216 -30zM760 1579q-73 0 -126.5 22.5t-88.5 60.5t-52.5 89t-19.5 109h94
q17 -75 67 -107.5t126 -32.5q75 0 125 32.5t67 107.5h95q-2 -58 -19.5 -109t-53 -89t-88.5 -60.5t-126 -22.5z" />
    <glyph glyph-name="ubreve" unicode="&#x16d;" horiz-adv-x="1300" 
d="M1079 223q0 -45 13.5 -72.5t36.5 -41.5t53.5 -18.5t64.5 -4.5h6v-86h-325l-27 166h-10q-31 -58 -68.5 -94t-79.5 -56.5t-88 -28t-96 -7.5q-81 0 -144 23t-106 72t-65.5 125t-22.5 181v491q0 45 -13.5 72.5t-36.5 42.5t-53.5 20t-64.5 5h-6v86h367v-707q0 -67 10.5 -119
t35 -88t66 -54.5t103.5 -18.5q68 0 116.5 24t80 67.5t46.5 104.5t15 135v422q0 48 -13.5 77.5t-36 45t-53 20.5t-65.5 5h-6v86h366v-875zM635 1241q-73 0 -126.5 22.5t-88.5 60.5t-52.5 89t-19.5 109h94q17 -75 67 -107.5t126 -32.5q75 0 125 32.5t67 107.5h95
q-2 -58 -19.5 -109t-53 -89t-88.5 -60.5t-126 -22.5z" />
    <glyph glyph-name="Uring" unicode="&#x16e;" horiz-adv-x="1468" 
d="M741 -20q-121 0 -217 25.5t-162.5 81t-101.5 143t-35 212.5v795q0 45 -13.5 72.5t-36.5 42.5t-53.5 19.5t-64.5 4.5h-26v86h596v-86h-27q-34 0 -65 -5t-53.5 -20.5t-36 -44.5t-13.5 -77v-799q0 -89 25.5 -151.5t71 -101.5t108 -57t137.5 -18q89 0 153.5 24t107 66.5
t63 101t20.5 128.5v815q0 45 -13.5 72.5t-36.5 42.5t-53.5 19.5t-64.5 4.5h-26v86h514v-86h-27q-34 0 -65 -5t-53.5 -20.5t-36 -44.5t-13.5 -77v-811q0 -102 -32.5 -183.5t-96 -138t-157.5 -86.5t-216 -30zM1006 1782q0 -55 -19 -96.5t-52.5 -69.5t-78.5 -42.5t-96 -14.5
t-96 14.5t-78.5 42.5t-52.5 69.5t-19 96.5q0 54 19 96t52.5 70t78.5 42.5t96 14.5t96 -14.5t78.5 -42.5t52.5 -70t19 -96zM895 1782q0 33 -10.5 56.5t-29 38t-43 21.5t-52.5 7t-52.5 -7t-43 -21.5t-29 -38t-10.5 -56.5t10.5 -56.5t29 -38t43 -21.5t52.5 -7t52.5 7t43 21.5
t29 38t10.5 56.5z" />
    <glyph glyph-name="uring" unicode="&#x16f;" horiz-adv-x="1300" 
d="M1079 223q0 -45 13.5 -72.5t36.5 -41.5t53.5 -18.5t64.5 -4.5h6v-86h-325l-27 166h-10q-31 -58 -68.5 -94t-79.5 -56.5t-88 -28t-96 -7.5q-81 0 -144 23t-106 72t-65.5 125t-22.5 181v491q0 45 -13.5 72.5t-36.5 42.5t-53.5 20t-64.5 5h-6v86h367v-707q0 -67 10.5 -119
t35 -88t66 -54.5t103.5 -18.5q68 0 116.5 24t80 67.5t46.5 104.5t15 135v422q0 48 -13.5 77.5t-36 45t-53 20.5t-65.5 5h-6v86h366v-875zM869 1444q0 -55 -19 -96.5t-52.5 -69.5t-78.5 -42.5t-96 -14.5t-96 14.5t-78.5 42.5t-52.5 69.5t-19 96.5q0 54 19 96t52.5 70
t78.5 42.5t96 14.5t96 -14.5t78.5 -42.5t52.5 -70t19 -96zM758 1444q0 33 -10.5 56.5t-29 38t-43 21.5t-52.5 7t-52.5 -7t-43 -21.5t-29 -38t-10.5 -56.5t10.5 -56.5t29 -38t43 -21.5t52.5 -7t52.5 7t43 21.5t29 38t10.5 56.5z" />
    <glyph glyph-name="Uhungarumlaut" unicode="&#x170;" horiz-adv-x="1468" 
d="M741 -20q-121 0 -217 25.5t-162.5 81t-101.5 143t-35 212.5v795q0 45 -13.5 72.5t-36.5 42.5t-53.5 19.5t-64.5 4.5h-26v86h596v-86h-27q-34 0 -65 -5t-53.5 -20.5t-36 -44.5t-13.5 -77v-799q0 -89 25.5 -151.5t71 -101.5t108 -57t137.5 -18q89 0 153.5 24t107 66.5
t63 101t20.5 128.5v815q0 45 -13.5 72.5t-36.5 42.5t-53.5 19.5t-64.5 4.5h-26v86h514v-86h-27q-34 0 -65 -5t-53.5 -20.5t-36 -44.5t-13.5 -77v-811q0 -102 -32.5 -183.5t-96 -138t-157.5 -86.5t-216 -30zM459 1579v27q21 33 45 71t47.5 78t44.5 79t37 73h219v-21
q-11 -18 -30.5 -42.5t-44.5 -52.5t-53.5 -57.5t-57.5 -57.5t-56.5 -53t-50.5 -44h-100zM828 1579v27q21 33 45 71t47.5 78t44.5 79t37 73h219v-21q-11 -18 -30.5 -42.5t-44.5 -52.5t-53.5 -57.5t-57.5 -57.5t-56.5 -53t-50.5 -44h-100z" />
    <glyph glyph-name="uhungarumlaut" unicode="&#x171;" horiz-adv-x="1300" 
d="M1079 223q0 -45 13.5 -72.5t36.5 -41.5t53.5 -18.5t64.5 -4.5h6v-86h-325l-27 166h-10q-31 -58 -68.5 -94t-79.5 -56.5t-88 -28t-96 -7.5q-81 0 -144 23t-106 72t-65.5 125t-22.5 181v491q0 45 -13.5 72.5t-36.5 42.5t-53.5 20t-64.5 5h-6v86h367v-707q0 -67 10.5 -119
t35 -88t66 -54.5t103.5 -18.5q68 0 116.5 24t80 67.5t46.5 104.5t15 135v422q0 48 -13.5 77.5t-36 45t-53 20.5t-65.5 5h-6v86h366v-875zM338 1241v27q21 33 45 71t47.5 78t44.5 79t37 73h219v-21q-11 -18 -30.5 -42.5t-44.5 -52.5t-53.5 -57.5t-57.5 -57.5t-56.5 -53
t-50.5 -44h-100zM707 1241v27q21 33 45 71t47.5 78t44.5 79t37 73h219v-21q-11 -18 -30.5 -42.5t-44.5 -52.5t-53.5 -57.5t-57.5 -57.5t-56.5 -53t-50.5 -44h-100z" />
    <glyph glyph-name="Uogonek" unicode="&#x172;" horiz-adv-x="1468" 
d="M741 -20q-121 0 -217 25.5t-162.5 81t-101.5 143t-35 212.5v795q0 45 -13.5 72.5t-36.5 42.5t-53.5 19.5t-64.5 4.5h-26v86h596v-86h-27q-34 0 -65 -5t-53.5 -20.5t-36 -44.5t-13.5 -77v-799q0 -89 25.5 -151.5t71 -101.5t108 -57t137.5 -18q89 0 153.5 24t107 66.5
t63 101t20.5 128.5v815q0 45 -13.5 72.5t-36.5 42.5t-53.5 19.5t-64.5 4.5h-26v86h514v-86h-27q-34 0 -65 -5t-53.5 -20.5t-36 -44.5t-13.5 -77v-811q0 -102 -32.5 -183.5t-96 -138t-157.5 -86.5t-216 -30zM559 -266q0 48 20 91t54 78.5t77.5 60.5t90.5 36h117
q-32 -10 -66 -30t-61.5 -49.5t-45.5 -68.5t-18 -88q0 -34 10.5 -58.5t29.5 -40t45 -23t57 -7.5q27 0 59 4.5t70 12.5v-111q-16 -8 -36.5 -14t-42.5 -10t-42.5 -6.5t-36.5 -2.5q-65 0 -117 13.5t-88.5 41t-56 70t-19.5 101.5z" />
    <glyph glyph-name="uogonek" unicode="&#x173;" horiz-adv-x="1300" 
d="M1079 223q0 -45 13.5 -72.5t36.5 -41.5t53.5 -18.5t64.5 -4.5h6v-86h-325l-27 166h-10q-31 -58 -68.5 -94t-79.5 -56.5t-88 -28t-96 -7.5q-81 0 -144 23t-106 72t-65.5 125t-22.5 181v491q0 45 -13.5 72.5t-36.5 42.5t-53.5 20t-64.5 5h-6v86h367v-707q0 -67 10.5 -119
t35 -88t66 -54.5t103.5 -18.5q68 0 116.5 24t80 67.5t46.5 104.5t15 135v422q0 48 -13.5 77.5t-36 45t-53 20.5t-65.5 5h-6v86h366v-875zM692 -266q0 48 20 91t54 78.5t77.5 60.5t90.5 36h117q-32 -10 -66 -30t-61.5 -49.5t-45.5 -68.5t-18 -88q0 -34 10.5 -58.5t29.5 -40
t45 -23t57 -7.5q27 0 59 4.5t70 12.5v-111q-16 -8 -36.5 -14t-42.5 -10t-42.5 -6.5t-36.5 -2.5q-65 0 -117 13.5t-88.5 41t-56 70t-19.5 101.5z" />
    <glyph glyph-name="Wcircumflex" unicode="&#x174;" horiz-adv-x="2144" 
d="M1180 1448l256 -887q29 -102 51.5 -195.5t36.5 -164.5q15 74 34.5 155.5t47.5 180.5l180 632q3 12 7 27t7 30t5.5 28t2.5 22q0 53 -33.5 76.5t-101.5 23.5h-47v86h500v-86h-39q-30 0 -52.5 -6t-40.5 -23t-33 -48t-30 -82l-346 -1217h-184l-334 1147l-313 -1147h-189
l-375 1268q-10 32 -22.5 53t-29.5 33t-40 17t-53 5h-27v86h564v-86h-47q-62 0 -92.5 -23.5t-30.5 -74.5q0 -17 5 -35t11 -41l188 -655q26 -93 49 -182.5t40 -163.5q15 80 35.5 174.5t47.5 193.5l244 879h148zM807 1606q24 29 53 67t57.5 78.5t53.5 81t41 74.5h194
q16 -34 41 -74.5t53.5 -81t57.5 -78.5t53 -67v-27h-80q-59 34 -118 84.5t-105 99.5q-47 -49 -105 -99.5t-116 -84.5h-80v27z" />
    <glyph glyph-name="wcircumflex" unicode="&#x175;" horiz-adv-x="1765" 
d="M975 1092l205 -607q12 -37 25.5 -79.5t25.5 -84t22 -78.5t15 -63h6q9 51 29 125.5t51 173.5l102 330q8 26 13.5 55.5t5.5 46.5q0 53 -33.5 77t-102.5 24h-14v86h438v-86h-26q-30 0 -52 -6t-39.5 -23.5t-32.5 -48.5t-30 -82l-264 -852h-164l-244 721l-37 135l-290 -856
h-162l-268 903q-12 32 -25 53t-30 33.5t-39 17.5t-52 5h-6v86h506v-86h-27q-61 0 -92 -18t-31 -68q0 -17 5.5 -41t11.5 -47l96 -344q10 -37 21 -81t20.5 -87.5t17.5 -81.5t13 -64h6q5 26 13.5 60.5t20 74t24.5 80.5t26 78l213 619h129zM608 1268q24 29 53 67t57.5 78.5
t53.5 81t41 74.5h194q16 -34 41 -74.5t53.5 -81t57.5 -78.5t53 -67v-27h-80q-59 34 -118 84.5t-105 99.5q-47 -49 -105 -99.5t-116 -84.5h-80v27z" />
    <glyph glyph-name="Ycircumflex" unicode="&#x176;" horiz-adv-x="1280" 
d="M326 0v86h47q34 0 64.5 4.5t53.5 18.5t36.5 41.5t13.5 72.5v387l-379 658q-17 29 -32 49.5t-31.5 33.5t-36.5 19t-46 6h-26v86h563v-86h-76q-28 0 -45.5 -5t-27.5 -14t-13.5 -21t-3.5 -25q0 -29 12.5 -58t24.5 -51l151 -274q36 -63 61 -124.5t42 -109.5q9 22 22.5 49
t30 57.5t34.5 63t36 64.5l131 235q20 35 28.5 66.5t8.5 56.5q0 45 -32 67.5t-91 22.5h-60v86h500v-86h-24q-22 0 -41.5 -7.5t-39.5 -26t-41.5 -49t-47.5 -76.5l-344 -607v-377q0 -48 13 -77t36 -44.5t53.5 -20.5t64.5 -5h48v-86h-637zM342 1606q24 29 53 67t57.5 78.5
t53.5 81t41 74.5h194q16 -34 41 -74.5t53.5 -81t57.5 -78.5t53 -67v-27h-80q-59 34 -118 84.5t-105 99.5q-47 -49 -105 -99.5t-116 -84.5h-80v27z" />
    <glyph glyph-name="ycircumflex" unicode="&#x177;" horiz-adv-x="1157" 
d="M1157 1098v-86h-6q-30 0 -51.5 -6.5t-39 -24.5t-32.5 -49t-33 -80l-311 -860q-36 -99 -68 -174t-67 -128.5t-76.5 -88.5t-94.5 -56t-122 -29t-160 -8h-18v97q104 0 179 31t129.5 85t91 127.5t61.5 159.5l-379 895q-14 32 -27 52.5t-29.5 33.5t-38 18t-51.5 5h-6v86h492
v-86h-6q-62 0 -92.5 -24t-30.5 -75q0 -17 3.5 -34.5t12.5 -40.5l150 -365q14 -35 29.5 -76.5t29 -82t24.5 -76.5t15 -62h6q11 45 30.5 109.5t45.5 138.5l137 399q9 25 13.5 48t4.5 40q0 53 -33.5 77t-101.5 24h-6v86h426zM303 1268q24 29 53 67t57.5 78.5t53.5 81t41 74.5
h194q16 -34 41 -74.5t53.5 -81t57.5 -78.5t53 -67v-27h-80q-59 34 -118 84.5t-105 99.5q-47 -49 -105 -99.5t-116 -84.5h-80v27z" />
    <glyph glyph-name="Ydieresis" unicode="&#x178;" horiz-adv-x="1280" 
d="M326 0v86h47q34 0 64.5 4.5t53.5 18.5t36.5 41.5t13.5 72.5v387l-379 658q-17 29 -32 49.5t-31.5 33.5t-36.5 19t-46 6h-26v86h563v-86h-76q-28 0 -45.5 -5t-27.5 -14t-13.5 -21t-3.5 -25q0 -29 12.5 -58t24.5 -51l151 -274q36 -63 61 -124.5t42 -109.5q9 22 22.5 49
t30 57.5t34.5 63t36 64.5l131 235q20 35 28.5 66.5t8.5 56.5q0 45 -32 67.5t-91 22.5h-60v86h500v-86h-24q-22 0 -41.5 -7.5t-39.5 -26t-41.5 -49t-47.5 -76.5l-344 -607v-377q0 -48 13 -77t36 -44.5t53.5 -20.5t64.5 -5h48v-86h-637zM359 1747q0 32 8 54t22 35.5t33 19.5
t41 6t41 -6t33.5 -19.5t22.5 -35.5t8 -54q0 -31 -8 -53t-22.5 -36t-33.5 -20t-41 -6q-45 0 -74.5 26t-29.5 89zM748 1747q0 32 8 54t22 35.5t33 19.5t41 6t41 -6t33.5 -19.5t22.5 -35.5t8 -54q0 -31 -8 -53t-22.5 -36t-33.5 -20t-41 -6q-45 0 -74.5 26t-29.5 89z" />
    <glyph glyph-name="Zacute" unicode="&#x179;" horiz-adv-x="1212" 
d="M1094 1378l-770 -1276h516q46 0 77 13.5t50 36.5t29 53.5t14 64.5l10 88h106l-10 -358h-1042v82l768 1278h-445q-45 0 -75.5 -13.5t-49.5 -36.5t-29 -53.5t-14 -64.5l-10 -88h-106l10 358h971v-84zM495 1606q23 29 47.5 67t48 78.5t45 81t37.5 74.5h219v-21
q-19 -27 -56 -67.5t-82 -84.5t-92.5 -85.5t-88.5 -69.5h-78v27z" />
    <glyph glyph-name="zacute" unicode="&#x17a;" horiz-adv-x="1047" 
d="M696 117q36 0 59.5 14t39 37t25 53.5t16.5 63.5l10 47h86l-10 -332h-836v82l594 899h-320q-40 0 -66 -10.5t-42.5 -31.5t-27 -52t-21.5 -72l-2 -8h-86l20 291h785v-84l-596 -897h372zM428 1268q23 29 47.5 67t48 78.5t45 81t37.5 74.5h219v-21q-19 -27 -56 -67.5
t-82 -84.5t-92.5 -85.5t-88.5 -69.5h-78v27z" />
    <glyph glyph-name="Zdotaccent" unicode="&#x17b;" horiz-adv-x="1212" 
d="M1094 1378l-770 -1276h516q46 0 77 13.5t50 36.5t29 53.5t14 64.5l10 88h106l-10 -358h-1042v82l768 1278h-445q-45 0 -75.5 -13.5t-49.5 -36.5t-29 -53.5t-14 -64.5l-10 -88h-106l10 358h971v-84zM520 1737q0 36 9 60t25 39t37 21t46 6q24 0 45 -6t37 -21t25.5 -39
t9.5 -60t-9.5 -60t-25.5 -39t-37 -21.5t-45 -6.5q-25 0 -46 6.5t-37 21.5t-25 39t-9 60z" />
    <glyph glyph-name="zdotaccent" unicode="&#x17c;" horiz-adv-x="1047" 
d="M696 117q36 0 59.5 14t39 37t25 53.5t16.5 63.5l10 47h86l-10 -332h-836v82l594 899h-320q-40 0 -66 -10.5t-42.5 -31.5t-27 -52t-21.5 -72l-2 -8h-86l20 291h785v-84l-596 -897h372zM428 1399q0 36 9 60t25 39t37 21t46 6q24 0 45 -6t37 -21t25.5 -39t9.5 -60t-9.5 -60
t-25.5 -39t-37 -21.5t-45 -6.5q-25 0 -46 6.5t-37 21.5t-25 39t-9 60z" />
    <glyph glyph-name="Zcaron" unicode="&#x17d;" horiz-adv-x="1212" 
d="M1094 1378l-770 -1276h516q46 0 77 13.5t50 36.5t29 53.5t14 64.5l10 88h106l-10 -358h-1042v82l768 1278h-445q-45 0 -75.5 -13.5t-49.5 -36.5t-29 -53.5t-14 -64.5l-10 -88h-106l10 358h971v-84zM320 1907h80q29 -18 58.5 -40t58 -46.5t55 -50t49.5 -50.5
q23 25 49.5 50.5t55.5 50t59 46.5t59 40h80v-27q-24 -29 -53 -67t-57.5 -78.5t-53.5 -80.5t-41 -75h-194q-16 35 -41 75t-53.5 80.5t-57.5 78.5t-53 67v27z" />
    <glyph glyph-name="zcaron" unicode="&#x17e;" horiz-adv-x="1047" 
d="M696 117q36 0 59.5 14t39 37t25 53.5t16.5 63.5l10 47h86l-10 -332h-836v82l594 899h-320q-40 0 -66 -10.5t-42.5 -31.5t-27 -52t-21.5 -72l-2 -8h-86l20 291h785v-84l-596 -897h372zM247 1569h80q29 -18 58.5 -40t58 -46.5t55 -50t49.5 -50.5q23 25 49.5 50.5t55.5 50
t59 46.5t59 40h80v-27q-24 -29 -53 -67t-57.5 -78.5t-53.5 -80.5t-41 -75h-194q-16 35 -41 75t-53.5 80.5t-57.5 78.5t-53 67v27z" />
    <glyph glyph-name="longs" unicode="&#x17f;" horiz-adv-x="727" 
d="M27 0v86h26q35 0 65.5 5t53 20.5t36 44.5t13.5 77v967q0 92 25 162t72.5 118t114.5 72.5t151 24.5q80 0 134.5 -10.5t88.5 -29.5t48.5 -45t14.5 -58q0 -56 -46.5 -85.5t-121.5 -29.5q0 31 -6.5 60.5t-22 52.5t-41.5 37t-65 14q-87 0 -120 -67.5t-33 -196.5v-986
q0 -48 13 -77t36 -44.5t53.5 -20.5t65.5 -5h77v-86h-632z" />
    <glyph glyph-name="uni0180" unicode="&#x180;" horiz-adv-x="1257" 
d="M1041 117.5q-104 -137.5 -314 -137.5q-108 0 -186 45.5t-127 134.5h-13l-36 -160h-328v86h16q97 0 132.5 37t35.5 110v981h-186v97h186v20q0 68 -35.5 103.5t-132.5 35.5h-16v86h377v-245h350v-97h-350v-75q0 -69 -2.5 -129.5t-5.5 -137.5h8q54 109 130.5 157t182.5 48
q211 0 314.5 -137t103.5 -410q0 -275 -104 -412.5zM478.5 852.5q-64.5 -93.5 -64.5 -322.5q0 -225 66 -322t214 -97q135 0 193.5 107.5t58.5 313.5q0 208 -59 311t-195 103q-149 0 -213.5 -93.5z" />
    <glyph glyph-name="uni0181" unicode="&#x181;" horiz-adv-x="1497" 
d="M784 1462q264 0 395.5 -87.5t131.5 -278.5q0 -116 -60.5 -197t-193.5 -125v-8q151 -26 233 -123t82 -248q0 -198 -130.5 -296.5t-395.5 -98.5h-610v86h26q97 0 132.5 37t35.5 110v1008q0 69 -29 104t-108 35q-57 0 -87 -36t-30 -101q0 -34 8 -58t25 -48
q-14 -14 -32.5 -22.5t-43.5 -8.5q-56 0 -84.5 36t-28.5 89q0 119 72.5 175t239.5 56h452zM637 817h141q171 0 242.5 60.5t71.5 218.5q0 147 -69 205.5t-249 58.5h-137v-543zM637 102h199q173 0 245 67t72 232q0 171 -72 242.5t-241 71.5h-203v-613z" />
    <glyph glyph-name="uni0182" unicode="&#x182;" horiz-adv-x="1237" 
d="M1065 1462l10 -358h-106l-11 88q-4 34 -13.5 64.5t-29 53.5t-50.5 36.5t-77 13.5h-309v-551h129q149 0 253 -29.5t170 -83t96 -127.5t30 -163q0 -90 -30.5 -164.5t-92.5 -128.5t-157 -83.5t-224 -29.5h-575v86h26q34 0 64.5 4.5t53.5 19.5t36.5 42.5t13.5 72.5v1004
q0 48 -13 77t-36 44.5t-53.5 20.5t-65.5 5h-26v86h987zM479 98h139q87 0 147.5 18.5t98.5 55t55 92.5t17 131q0 86 -19.5 146.5t-61.5 98.5t-108 55.5t-159 17.5h-109v-615z" />
    <glyph glyph-name="uni0183" unicode="&#x183;" horiz-adv-x="1257" 
d="M1041.5 123q-103.5 -143 -314.5 -143q-108 0 -186 45.5t-127 134.5h-13l-36 -160h-328v86h16q97 0 132.5 37t35.5 110v1098q0 68 -35.5 103.5t-132.5 35.5h-16v86h1003v-307h-100l-10 68q-16 95 -42 120t-102 25h-372v-282q0 -69 -2.5 -129.5t-5.5 -137.5h8
q54 109 130.5 157t182.5 48q210 0 314 -142t104 -425q0 -285 -103.5 -428zM478 889q-64 -98 -64 -338q0 -237 66 -338.5t214 -101.5q128 0 190 106.5t62 335.5q0 218 -59 326t-195 108q-150 0 -214 -98z" />
    <glyph glyph-name="uni0184" unicode="&#x184;" horiz-adv-x="1190" 
d="M340 86q-115 106 -115 299v844q0 75 -36 111t-132 36h-26v86h637v-86h-68q-97 0 -132.5 -34t-35.5 -103v-430h129q270 0 409.5 -107t139.5 -307q0 -193 -115 -304t-327 -111q-213 0 -328 106zM835.5 153.5q53.5 75.5 53.5 231.5q0 175 -82 251.5t-266 76.5h-109v-338
q0 -154 53 -225.5t177 -71.5q120 0 173.5 75.5z" />
    <glyph glyph-name="uni0185" unicode="&#x185;" horiz-adv-x="1237" 
d="M201 1331q0 68 -35.5 103.5t-132.5 35.5h-17v86h377v-376q0 -69 -2.5 -129.5t-5.5 -137.5h8q52 107 129.5 156t184.5 49q209 0 313 -140t104 -427t-114.5 -429t-347.5 -142q-231 0 -346 142t-115 425v784zM458 890q-65 -97 -65 -339q0 -253 64.5 -359t216.5 -106
q134 0 193 113.5t59 353.5q0 218 -59 326t-195 108q-149 0 -214 -97z" />
    <glyph glyph-name="uni0186" unicode="&#x186;" horiz-adv-x="1255" 
d="M206.5 49q-114.5 69 -114.5 182q0 76 46 114t126 38q0 -129 72 -212t199 -83q176 0 276 169.5t100 479.5q0 320 -84.5 478.5t-269.5 158.5q-123 0 -199.5 -81t-76.5 -199q-76 0 -122 33t-46 96q0 113 120 186.5t328 73.5q279 0 428.5 -193.5t149.5 -546.5t-161.5 -558
t-447.5 -205q-209 0 -323.5 69z" />
    <glyph glyph-name="uni0187" unicode="&#x187;" horiz-adv-x="1257" 
d="M947 1467q74 -16 126 -44v31q0 138 55.5 220.5t157.5 82.5q72 0 114 -28.5t42 -83.5q0 -25 -8.5 -43.5t-22.5 -32.5q-25 17 -48.5 25t-57.5 8q-60 0 -88.5 -37t-28.5 -111v-201q0 -63 -50.5 -103t-127.5 -40q0 119 -63.5 191.5t-176.5 72.5q-217 0 -321.5 -155
t-104.5 -486q0 -303 109.5 -460.5t316.5 -157.5q124 0 214 42t157 132q17 -11 28 -30t11 -50q0 -91 -120.5 -160t-320.5 -69q-294 0 -458 201t-164 552q0 348 174 549t483 201q99 0 173 -16z" />
    <glyph glyph-name="uni0188" unicode="&#x188;" horiz-adv-x="1008" 
d="M233.5 123.5q-120.5 143.5 -120.5 419.5q0 289 114 432t342 143q65 0 130.5 -13.5t117.5 -41.5v190q0 145 52.5 224t160.5 79q72 0 114 -28t42 -84q0 -25 -8.5 -43.5t-22.5 -32.5q-25 17 -48.5 25t-57.5 8q-62 0 -92.5 -38t-30.5 -110v-344q0 -71 -46 -100t-137 -29
q0 118 -42.5 177t-131.5 59q-138 0 -198 -114.5t-60 -356.5q0 -220 73 -326t237 -106q95 0 166 40t106 103q15 -12 25 -32t10 -48q0 -79 -95.5 -137.5t-252.5 -58.5q-226 0 -346.5 143.5z" />
    <glyph glyph-name="uni0189" unicode="&#x189;" horiz-adv-x="1489" 
d="M78 815h194v422q0 45 -13.5 72.5t-36.5 42.5t-53.5 19.5t-64.5 4.5h-26v86h627q158 0 282 -48.5t209.5 -141.5t130.5 -229t45 -310q0 -168 -42 -303.5t-125 -231t-208.5 -147t-291.5 -51.5h-627v86h26q35 0 65.5 5t53.5 20.5t36 44.5t13 77v482h-194v100zM657 104
q122 0 213.5 41.5t152.5 121.5t91.5 197t30.5 269t-30.5 269t-91 196.5t-152 120.5t-212.5 41h-180v-545h348v-100h-348v-611h178z" />
    <glyph glyph-name="uni018A" unicode="&#x18a;" horiz-adv-x="1647" 
d="M206 1344q-30 -36 -30 -101q0 -34 8 -58t25 -48q-14 -14 -32.5 -22.5t-43.5 -8.5q-56 0 -84.5 36t-28.5 89q0 119 72.5 175t239.5 56h530q317 0 492.5 -191t175.5 -538q0 -348 -173.5 -540.5t-494.5 -192.5h-626v86h26q97 0 132.5 37t35.5 110v1008q0 69 -29 104t-108 35
q-57 0 -87 -36zM815 104q239 0 363.5 160t124.5 469q0 308 -123.5 467.5t-362.5 159.5h-180v-1256h178z" />
    <glyph glyph-name="uni018B" unicode="&#x18b;" horiz-adv-x="1237" 
d="M1159 1462v-86h-26q-96 0 -132 -36t-36 -111v-1004q0 -68 35.5 -103.5t132.5 -35.5h26v-86h-575q-245 0 -374.5 108t-129.5 298q0 198 139 300.5t410 102.5h129v551h-309q-74 0 -116.5 -38.5t-53.5 -129.5l-11 -88h-106l10 358h987zM758 713h-109q-187 0 -267.5 -73
t-80.5 -245q0 -160 77.5 -228.5t239.5 -68.5h140v615z" />
    <glyph glyph-name="uni018C" unicode="&#x18c;" horiz-adv-x="1257" 
d="M471 1462q-73 0 -101 -25t-42 -120l-11 -68h-100v307h819v-1331q0 -68 35.5 -103.5t132.5 -35.5h17v-86h-347l-22 184h-8q-51 -105 -128.5 -154.5t-185.5 -49.5q-209 0 -313 140t-104 427q0 288 103.5 429.5t313.5 141.5q106 0 183.5 -44t130.5 -136h12q0 20 -6 108
t-6 117v299h-373zM779 208q65 97 65 339q0 240 -67.5 340t-213.5 100q-128 0 -190 -107.5t-62 -334.5q0 -228 61.5 -331t192.5 -103q149 0 214 97z" />
    <glyph glyph-name="uni018D" unicode="&#x18d;" horiz-adv-x="1182" 
d="M680.5 376q-50.5 58 -190.5 146t-217 163t-118.5 164.5t-41.5 199.5q0 245 129 381.5t354 136.5q213 0 344 -124t131 -335q0 -185 -104 -309.5t-310 -186.5q127 -81 183.5 -164t56.5 -180q0 -134 -101 -211t-270 -77q-153 0 -246.5 65t-93.5 148q0 65 40.5 97t111.5 32
q0 -110 58.5 -179t148.5 -69q98 0 142 45.5t44 118.5q0 80 -50.5 138zM375.5 857q74.5 -111 210.5 -195q140 41 216.5 164.5t76.5 312.5q0 144 -77 232.5t-206 88.5q-142 0 -218.5 -95.5t-76.5 -274.5q0 -122 74.5 -233z" />
    <glyph glyph-name="uni018E" unicode="&#x18e;" horiz-adv-x="1276" 
d="M797 715h-494v100h494v545h-344q-79 0 -125 -42.5t-56 -125.5l-10 -88h-106l10 358h1032v-86h-27q-95 0 -131 -35.5t-36 -111.5v-1006q0 -69 35.5 -103t131.5 -34h27v-86h-1098l-14 358h107l14 -88q12 -81 61.5 -124.5t132.5 -43.5h396v613z" />
    <glyph glyph-name="uni018F" unicode="&#x18f;" horiz-adv-x="1413" 
d="M225 1210q-16 28 -16 62q0 91 134 152t300 61q315 0 484 -198t169 -558q0 -347 -168.5 -548t-457.5 -201q-559 0 -559 761v60h958q-26 547 -438 547q-205 0 -406 -138zM1069 684h-741q9 -594 348 -594q353 0 393 594z" />
    <glyph glyph-name="uni0190" unicode="&#x190;" horiz-adv-x="1214" 
d="M1071 287q39 -26 39 -80q0 -87 -127 -158.5t-338 -71.5q-530 0 -530 416q0 315 370 371v10q-329 75 -329 342q0 172 131.5 269.5t355.5 97.5q216 0 335.5 -75.5t119.5 -199.5q0 -133 -176 -133q0 305 -279 305q-272 0 -272 -254q0 -141 91.5 -229t229.5 -88h174v-104
h-174q-165 0 -257.5 -75.5t-92.5 -209.5q0 -307 305 -307q292 0 424 174z" />
    <glyph glyph-name="uni0191" unicode="&#x191;" horiz-adv-x="1208" 
d="M479 -16q0 -239 -116 -357.5t-351 -118.5h-35v97h19q149 0 212.5 92t63.5 285v1255q0 68 -35.5 103.5t-132.5 35.5h-26v86h1032l10 -358h-106l-10 88q-10 84 -59 126t-130 42h-336v-592h494v-100h-494v-684z" />
    <glyph glyph-name="florin" unicode="&#x192;" horiz-adv-x="1145" 
d="M911 815h-268l-162 -831q-27 -138 -68.5 -229.5t-97.5 -146t-125.5 -77.5t-152.5 -23q-14 0 -30.5 1t-33 3.5t-31 5t-24.5 5.5l19 96q7 -2 18 -4t24 -4.5t26.5 -4t25.5 -1.5q50 0 89 20t70 65t55 117t44 175l162 833h-207l18 96h207l39 205q17 88 48 156t79 115t113 71.5
t149 24.5q131 0 197.5 -42t66.5 -110t-44 -100.5t-126 -32.5q0 39 -4 74t-15.5 61t-32 41t-52.5 15q-76 0 -117 -62.5t-65 -191.5l-43 -224h268z" />
    <glyph glyph-name="uni0193" unicode="&#x193;" horiz-adv-x="1462" 
d="M300 177q-183 197 -183 556q0 350 190.5 550t526.5 200q112 0 196 -17.5t141 -48.5v37q0 138 55.5 220.5t157.5 82.5q73 0 114.5 -28.5t41.5 -83.5q0 -25 -8.5 -43.5t-22.5 -32.5q-24 17 -48 25t-58 8q-60 0 -88.5 -37t-28.5 -111v-201q0 -62 -53.5 -102.5t-136.5 -40.5
q0 119 -71.5 191.5t-199.5 72.5q-244 0 -362.5 -154.5t-118.5 -486.5q0 -334 125 -485.5t385 -151.5q59 0 114.5 6t98.5 19v330q0 71 -37.5 105t-130.5 34h-8v86h532v-86h-8q-82 0 -111.5 -37t-29.5 -111v-368q-103 -48 -212 -71t-241 -23q-338 0 -521 197z" />
    <glyph glyph-name="uni0194" unicode="&#x194;" horiz-adv-x="1382" 
d="M782 356q81 -190 115.5 -314t34.5 -222q0 -147 -70.5 -229.5t-195.5 -82.5q-110 0 -169 65t-59 206q0 102 45 234.5t125 281.5l-436 973q-31 68 -61 88t-84 20h-27v86h563v-86h-47q-62 0 -92.5 -23.5t-30.5 -74.5q0 -18 3 -36t14 -40l315 -715l322 701q11 23 14.5 47
t3.5 41q0 53 -33 76.5t-102 23.5h-47v86h499v-86h-39q-69 0 -96 -45t-59 -114zM730.5 -49.5q-17.5 85.5 -64.5 209.5q-53 -108 -81 -207.5t-28 -177.5q0 -73 22 -114.5t60 -41.5q51 0 80 40.5t29 125.5q0 80 -17.5 165.5z" />
    <glyph glyph-name="uni0195" unicode="&#x195;" horiz-adv-x="1866" 
d="M846 707q0 148 -50 214t-155 66q-111 0 -169 -86t-58 -246v-432q0 -70 34.5 -103.5t131.5 -33.5h8v-86h-551v86h16q97 0 132.5 37t35.5 110v1098q0 68 -35.5 103.5t-132.5 35.5h-16v86h377v-450q0 -53 -3 -99t-5 -75h10q86 186 282 186q165 0 252.5 -95.5t87.5 -305.5
v-365q0 -149 53.5 -209.5t163.5 -60.5q116 0 167 68t51 239v475q0 75 -35 111.5t-131 36.5h-9v86h367v-723q0 -201 -101 -298t-309 -97q-213 0 -311 92.5t-98 285.5v349z" />
    <glyph glyph-name="uni0196" unicode="&#x196;" horiz-adv-x="752" 
d="M272 1229q0 75 -36 111t-132 36h-26v86h596v-86h-27q-97 0 -132.5 -37t-35.5 -110v-963q0 -172 127 -172q19 0 35 3t33 9v-96q-21 -12 -57 -21t-70 -9q-145 0 -210 69.5t-65 222.5v957z" />
    <glyph glyph-name="uni0197" unicode="&#x197;" horiz-adv-x="752" 
d="M78 0v86h26q96 0 132 36t36 111v482h-231v100h231v414q0 75 -36 111t-132 36h-26v86h596v-86h-27q-97 0 -132.5 -37t-35.5 -110v-414h232v-100h-232v-482q0 -73 35.5 -110t132.5 -37h27v-86h-596z" />
    <glyph glyph-name="uni0198" unicode="&#x198;" horiz-adv-x="1434" 
d="M780 879l449 -629q59 -81 113.5 -122.5t111.5 -41.5h4v-86h-22q-139 0 -207.5 14t-114.5 47t-108 123l-369 533l-158 -137v-347q0 -73 35.5 -110t132.5 -37h27v-86h-596v86h26q97 0 132.5 34t35.5 103v1014q0 68 -35.5 103.5t-132.5 35.5h-26v86h596v-86h-27
q-97 0 -132.5 -37t-35.5 -110v-547l434 524q113 138 191 204.5t176 66.5q63 0 100 -39.5t37 -102.5q0 -56 -29 -93.5t-65 -37.5q-9 45 -33 76t-71 31q-36 0 -66 -22t-66 -62z" />
    <glyph glyph-name="uni0199" unicode="&#x199;" horiz-adv-x="1198" 
d="M414 766q0 -60 -2.5 -125.5t-5.5 -132.5l256 280q50 56 81 101t31 82q0 26 -24 33.5t-76 7.5v86h452v-86q-71 0 -139.5 -50t-148.5 -141l-144 -162l273 -405q53 -82 104.5 -125t120.5 -43h8v-86h-29q-138 0 -194 13t-100 49.5t-107 136.5l-205 321l-151 -112v-185
q0 -70 34.5 -103.5t131.5 -33.5h8v-86h-551v86h16q97 0 132.5 37t35.5 110v924q0 209 84.5 309.5t257.5 100.5q110 0 175 -45.5t65 -116.5q0 -51 -38 -84t-120 -33q0 87 -27.5 136t-78.5 49q-70 0 -97.5 -47.5t-27.5 -186.5v-473z" />
    <glyph glyph-name="uni019A" unicode="&#x19a;" horiz-adv-x="635" 
d="M53 86q97 0 132.5 37t35.5 110v515h-201v96h201v487q0 68 -35.5 103.5t-132.5 35.5h-26v86h387v-712h200v-96h-200v-515q0 -75 36 -111t132 -36h26v-86h-581v86h26z" />
    <glyph glyph-name="uni019B" unicode="&#x19b;" horiz-adv-x="1096" 
d="M813 1409l-207 -117q8 -23 15.5 -44.5t13.5 -47.5l182 -717q48 -189 119 -293t143 -104h11v-86h-48q-131 0 -184.5 48.5t-96 168.5t-93.5 347t-54 284h-8q-11 -55 -47.5 -153t-71.5 -167l-260 -528h-211l543 1053q-14 55 -26.5 101t-26.5 83l-252 -143v114l213 123
q-37 65 -79.5 88t-90.5 23q-57 0 -100 -25.5t-68 -56.5q-17 12 -26 34t-9 50q0 58 54 95.5t151 37.5q90 0 157.5 -42.5t116.5 -145.5l240 137v-117z" />
    <glyph glyph-name="uni019C" unicode="&#x19c;" horiz-adv-x="2159" 
d="M1722 0l-30 203h-9q-59 -115 -145.5 -169t-208.5 -54q-121 0 -206.5 55t-135.5 170q-59 -116 -150 -170.5t-219 -54.5q-191 0 -292 108t-101 313v836q0 68 -35.5 103.5t-132.5 35.5h-26v86h596v-86h-27q-97 0 -132.5 -37t-35.5 -110v-842q0 -136 53.5 -200t161.5 -64
q154 0 229.5 82.5t75.5 265.5v766q0 68 -35.5 103.5t-132.5 35.5h-26v86h596v-86h-27q-97 0 -132.5 -37t-35.5 -110v-817q0 -142 59 -215.5t154 -73.5q143 0 225 109.5t82 277.5v719q0 75 -36 111t-132 36h-26v86h596v-86h-27q-97 0 -132.5 -37t-35.5 -110v-996
q0 -73 35.5 -110t132.5 -37h27v-86h-359z" />
    <glyph glyph-name="uni019D" unicode="&#x19d;" horiz-adv-x="1563" 
d="M272 1237q0 68 -35.5 103.5t-132.5 35.5h-26v86h375l733 -1132v907q0 68 -35.5 103.5t-132.5 35.5h-27v86h514v-86h-26q-96 0 -132 -36t-36 -111v-1229h-146l-768 1180v-1196q0 -252 -69.5 -364t-241.5 -112h-47v97h29q110 0 157 91t47 286v1255z" />
    <glyph glyph-name="uni019E" unicode="&#x19e;" horiz-adv-x="1321" 
d="M907 707q0 144 -54 212t-171 68q-121 0 -184.5 -86.5t-63.5 -245.5v-432q0 -68 35 -102.5t131 -34.5h8v-86h-551v86h17q97 0 132.5 37t35.5 110v639q0 69 -36.5 104.5t-129.5 35.5h-8v86h331l27 -166h10q50 93 122.5 139.5t197.5 46.5q169 0 256.5 -100t87.5 -301v-975
q0 -74 31 -111t124 -37h9v-86h-521v86h9q93 0 124 37t31 111v965z" />
    <glyph glyph-name="uni019F" unicode="&#x19f;" horiz-adv-x="1520" 
d="M760 -20q-311 0 -478 199.5t-167 555.5q0 357 167.5 553.5t479.5 196.5q299 0 470 -200.5t171 -551.5q0 -350 -171.5 -551.5t-471.5 -201.5zM342 815h834q-25 559 -414 559q-399 0 -420 -559zM1178 713h-838q7 -623 420 -623q408 0 418 623z" />
    <glyph glyph-name="Ohorn" unicode="&#x1a0;" horiz-adv-x="1593" 
d="M1290 1204q129 35 129 129q0 27 -44 60t-44 82q0 102 117 102q125 0 125 -129q0 -221 -248 -311q78 -175 78 -404q0 -350 -171.5 -551.5t-471.5 -201.5q-311 0 -478 199.5t-167 555.5q0 357 167.5 553.5t479.5 196.5q356 0 528 -281zM760 90q416 0 416 643
q0 641 -414 641q-420 0 -420 -641q0 -643 418 -643z" />
    <glyph glyph-name="ohorn" unicode="&#x1a1;" horiz-adv-x="1243" 
d="M987 913q127 35 127 129q0 27 -44 60t-44 82q0 102 117 102q125 0 125 -129q0 -216 -248 -309q49 -122 49 -297q0 -571 -481 -571q-475 0 -475 571q0 567 481 567q275 0 393 -205zM592 86q144 0 211 109t67 356q0 240 -66.5 349.5t-213.5 109.5t-213 -109.5t-66 -349.5
q0 -465 281 -465z" />
    <glyph glyph-name="uni01A2" unicode="&#x1a2;" horiz-adv-x="2257" 
d="M1260 1233q56 121 146 185.5t212 64.5q199 0 303 -107t104 -315v-1327q0 -70 37 -105t131 -35h27v-86h-596v86h27q97 0 132.5 37.5t35.5 110.5v1333q0 136 -56.5 200t-181.5 64q-129 0 -191.5 -80t-64.5 -251l-2 -375q-3 -332 -150 -492.5t-450 -160.5q-286 0 -447 200.5
t-161 554.5q0 356 167.5 553t479.5 197q327 0 489 -252h9zM438 250q96 -160 285 -160q222 0 306.5 137t84.5 416v299q0 209 -97 320.5t-255 111.5q-211 0 -315.5 -154t-104.5 -487q0 -323 96 -483z" />
    <glyph glyph-name="uni01A3" unicode="&#x1a3;" horiz-adv-x="1739" 
d="M973 897q48 122 117 171.5t176 49.5q128 0 200 -88t72 -256v-1032q0 -75 31.5 -111.5t124.5 -36.5h8v-86h-356v1250q0 119 -36.5 174t-113.5 55q-84 0 -124 -74t-40 -231v-131q0 -289 -115 -430t-344 -141q-223 0 -341.5 146t-118.5 425q0 287 117 427t348 140
q136 0 232.5 -54t152.5 -167h10zM375.5 195.5q64.5 -109.5 199.5 -109.5q137 0 201 109.5t64 355.5q0 239 -63.5 349t-201.5 110q-137 0 -200.5 -108t-63.5 -351q0 -246 64.5 -355.5z" />
    <glyph glyph-name="uni01A4" unicode="&#x1a4;" horiz-adv-x="1395" 
d="M811 1462q248 0 376 -110t128 -318q0 -215 -141.5 -340t-407.5 -125h-129v-346q0 -69 35.5 -103t132.5 -34h67v-86h-636v86h26q97 0 132.5 37t35.5 110v1008q0 69 -29 104t-108 35q-57 0 -87 -36t-30 -101q0 -34 8 -58t25 -48q-14 -14 -32.5 -22.5t-43.5 -8.5
q-56 0 -84.5 36t-28.5 89q0 119 72.5 175t239.5 56h479zM637 666h108q189 0 269 83t80 277q0 180 -75.5 259t-242.5 79h-139v-698z" />
    <glyph glyph-name="uni01A5" unicode="&#x1a5;" horiz-adv-x="1257" 
d="M414 1098q0 -47 -2.5 -92.5t-5.5 -92.5h8q54 109 130.5 157t182.5 48q210 0 314 -142t104 -425q0 -285 -103.5 -428t-314.5 -143q-108 0 -186 45.5t-127 134.5h-8q0 -15 4 -110.5t4 -121.5v-196q0 -69 35.5 -103.5t132.5 -34.5h6v-86h-551v86h16q97 0 132.5 37.5
t35.5 110.5v1415q0 209 84.5 309.5t257.5 100.5q110 0 175 -45.5t65 -116.5q0 -51 -38 -84t-120 -33q0 87 -27.5 136t-78.5 49q-70 0 -97.5 -47t-27.5 -183v-145zM478 889q-64 -98 -64 -338q0 -237 66 -338.5t214 -101.5q128 0 190 106.5t62 335.5q0 218 -59 326t-195 108
q-150 0 -214 -98z" />
    <glyph glyph-name="uni01A6" unicode="&#x1a6;" horiz-adv-x="1343" 
d="M674 1376h-27q-97 0 -132.5 -34t-35.5 -103v-22h150q265 0 395.5 -99t130.5 -297q0 -136 -78.5 -230t-222.5 -142l281 -445q57 -91 106 -127.5t107 -36.5h8v-86h-29q-193 0 -262 33t-139 152l-277 460h-170v-176q0 -69 35.5 -103t132.5 -34h27v-86h-596v86h26
q97 0 132.5 34t35.5 103v1014q0 68 -35.5 103.5t-132.5 35.5h-26v86h596v-86zM479 496h144q166 0 239.5 72t73.5 247q0 166 -72 234.5t-246 68.5h-139v-622z" />
    <glyph glyph-name="uni01A7" unicode="&#x1a7;" horiz-adv-x="1114" 
d="M826 156q103 50 165 133q17 -11 28 -30t11 -50q0 -92 -123.5 -160.5t-322.5 -68.5q-239 0 -359.5 102.5t-120.5 308.5q0 145 91.5 244.5t278 174t258 143t71.5 194.5q0 104 -61.5 168.5t-176.5 64.5q-116 0 -178.5 -74t-62.5 -196q-75 0 -118.5 33.5t-43.5 99.5
q0 99 111.5 169.5t291.5 70.5q203 0 315.5 -100t112.5 -271q0 -163 -90 -268.5t-273.5 -180t-257 -142t-73.5 -183.5q0 -117 73.5 -174.5t219.5 -57.5q131 0 234 50z" />
    <glyph glyph-name="uni01A8" unicode="&#x1a8;" horiz-adv-x="924" 
d="M682 145q86 43 123 111q15 -12 25 -32t10 -48q0 -80 -98.5 -138t-266.5 -58q-194 0 -289.5 85t-95.5 236q0 132 76 204t192 118.5t204.5 94t88.5 140.5q0 79 -47 121.5t-137 42.5q-98 0 -142 -57t-44 -160q-72 0 -110 30.5t-38 86.5q0 86 91.5 140t258.5 54
q144 0 239 -78.5t95 -210.5q0 -123 -67 -193.5t-218 -135t-213.5 -108t-62.5 -126.5t63 -122.5t173 -39.5q104 0 190 43z" />
    <glyph glyph-name="uni01A9" unicode="&#x1a9;" horiz-adv-x="1239" 
d="M846 188q48 0 82 14.5t56.5 40.5t35.5 62t18 78l9 61h106l-10 -444h-1096v66l426 651l-381 686v59h961l10 -358h-107l-10 88q-4 34 -15 64t-32.5 52.5t-54 36t-78.5 13.5h-426l303 -545v-31l-389 -594h592z" />
    <glyph glyph-name="uni01AA" unicode="&#x1aa;" horiz-adv-x="614" 
d="M287.5 -417q-66.5 75 -66.5 243v1266q-51 -23 -119 -23q-107 0 -170 67.5t-63 180.5t74.5 181.5t197.5 68.5q129 0 201 -76t72 -209v-1462q0 -105 42 -154t113 -49q37 0 68 4t63 10v-90q-30 -14 -84.5 -23.5t-97.5 -9.5q-164 0 -230.5 75zM187.5 1415.5
q-33.5 34.5 -87.5 34.5q-58 0 -89 -38t-31 -95q0 -62 32.5 -96.5t87.5 -34.5q65 0 93 33.5t28 97.5t-33.5 98.5z" />
    <glyph glyph-name="uni01AB" unicode="&#x1ab;" horiz-adv-x="721" 
d="M611 92q31 4 63 10v-202q0 -152 -52.5 -227.5t-160.5 -75.5q-72 0 -114 28t-42 84q0 25 8.5 43.5t22.5 32.5q25 -17 48.5 -25t57.5 -8q61 0 92 37.5t31 110.5v86q-18 -3 -37 -4.5t-36 -1.5q-163 0 -230 73.5t-67 243.5v684h-156v82q86 0 152.5 58t101.5 229h94v-252h268
v-117h-268v-690q0 -105 42.5 -154t113.5 -49q37 0 68 4z" />
    <glyph glyph-name="uni01AC" unicode="&#x1ac;" horiz-adv-x="1286" 
d="M1235 1462l10 -358h-106l-11 88q-11 91 -53.5 129.5t-116.5 38.5h-198v-1127q0 -73 35.5 -110t132.5 -37h47v-86h-637v86h47q97 0 132.5 34t35.5 103v1137h-229q-67 0 -102.5 -37.5t-35.5 -99.5q0 -34 8 -58t25 -49q-14 -14 -32.5 -22.5t-43.5 -8.5q-52 0 -87.5 41
t-35.5 95q0 121 79 181t243 60h893z" />
    <glyph glyph-name="uni01AD" unicode="&#x1ad;" horiz-adv-x="721" 
d="M387 291q0 -105 42.5 -154t113.5 -49q37 0 68 4t63 10v-90q-28 -13 -80.5 -22.5t-101.5 -9.5q-163 0 -230 73.5t-67 243.5v684h-156v82q97 0 162 71t85.5 192t74 175.5t131.5 54.5q72 0 113.5 -28t41.5 -84q0 -25 -8.5 -43.5t-22.5 -32.5q-24 17 -48 25t-58 8
q-62 0 -92.5 -38t-30.5 -110v-155h268v-117h-268v-690z" />
    <glyph glyph-name="uni01AE" unicode="&#x1ae;" horiz-adv-x="1255" 
d="M729 -182q0 -103 40 -149t124 -46q25 0 45.5 3t42.5 9v-96q-22 -11 -66 -21t-79 -10q-166 0 -240 72.5t-74 241.5v1538h-196q-72 0 -114.5 -38.5t-53.5 -129.5l-11 -88h-106l10 358h1153l10 -358h-106l-10 88q-10 87 -51.5 127.5t-118.5 40.5h-199v-1542z" />
    <glyph glyph-name="Uhorn" unicode="&#x1af;" horiz-adv-x="1593" 
d="M1243 418q0 -208 -131 -323t-371 -115q-516 0 -516 462v795q0 139 -168 139h-26v86h596v-86h-27q-168 0 -168 -147v-799q0 -328 342 -328q164 0 254 84.5t90 235.5v815q0 139 -168 139h-26v86h319v-270q176 28 176 141q0 27 -44 60t-44 82q0 102 117 102q125 0 125 -129
q0 -276 -330 -336v-694z" />
    <glyph glyph-name="uhorn" unicode="&#x1b0;" horiz-adv-x="1384" 
d="M1079 901q176 30 176 141q0 27 -44 60t-44 82q0 102 117 102q125 0 125 -129q0 -276 -330 -336v-598q0 -137 168 -137h6v-86h-325l-27 166h-10q-97 -186 -332 -186q-338 0 -338 401v491q0 140 -168 140h-6v86h367v-707q0 -280 215 -280q258 0 258 331v422q0 148 -168 148
h-6v86h366v-197zM1300 0z" />
    <glyph glyph-name="uni01B1" unicode="&#x1b1;" horiz-adv-x="1542" 
d="M1248 133.5q-167 -153.5 -480 -153.5q-300 0 -470.5 156t-170.5 429q0 226 119 367t346 186l4 180h-195q-93 0 -136 -27.5t-58 -99.5l-14 -67h-107l14 358h609l-15 -428q-173 -19 -256.5 -132t-83.5 -339q0 -246 101.5 -359.5t312.5 -113.5q212 0 316 113.5t104 359.5
q0 222 -83 337t-257 134l-14 428h608l14 -358h-106l-15 67q-15 72 -58 99.5t-136 27.5h-195l4 -180q227 -45 346 -186t119 -367q0 -278 -167 -431.5z" />
    <glyph glyph-name="uni01B2" unicode="&#x1b2;" horiz-adv-x="1403" 
d="M1139 1260q-61 63 -199 63q0 74 44 118t110 44q112 0 177.5 -105.5t65.5 -296.5q0 -231 -110 -499.5t-280 -436t-341 -167.5q-198 0 -289.5 99.5t-91.5 297.5v860q0 68 -35.5 103.5t-132.5 35.5h-26v86h596v-86h-27q-97 0 -132.5 -37t-35.5 -110v-891q0 -121 48.5 -178.5
t137.5 -57.5q129 0 264 140t226.5 368.5t91.5 438.5q0 148 -61 211z" />
    <glyph glyph-name="uni01B3" unicode="&#x1b3;" horiz-adv-x="1311" 
d="M915 86h48v-86h-637v86h47q34 0 64.5 4.5t53.5 18.5t36.5 41.5t13.5 72.5v180q0 62 -17 134t-44 146t-61 147t-67.5 138t-63.5 117.5t-50 85.5q-23 39 -49.5 76t-56.5 66t-63.5 47t-70.5 18h-8v84h104q70 0 121 -12.5t93 -43t78.5 -83t78.5 -133.5q35 -69 67.5 -139.5
t60.5 -137t51 -127.5t40 -112q18 68 41 140t47.5 141t49 132t46.5 113q39 84 74.5 137.5t72 84.5t75.5 43t84 12q81 0 121 -39.5t40 -102.5q0 -29 -8 -53.5t-21.5 -41.5t-30 -26.5t-34.5 -9.5q-9 45 -33 76t-71 31q-26 0 -49.5 -10t-48 -38t-52 -77.5t-61.5 -128.5
q-15 -34 -33.5 -80.5t-38.5 -100t-39 -112t-34 -116t-24 -112t-9 -100.5v-203q0 -48 13 -77t36 -44.5t53 -20.5t65 -5z" />
    <glyph glyph-name="uni01B4" unicode="&#x1b4;" horiz-adv-x="1260" 
d="M838 774q63 189 130.5 266.5t159.5 77.5q65 0 103.5 -33.5t38.5 -87.5q0 -27 -9 -49t-26 -35q-19 34 -47 52t-62 18q-48 0 -77.5 -32.5t-51.5 -92.5l-34 -94l-279 -772q-80 -220 -137.5 -307t-149 -132t-301.5 -45h-18v97q168 0 281 90.5t180 312.5l-379 895
q-26 62 -54 85.5t-90 23.5h-8v86h492v-86h-8q-61 0 -91 -23.5t-30 -75.5q0 -17 3.5 -34.5t12.5 -40.5l150 -365q27 -68 55.5 -153.5t40.5 -143.5h8q11 45 30.5 109.5t45.5 138.5z" />
    <glyph glyph-name="uni01B5" unicode="&#x1b5;" horiz-adv-x="1212" 
d="M1094 1378l-340 -563h286v-100h-348l-368 -613h516q77 0 118.5 40.5t51.5 127.5l10 88h106l-10 -358h-1042v82l379 633h-287v100h348l328 545h-445q-75 0 -116.5 -40.5t-51.5 -127.5l-10 -88h-106l10 358h971v-84z" />
    <glyph glyph-name="uni01B6" unicode="&#x1b6;" horiz-adv-x="1047" 
d="M696 117q53 0 86 34.5t54 133.5l10 47h86l-10 -332h-836v82l285 432h-215v96h278l246 371h-320q-65 0 -98 -30.5t-59 -135.5l-2 -8h-86l20 291h785v-84l-269 -404h215v-96h-278l-264 -397h372z" />
    <glyph glyph-name="uni01B7" unicode="&#x1b7;" horiz-adv-x="1235" 
d="M371 805l456 491h-389q-96 0 -128 -22.5t-42 -104.5l-2 -18h-86l10 311h857v-84l-504 -540q567 -16 567 -420q0 -211 -148 -326t-401 -115q-225 0 -347 73t-122 181q0 152 172 152q0 -124 78.5 -208.5t216.5 -84.5q324 0 324 330q0 143 -95 222t-268 79h-149v84z" />
    <glyph glyph-name="uni01B8" unicode="&#x1b8;" horiz-adv-x="1235" 
d="M950 162.5q109 47.5 168 126.5q17 -11 28 -30t11 -50q0 -88 -133.5 -158.5t-337.5 -70.5q-258 0 -409.5 115t-151.5 323q0 198 145 306t422 114l-504 540v84h856l11 -311h-86l-2 18q-9 77 -38 102t-132 25h-389l456 -491v-84h-149q-170 0 -266.5 -76.5t-96.5 -212.5
q0 -157 83 -237t272 -80q134 0 243 47.5zM650 90z" />
    <glyph glyph-name="uni01B9" unicode="&#x1b9;" horiz-adv-x="1120" 
d="M843.5 -317q99.5 45 135.5 110q15 -12 25 -32t10 -48q0 -86 -113 -145.5t-295 -59.5q-209 0 -351 128t-142 344q0 224 127.5 347.5t367.5 137.5l-442 532v101h795l12 -322h-101l-4 29q-11 78 -39 103.5t-94 25.5h-370l403 -494v-84h-47q-204 0 -307 -87t-103 -269
t82 -272t244 -90q107 0 206.5 45z" />
    <glyph glyph-name="uni01BA" unicode="&#x1ba;" horiz-adv-x="1001" 
d="M642.5 -344.5q87.5 44.5 139.5 137.5q16 -12 25.5 -32t9.5 -48q0 -87 -106 -146t-287 -59q-169 0 -275 63.5t-106 182.5q0 127 90 180t260.5 66.5t233.5 80.5t63 177q0 105 -65 173.5t-174 68.5h-119v84l321 350h-331q-62 0 -91 -23t-43 -106l-4 -29h-100l12 322h754
v-101l-361 -389v-10q186 0 293 -103t107 -239q0 -108 -53.5 -182.5t-156.5 -116t-225 -52t-169 -42.5t-47 -107q0 -66 54.5 -105.5t147.5 -39.5q115 0 202.5 44.5z" />
    <glyph glyph-name="uni01BB" unicode="&#x1bb;" horiz-adv-x="1137" 
d="M886 1020q-25 -81 -75 -168h193v-96h-252q-32 -48 -70.5 -97t-81.5 -102l-336 -393h473q74 0 116.5 33.5t55.5 111.5l9 45h86l-11 -354h-891v150l330 405q45 54 81 104t65 97h-414v96h467q40 82 57 156.5t17 152.5q0 138 -53 212.5t-144 74.5q-106 0 -155.5 -70
t-49.5 -229q-91 0 -133.5 33.5t-42.5 99.5q0 126 101 200t280 74q191 0 297 -96.5t106 -277.5q0 -81 -25 -162z" />
    <glyph glyph-name="uni01BC" unicode="&#x1bc;" horiz-adv-x="1143" 
d="M549 909q227 0 355 -123t128 -346q0 -216 -136 -338t-390 -122q-197 0 -318.5 78.5t-121.5 209.5q0 65 43 106.5t110 41.5q8 -156 82.5 -241t220.5 -85q138 0 210.5 85t72.5 265q0 172 -73.5 263.5t-209.5 91.5h-268v434q0 76 -35 111.5t-129 35.5h-10v86h885l10 -358
h-107l-10 88q-11 91 -53.5 129.5t-116.5 38.5h-227v-451h88z" />
    <glyph glyph-name="uni01BD" unicode="&#x1bd;" horiz-adv-x="983" 
d="M74 1098h749l13 -275h-101l-4 31q-11 78 -38.5 102.5t-94.5 24.5h-199v-283h64q197 0 303 -89.5t106 -258.5q0 -174 -113.5 -272t-314.5 -98q-165 0 -271.5 66t-106.5 171q0 68 42 104.5t99 36.5q0 -270 242 -270q109 0 167 63t58 185t-58 188t-167 66h-242v301
q0 68 -32.5 94.5t-100.5 26.5v86z" />
    <glyph glyph-name="uni01BE" unicode="&#x1be;" horiz-adv-x="881" 
d="M252 981h-156v82q89 0 156 61t98 226h94v-252h269v-117h-269v-154q0 -108 10 -129.5t30 -40.5t91.5 -52t120.5 -77.5t72 -100.5t23 -126q0 -149 -101.5 -235t-273.5 -86q-175 0 -271 65.5t-96 179.5q0 59 34 94t95 35q0 -130 59.5 -198t176.5 -68q98 0 154.5 46t56.5 130
q0 74 -41.5 114t-144.5 88.5t-145 114t-42 216.5v184z" />
    <glyph glyph-name="uni01BF" unicode="&#x1bf;" horiz-adv-x="1257" 
d="M1052 331q-93 -160 -258.5 -255t-379.5 -107v-237q0 -69 34.5 -103.5t131.5 -34.5h28v-86h-571v86h16q97 0 132.5 37.5t35.5 110.5v1130q0 70 -37 105t-131 35h-26v86h358l21 -185h8q54 109 130.5 157t182.5 48q198 0 308 -120.5t110 -333.5q0 -173 -93 -333zM478 889
q-64 -98 -64 -338v-473q224 16 378 184t154 406q0 151 -66 235t-188 84q-150 0 -214 -98z" />
    <glyph glyph-name="uni01C0" unicode="&#x1c0;" horiz-adv-x="1128" 
d="M489 1556h150v-2048h-150v2048z" />
    <glyph glyph-name="uni01C1" unicode="&#x1c1;" horiz-adv-x="1128" 
d="M289 1556h149v-2048h-149v2048zM698 1556h152v-2048h-152v2048z" />
    <glyph glyph-name="uni01C2" unicode="&#x1c2;" horiz-adv-x="1128" 
d="M102 250v149h387v260h-387v150h387v747h150v-747h387v-150h-387v-260h387v-149h-387v-742h-150v742h-387z" />
    <glyph glyph-name="uni01C3" unicode="&#x1c3;" horiz-adv-x="682" 
d="M221 1462h238l-72 -1050h-94zM211 125q0 40 10 66.5t27.5 42.5t41 23t50.5 7q26 0 49.5 -7t41 -23t28 -42.5t10.5 -66.5q0 -39 -10.5 -66t-28 -43t-41 -23t-49.5 -7q-27 0 -50.5 7t-41 23t-27.5 43t-10 66z" />
    </font>
</defs>
</svg>
