<?xml version="1.0" standalone="no"?>
<!DOCTYPE svg PUBLIC "-//W3C//DTD SVG 1.1//EN" "http://www.w3.org/Graphics/SVG/1.1/DTD/svg11.dtd" >
<svg xmlns="http://www.w3.org/2000/svg" xmlns:xlink="http://www.w3.org/1999/xlink" version="1.1">
<metadata>
Created by FontForge 20200427 at Fri Jan 17 17:37:27 2020
 By www
Merrycle (c) 7NTypes. 2020. All Rights Reserved
</metadata>
<defs>
<font id="MerrycleCarved" horiz-adv-x="801" >
  <font-face 
    font-family="Merrycle Carved"
    font-weight="400"
    font-stretch="normal"
    units-per-em="2048"
    panose-1="2 0 5 0 0 0 0 0 0 0"
    ascent="1638"
    descent="-410"
    x-height="915"
    cap-height="1440"
    bbox="-1066 -817 3745 1848"
    underline-thickness="150"
    underline-position="-292"
    unicode-range="U+001D-E041"
    descenders = "gjpqyQ"
    invert="1"
    credit="Font Merrycle Carved made from oNline Web Fonts is licensed by CC BY 3.0"
  />
<missing-glyph horiz-adv-x="1024" 
 />
    <glyph glyph-name=".notdef" horiz-adv-x="1024" 
 />
    <glyph glyph-name=".null" horiz-adv-x="0" 
 />
    <glyph glyph-name=".null" horiz-adv-x="0" 
 />
    <glyph glyph-name="nonmarkingreturn" horiz-adv-x="508" 
 />
    <glyph glyph-name="space" unicode=" " horiz-adv-x="508" 
 />
    <glyph glyph-name="space" unicode="&#xa0;" horiz-adv-x="508" 
 />
    <glyph glyph-name="exclam" unicode="!" horiz-adv-x="380" 
d="M200 511l-26 842h39zM229 352l16 1033h-104l34 -1033h54zM283 296h-161l-39 1144h219zM202 0q-45 0 -77 32t-32 77q0 44 32 76t77 32q47 0 79 -32t32 -76q0 -45 -32 -77t-79 -32z" />
    <glyph glyph-name="quotedbl" unicode="&#x22;" horiz-adv-x="610" 
d="M191 1361l-5 -306l-10 306h15zM222 1385h-77l16 -489h54zM279 1440l-10 -600h-161l-20 600h191zM434 1361l-5 -306l-10 306h15zM465 1385h-77l16 -489h54zM522 1440l-10 -600h-161l-20 600h191z" />
    <glyph glyph-name="numbersign" unicode="#" horiz-adv-x="1236" 
d="M765 0h-196l73 385h-221l-80 -385h-196l73 385h-130v58h142l100 491h-242v58h255l98 448h199l-94 -448h220l98 448h199l-94 -448h179v-58h-191l-101 -491h292v-58h-304zM653 443l101 491h-221l-100 -491h220zM719 56l275 1329h-85l-273 -1329h83zM296 56l275 1329h-86
l-272 -1329h83zM693 88h-18l260 1265h20zM270 88h-19l260 1265h21z" />
    <glyph glyph-name="dollar" unicode="$" horiz-adv-x="1028" 
d="M789 157q24 62 24 133q0 135 -109 230q-65 57 -200 133q-56 29 -110 62q-109 66 -169 151t-60 219q0 124 98 196q-53 -87 -53 -196q0 -106 50 -182t127 -134t162 -109q79 -50 149 -101.5t114.5 -116t44.5 -152.5q0 -80 -68 -133zM687 69q119 35 178 128q24 37 24 93
q0 96 -47.5 166t-120.5 125t-155.5 105t-156 105t-120.5 125.5t-47 168.5q0 107 51 183.5t138 114.5q-79 -14 -146 -50.5t-109.5 -97.5t-42.5 -150q0 -143 64.5 -234.5t180.5 -162.5q53 -33 109 -63q132 -73 195 -126q100 -88 100 -209q0 -142 -95 -221zM477 811v531
q-54 -18 -96 -56q-84 -75 -84 -201q0 -82 43 -143q46 -66 137 -131zM528 51q87 15 134 71q64 77 64 168q0 69 -37 118.5t-96 88.5q-30 20 -63 39zM527 -233h-50v214q-212 1 -304 110t-92 251h-59v56h173v-56h-56q0 -142 82.5 -219.5t237.5 -77.5h18v522q-76 41 -150 88
q-67 43 -123 102q-127 130 -127 328q0 178 149 277q108 72 251 85v219h58l-1 -216h10q183 0 307 -80q147 -93 147 -280q0 -63 -19 -130t-64.5 -112t-123.5 -45q-59 0 -90.5 37t-31.5 82q0 54 33 87q29 29 70 29t69.5 -28.5t28.5 -69.5t-28.5 -69.5t-69.5 -28.5q-17 0 -31 4
q9 -17 49 -17q56 0 90.5 36.5t51.5 88.5t17 100q0 98 -48 166.5t-128.5 104.5t-177.5 36q-32 0 -61 -5l-3 -583q32 -21 65 -41q163 -100 238 -177q111 -114 111 -265q0 -102 -67.5 -170.5t-172.5 -103.5q-84 -28 -177 -34z" />
    <glyph glyph-name="percent" unicode="%" horiz-adv-x="1151" 
d="M322 943q-77 0 -128.5 36t-78.5 93.5t-27 120.5t25 122.5t77 97t132 37.5q77 0 129 -37t79.5 -96t27.5 -126q0 -62 -25 -118.5t-78 -93t-133 -36.5zM323 978q147 0 150 219q-2 218 -150 218q-85 0 -123 -90q-27 -64 -27 -128q0 -65 27 -129q38 -90 123 -90zM253 2h-55
l701 1438h55zM827 -10q-77 0 -128.5 36t-78.5 93.5t-27 120.5t25 122.5t77 97t132 37.5q77 0 129 -37t79.5 -96t27.5 -126q0 -62 -25 -118.5t-78 -93t-133 -36.5zM828 25q148 0 150 219q-2 218 -150 218q-85 0 -123 -90q-27 -64 -27 -128q0 -65 27 -129q38 -90 123 -90z" />
    <glyph glyph-name="ampersand" unicode="&#x26;" horiz-adv-x="1070" 
d="M170 209q-49 63 -49 150q0 47 12 89q28 91 145 147q-60 -44 -91.5 -115.5t-31.5 -157.5q0 -57 15 -113zM924 88h-42q-20 158 -128.5 286t-240.5 241q-82 71 -152.5 142.5t-116 146.5t-45.5 159q0 130 93 216q-44 -95 -44 -199q0 -107 47.5 -195.5t121.5 -167t160 -155.5
q114 -101 211.5 -215t135.5 -259zM964 56q-34 172 -139.5 300t-229.5 238q-83 73 -154 147.5t-116 157t-45 181.5q0 101 39 182.5t119 121.5q-119 -21 -194.5 -108.5t-75.5 -212.5q0 -136 115 -268q38 -45 109 -115q-115 -48 -164 -76q-63 -34 -101 -90.5t-38 -154.5
q0 -94 48.5 -160.5t124.5 -103.5q-75 93 -75 227q0 81 29.5 147.5t87.5 106.5t144 40q91 -67 182.5 -151t154 -186t68.5 -223h111zM475 -9q-110 0 -211.5 43t-166 125t-64.5 200q0 94 32.5 157t90.5 107t138 76q-181 181 -181 364q0 109 51 195.5t139 136.5t196 50
q138 0 230 -93t92 -228q0 -122 -73 -201t-197 -79q-57 0 -101 32t-44 94q0 51 30 82t74 31q42 0 72 -31t30 -76q0 -44 -30 -76q-14 -15 -30 -23q97 7 154 73q63 73 63 178q0 60 -22.5 112t-67 84.5t-110.5 32.5q-82 0 -133.5 -38.5t-75.5 -101t-24 -137.5q0 -93 48.5 -174.5
t123 -156t155.5 -143.5q117 -98 184 -184q24 102 24 223h-52v55h176v-55h-57q0 -159 -41 -290l16 -21q78 -110 107 -279h61v-55h-323v55h39q-4 40 -15 78q-116 -142 -307 -142zM499 47q151 0 258 161q-67 155 -327 352q-64 0 -105 -36.5t-61.5 -91t-20.5 -110.5
q0 -119 67 -197t189 -78z" />
    <glyph glyph-name="quotesingle" unicode="'" horiz-adv-x="367" 
d="M191 1361l-5 -306l-10 306h15zM222 1385h-77l16 -489h54zM279 1440l-10 -600h-161l-20 600h191z" />
    <glyph glyph-name="parenleft" unicode="(" horiz-adv-x="470" 
d="M684 -279q-145 0 -250 64t-176 169t-114 233.5t-61 260.5t-18 246q0 112 19 242.5t61.5 256t114 229.5t175 166t244.5 62q-149 -87 -242 -237t-135.5 -334t-42.5 -374q0 -244 54 -459q53 -210 148 -352t223 -173zM410 -130q-128 199 -177 487q-30 172 -30 354
q0 210 56 426q58 224 198 398q-128 -80 -201.5 -225t-104 -312t-30.5 -304q0 -129 26 -287.5t90 -302t173 -234.5zM241 179q-88 234 -88 515q0 120 24 267.5t82 282.5q-88 -264 -88 -531v-28q0 -255 70 -506z" />
    <glyph glyph-name="parenright" unicode=")" horiz-adv-x="480" 
d="M239 179q70 251 70 506v29q0 267 -88 530q58 -135 82 -282.5t24 -267.5q0 -281 -88 -515zM70 -130q109 91 173 234.5t90 302t26 287.5q0 137 -30.5 304t-104 312t-201.5 225q140 -174 198 -398q56 -217 56 -427q0 -182 -30 -353q-50 -287 -177 -487zM-204 -279
q128 31 223 173t148 352q54 215 54 459q0 190 -42.5 374t-135.5 334t-242 237q141 0 244.5 -62t175 -166t114 -229.5t61.5 -256t19 -242.5q0 -114 -18 -246t-61 -260.5t-114 -233.5t-176 -169t-250 -64z" />
    <glyph glyph-name="asterisk" unicode="*" horiz-adv-x="553" 
d="M291 1066h-29v153l-108 -108l-21 20l109 109h-154v28h154l-109 109l21 20l108 -108v153h29v-153l109 108l20 -20l-109 -109h154v-28h-154l109 -109l-20 -20l-109 108v-153z" />
    <glyph glyph-name="plus" unicode="+" 
d="M429 337h-57v284h-284v58h284v284h57v-284h284v-58h-284v-284z" />
    <glyph glyph-name="comma" unicode="," horiz-adv-x="395" 
d="M88 -300q103 119 109 290q-45 0 -77 32t-32 77q0 44 32 76t77 32q46 0 78 -32t32 -76q0 -136 -55 -251q-70 -148 -164 -148z" />
    <glyph glyph-name="hyphen" unicode="-" horiz-adv-x="676" 
d="M588 448h-500v57h500v-57z" />
    <glyph glyph-name="hyphen" unicode="&#xad;" horiz-adv-x="676" 
d="M588 448h-500v57h500v-57z" />
    <glyph glyph-name="period" unicode="." horiz-adv-x="395" 
d="M197 -10q-45 0 -77 32t-32 77q0 44 32 76t77 32q46 0 78 -32t32 -76q0 -45 -32 -77t-78 -32z" />
    <glyph glyph-name="slash" unicode="/" horiz-adv-x="450" 
d="M56 3h-55l447 1437h55z" />
    <glyph glyph-name="zero" unicode="0" horiz-adv-x="1036" 
d="M520 45q215 0 215 667q0 682 -215 682q-56 0 -94.5 -53t-62 -135t-37 -174t-18.5 -172t-5 -148q0 -51 5 -131.5t18.5 -172.5t37 -174t62 -135.5t94.5 -53.5zM520 -10q-212 0 -338 220q-116 202 -116 502q0 302 111 508q123 230 343 230q111 0 196 -61q166 -119 230 -394
q31 -133 31 -283q0 -296 -111 -498q-123 -224 -346 -224zM365 90q-113 200 -113 622q0 440 114 640q-94 -61 -147.5 -171t-75 -235.5t-21.5 -233.5q0 -113 22.5 -233t76 -224t144.5 -165zM692 97q89 63 139.5 169t70 221.5t19.5 224.5q0 113 -23 235q-50 270 -205 389
q99 -188 99 -624q0 -155 -17 -319q-17 -175 -83 -296zM275 227q-121 188 -121 485q0 117 26.5 256t95.5 248q-57 -203 -57 -504q0 -262 56 -485zM781 240q42 180 42 472q0 286 -39 468q105 -192 105 -468q0 -285 -108 -472z" />
    <glyph glyph-name="one" unicode="1" horiz-adv-x="564" 
d="M595 0h-555v55h172l-3 1241l-148 -379h-52l201 523h213v-1385h172v-55zM367 56v1328h-103l4 -1328h99zM335 88h-35l-4 1265h39v-1265z" />
    <glyph glyph-name="two" unicode="2" horiz-adv-x="978" 
d="M176 88h-33q37 124 119 218.5t180 181.5q86 74 162 157t125.5 185.5t49.5 242.5q0 105 -50 203q99 -85 99 -203q0 -119 -54.5 -221.5t-137.5 -194t-173 -176.5q-108 -100 -189 -196.5t-98 -196.5zM206 56q0 111 139 260q62 67 135 137q174 167 257 283q123 168 123 337
q0 77 -41.5 145.5t-110.5 112t-153 56.5q193 -83 193 -314q0 -131 -50 -232t-126 -185t-162 -161q-107 -96 -193 -200t-112 -239h101zM332 851q-38 -30 -87 -30q-73 0 -117 43.5t-64 106.5t-20 125q0 103 64 185t163.5 125.5t206.5 43.5q114 0 214.5 -48t162 -135.5
t61.5 -193.5q0 -102 -37 -194t-97 -174.5t-130.5 -158t-140 -142t-125.5 -126.5t-90 -115.5t-34 -106.5h654v-56h-873q11 173 107.5 299t218.5 236q83 74 156 153t120.5 172.5t47.5 212.5q0 132 -77.5 210t-223.5 78q-120 0 -210.5 -91.5t-90.5 -196.5q0 -52 16.5 -105.5
t53.5 -88.5q31 -30 79 -34q-23 7 -40 26q-30 32 -30 77q0 44 30 75.5t73 31.5q42 0 72.5 -31.5t30.5 -75.5q0 -60 -44 -97z" />
    <glyph glyph-name="three" unicode="3" horiz-adv-x="1067" 
d="M806 163q50 86 50 205q0 79 -31.5 144t-82 118.5t-112.5 95.5q226 160 226 354q0 106 -50 191q99 -67 99 -182q0 -175 -146 -299l-76 -66q82 -72 118 -109q47 -49 75.5 -109t28.5 -147q0 -129 -99 -196zM643 59q74 16 140.5 51.5t110 93t43.5 155.5q0 87 -27 149
t-73 113.5t-106 102.5l49 42q157 135 157 323q0 83 -44.5 141t-112.5 94t-142 52q186 -94 186 -296q0 -186 -232 -342q-8 -6 -15 -13q7 -5 13 -10q234 -150 234 -347q0 -214 -181 -309zM256 879q-12 8 -22 18q-30 32 -30 77q0 44 30 75.5t74 31.5q42 0 72 -31.5t30 -75.5
q0 -45 -30 -77q-37 -38 -102 -38t-110.5 34.5t-69.5 90t-24 114.5q0 172 139 263q122 81 299 81q181 0 320 -83q161 -97 161 -270q0 -202 -197 -365q197 -163 197 -365q0 -188 -161 -285q-140 -84 -320 -84q-177 0 -299 81q-139 92 -139 264q0 59 24 114t69.5 97t110.5 42
q66 0 96.5 -38.5t30.5 -83.5q0 -44 -30.5 -76t-72.5 -32q-43 0 -73.5 32t-30.5 76q0 45 30 76q6 5 11 10q-36 -7 -60 -36q-32 -37 -45 -89.5t-13 -95.5q0 -86 53.5 -144t132.5 -87.5t153 -29.5q84 0 153.5 34.5t112 98.5t42.5 165q0 88 -33 148t-79 100.5t-87 67.5
q-33 23 -53 41q21 20 55 44q41 29 86.5 70t78 100t32.5 141q0 86 -42.5 150t-112 99t-153.5 35q-74 0 -153 -30t-132.5 -88t-53.5 -143q0 -44 13.5 -96.5t44.5 -89.5q29 -35 77 -38z" />
    <glyph glyph-name="four" unicode="4" horiz-adv-x="925" 
d="M674 88h-40v1265h40v-1265zM602 56h103v1329h-103v-1329zM297 845l-230 -418h480v1013h214v-1013h150v-56h-150v-316h55v-55h-325v55h56v316h-588l285 501q137 238 137 346q0 107 -70 174q-31 30 -79 34q23 -7 40 -26q30 -32 30 -77q0 -44 -30 -75.5t-73 -31.5
q-42 0 -72.5 31.5t-30.5 75.5q0 60 44 97q38 30 87 30q73 0 141 -62.5t68 -169.5q0 -130 -139 -373z" />
    <glyph glyph-name="five" unicode="5" horiz-adv-x="1000" 
d="M262 934l-34 2v417h34v-419zM768 194q70 131 70 281q0 142 -57 238q106 -72 106 -233q0 -177 -119 -286zM294 900v484h-98v-477zM590 63q95 25 169 81.5t117 140t43 195.5q0 102 -32 163t-92 98.5t-143 60.5q154 -103 154 -327q0 -136 -55 -245t-161 -167zM453 -10
q-96 0 -188.5 38.5t-153 112t-60.5 181.5q0 88 32.5 146t80 88t93.5 30q51 0 86 -34q42 -35 42 -105q0 -45 -30 -76.5t-73 -31.5t-73 31.5t-30 76.5q0 44 30 76q27 28 64 31h-15q-52 0 -87.5 -34.5t-53.5 -84.5t-18 -95q0 -83 43.5 -142.5t112 -91.5t146.5 -32q114 0 192 55
t118 145t40 201q0 198 -141 286q-109 66 -307 83q-84 8 -163 10v586h260q120 0 211 -11q270 -33 270 -179q0 -57 -30 -99q-34 -48 -117 -48q-43 0 -73.5 31.5t-30.5 76.5q0 44 30.5 75.5t73.5 31.5q42 0 72 -31.5t30 -75.5q0 -33 -16 -59q4 3 7 8q21 30 21 57q0 66 -47 101
t-117.5 50t-134.5 16.5t-108 1.5l-91 -1v-481q148 -16 246 -33q232 -42 325 -176q53 -77 53 -215q0 -153 -71.5 -262t-190 -168.5t-259.5 -59.5z" />
    <glyph glyph-name="six" unicode="6" horiz-adv-x="1054" 
d="M235 318q-49 95 -71 194t-22 202q0 122 38.5 249t120.5 233q-53 -107 -84 -236t-31 -246q0 -121 13.5 -204.5t35.5 -191.5zM656 56q64 0 131.5 36.5t114.5 108.5t47 179q0 91 -41.5 150t-102 87.5t-118.5 28.5q-111 0 -217 -83.5t-131 -232.5q40 -138 130.5 -206
t186.5 -68zM431 82q-83 71 -129.5 184t-65 239.5t-18.5 208.5q0 93 27 220t83 244t145 188q-124 -49 -204.5 -154t-119 -238t-38.5 -260q0 -130 33 -248t104 -224.5t183 -159.5zM609 -10q-145 0 -249.5 68.5t-172 178.5t-100 226.5t-32.5 250.5q0 126 35 256t106 238.5
t179 175t253 66.5q113 0 183.5 -42t102.5 -107t32 -134q0 -60 -19 -113t-56 -86.5t-88 -33.5q-62 0 -94 35q-39 44 -39 93q0 45 30.5 76.5t73.5 31.5q42 0 72 -31.5t30 -76.5q0 -44 -30 -76q-15 -16 -34 -24q40 5 65 50q28 52 28 119q0 56 -24.5 111t-77 92t-136.5 37
q-79 0 -140 -48t-105.5 -124.5t-72.5 -165t-41.5 -173.5t-13.5 -146q0 -100 13 -196q4 -29 22 -105q53 155 165.5 223t222.5 68q89 0 163.5 -38t119 -111.5t44.5 -182.5q0 -113 -57.5 -199t-152 -134.5t-205.5 -48.5z" />
    <glyph glyph-name="seven" unicode="7" horiz-adv-x="865" 
d="M400 88h-34l356 1265h38zM424 56l379 1328h-105l-372 -1328h98zM26 1139q-8 6 -16 14q-34 34 -34 88q0 131 166 174q101 25 269 25h464l-394 -1385h55v-55h-323v55h56l370 1329l-243 1q-47 0 -111 -2.5t-126 -16t-103.5 -44.5t-41.5 -88q0 -34 17 -56q-9 21 -9 45
q0 45 30 76.5t73 31.5t73 -31.5t30 -76.5q0 -44 -30 -76t-73 -32q-64 0 -99 24z" />
    <glyph glyph-name="eight" unicode="8" horiz-adv-x="1015" 
d="M788 152q4 23 4 45q0 96 -44.5 167.5t-114.5 129.5t-150 113q-86 58 -164 123.5t-128 150t-50 201.5q0 130 105 211q-56 -99 -56 -220q0 -145 114 -267q76 -83 243 -197q76 -52 141.5 -105t107 -112t41.5 -130q0 -67 -49 -110zM484 37q221 0 221 160q0 87 -85 187.5
t-224 173.5q-51 0 -96 -43.5t-72.5 -108.5t-27.5 -136q0 -79 43 -131t108 -77t133 -25zM727 79q142 55 142 183q0 79 -44.5 143t-113.5 120.5t-148 110.5q-86 58 -163.5 122t-127.5 140.5t-50 174.5q0 236 192 328q-81 -16 -150.5 -57t-112 -106.5t-42.5 -155.5
q0 -172 113 -301q76 -88 241 -199q78 -53 145 -108t109.5 -121.5t42.5 -155.5q0 -63 -33 -118zM704 698q51 8 88 44q49 46 73.5 119t24.5 155q0 89 -33.5 172.5t-101.5 137.5t-171 54q-142 0 -225 -82.5t-83 -224.5q0 -84 46.5 -151t117.5 -125t154 -115t158 -118.5
t124 -134.5t49 -167q0 -147 -141 -217q-115 -58 -274 -58q-189 0 -283 80q-99 86 -99 224q0 87 48 173.5t147 151.5q-270 178 -270 466q0 180 150 288q136 99 321 99q211 0 326 -146q101 -130 101 -308q0 -90 -32.5 -169.5t-92 -129.5t-141.5 -50q-55 0 -92 32
q-43 39 -43 95q0 44 30 75.5t74 31.5q42 0 72 -31.5t30 -75.5q0 -45 -30 -77q-10 -11 -22 -18z" />
    <glyph glyph-name="nine" unicode="9" horiz-adv-x="1057" 
d="M822 1122q49 -95 71 -194t22 -201q0 -122 -38.5 -249.5t-120.5 -233.5q53 107 84 236t31 247q0 120 -13.5 204t-35.5 191zM401 1384q-64 0 -131.5 -36.5t-114.5 -108.5t-47 -179q0 -91 41.5 -149.5t102 -87t118.5 -28.5q111 0 217 83t131 232q-40 138 -130.5 206
t-186.5 68zM626 1358q83 -71 130 -184t65 -239.5t18 -207.5q0 -94 -27 -221t-83 -244t-145 -188q124 49 204.5 154t119 238t38.5 261q0 130 -33 247.5t-104 224t-183 159.5zM448 1450q145 0 250 -68.5t172 -178.5t99.5 -226.5t32.5 -249.5q0 -127 -35 -257t-106 -238.5
t-178.5 -175t-253.5 -66.5q-113 0 -183 42t-102.5 107t-32.5 134q0 60 19 113t56 87t88 34q62 0 94 -36q39 -43 39 -93q0 -45 -30 -76t-74 -31q-42 0 -72 31t-30 76q0 44 30 76q15 16 34 24q-40 -5 -65 -50q-28 -51 -28 -119q0 -56 24.5 -111t77 -92t136.5 -37
q79 0 140 48.5t105.5 124.5t72.5 164.5t41.5 173.5t13.5 147q0 99 -13 195q-4 29 -22 105q-53 -155 -165.5 -223t-222.5 -68q-89 0 -163.5 38t-119 111.5t-44.5 182.5q0 113 57.5 199t152 134.5t205.5 48.5z" />
    <glyph glyph-name="colon" unicode=":" horiz-adv-x="395" 
d="M197 -10q-45 0 -77 32t-32 77q0 44 32 76t77 32q46 0 78 -32t32 -76q0 -45 -32 -77t-78 -32zM197 653q-45 0 -77 32t-32 77q0 44 32 76t77 32q46 0 78 -32t32 -76q0 -45 -32 -77t-78 -32z" />
    <glyph glyph-name="semicolon" unicode=";" horiz-adv-x="395" 
d="M197 653q-45 0 -77 32t-32 77q0 44 32 76t77 32q46 0 78 -32t32 -76q0 -45 -32 -77t-78 -32zM88 -300q103 119 109 290q-45 0 -77 32t-32 77q0 44 32 76t77 32q46 0 78 -32t32 -76q0 -136 -55 -251q-70 -148 -164 -148z" />
    <glyph glyph-name="semicolon" unicode="&#x37e;" horiz-adv-x="395" 
d="M197 653q-45 0 -77 32t-32 77q0 44 32 76t77 32q46 0 78 -32t32 -76q0 -45 -32 -77t-78 -32zM88 -300q103 119 109 290q-45 0 -77 32t-32 77q0 44 32 76t77 32q46 0 78 -32t32 -76q0 -136 -55 -251q-70 -148 -164 -148z" />
    <glyph glyph-name="less" unicode="&#x3c;" 
d="M713 336l-625 287v54l625 287v-59l-556 -255l556 -255v-59z" />
    <glyph glyph-name="equal" unicode="=" 
d="M713 751h-625v57h625v-57zM713 492h-625v57h625v-57z" />
    <glyph glyph-name="greater" unicode="&#x3e;" 
d="M88 336v59l556 255l-556 255v59l625 -287v-54z" />
    <glyph glyph-name="question" unicode="?" horiz-adv-x="836" 
d="M444 385h-23q19 104 138 310q58 101 103 208q53 124 53 255q0 91 -48 168q88 -55 88 -187q0 -82 -22 -153q-33 -107 -128 -262q-131 -214 -161 -339zM422 0q-46 0 -78.5 32t-32.5 77q0 44 32.5 76t78.5 32q45 0 77 -32t32 -76q0 -45 -32 -77t-77 -32zM461 352
q0 20 36.5 112.5t135.5 247.5q95 150 131 267q23 73 23 160q0 234 -275 265q171 -69 171 -249q0 -123 -51 -243q-44 -102 -102 -198q-49 -82 -79 -147q-54 -113 -54 -215h64zM507 296h-165q0 150 65 291q24 53 54 104q61 102 110 213q57 128 57 250q0 221 -300 221
q-120 0 -210.5 -91.5t-90.5 -210.5q0 -127 70 -194q24 -22 57 -31q-51 32 -51 94q0 44 30.5 75.5t73.5 31.5q42 0 72 -31.5t30 -75.5q0 -56 -42 -90q-38 -31 -86 -31q-73 0 -117.5 43t-64 106.5t-19.5 125.5q0 117 64 199t163 125.5t206 43.5q164 0 257.5 -44.5t133 -118.5
t39.5 -162q0 -93 -27.5 -179.5t-73 -165t-87.5 -146.5q-146 -234 -148 -352z" />
    <glyph glyph-name="at" unicode="@" horiz-adv-x="1582" 
d="M1100 -16q-56 56 -56 134v711h39v-711q0 -81 17 -134zM495 169q-95 104 -95 274q0 160 96 272q-55 -135 -55 -275q0 -151 54 -271zM1203 -85q-39 13 -58 45.5t-24.5 75t-5.5 82.5v743h-103v-743q0 -81 52 -142t139 -61zM607 66q-75 70 -104.5 175.5t-29.5 198.5
q0 104 33.5 213t110.5 183q-122 -48 -185.5 -157.5t-63.5 -235.5q0 -128 59.5 -234.5t179.5 -142.5zM794 -232q-247 0 -413.5 103.5t-252.5 268.5t-86 360q0 175 79 331q82 161 252 263.5t429 102.5q188 0 356.5 -84.5t270.5 -253t102 -416.5q0 -160 -36 -292
q-79 -292 -296 -292q-64 0 -119 32.5t-89.5 90.5t-34.5 136v701q-70 40 -144 40q-94 0 -156.5 -61.5t-95 -157.5t-32.5 -200q0 -96 26.5 -183t81 -141.5t136.5 -54.5q59 0 99 31.5t40 94.5q0 40 -22 72q-15 21 -40 27q10 -5 20 -14q29 -32 29 -77q0 -44 -30 -76t-72 -32
q-44 0 -74 32t-30 76q0 48 34 85t104 37q60 0 92.5 -36.5t32.5 -95.5q0 -72 -41 -112.5t-102 -56.5t-120 -16q-127 0 -211 64t-126.5 165.5t-42.5 213.5q0 186 114 324q123 150 336 150q110 0 194 -37v36h270v-55h-55v-743q0 -122 38 -144q19 -10 38 -10q39 0 80.5 45
t85.5 166.5t44 270.5q0 356 -196 525t-461 169q-307 0 -495 -178t-188 -467q0 -121 41.5 -246.5t128.5 -218.5t213.5 -148.5t284.5 -55.5q110 0 209 33v-64q-95 -27 -200 -27z" />
    <glyph glyph-name="A" unicode="A" horiz-adv-x="950" 
d="M821 88h-38l-321 1093l20 68zM865 56l-385 1307l-51 -182l330 -1125h106zM978 0h-333v56h56l-301 1025l-157 -544h89q66 0 124.5 -19.5t95 -62t36.5 -114.5q0 -65 -43 -97.5t-103 -32.5q-43 0 -73.5 30.5t-30.5 72.5t29.5 71t70.5 29t71 -29t30 -71q0 -29 -14 -52
q27 24 27 65q0 131 -150 150q-38 4 -175 4l-122 -425h55v-56h-172v56h59l382 1328h-87q-220 0 -220 -154q0 -37 24 -60q-14 24 -14 53q0 43 29.5 72t70.5 29t70.5 -29t29.5 -72q0 -42 -29 -71q-35 -33 -92 -33q-54 0 -88.5 35t-34.5 90q0 72 37 115q68 81 217 81h238v-56
h-47l389 -1328h56v-56z" />
    <glyph glyph-name="B" unicode="B" horiz-adv-x="1073" 
d="M268 88h-43v1264h43v-1264zM892 182q38 94 38 205q0 106 -38 197q84 -79 84 -192q0 -126 -84 -210zM724 1024q17 58 17 111q0 58 -20 125q52 -46 52 -114q0 -63 -49 -122zM356 842q93 0 161 45t102.5 113t34.5 144q0 63 -34 120q-72 120 -264 120v-542zM781 70
q97 39 162 122t65 200q0 128 -96 216q-61 59 -141 96q127 -129 127 -315q0 -134 -59 -243q-24 -42 -58 -76zM625 908q112 53 161 154q19 39 19 84q0 139 -180 202q85 -73 85 -198q0 -144 -85 -242zM300 56v1328h-107v-1328h107zM470 319q53 50 106 50q41 0 70.5 -29
t29.5 -72q0 -42 -29.5 -71.5t-70.5 -29.5t-71 30q-27 27 -29 65q-19 -32 -19 -65q0 -55 45.5 -98.5t117.5 -43.5q64 0 115 47.5t80 122.5t29 172q-3 158 -112 266q-127 123 -376 123v-730h54v-56h-329v56h56v1328h-56v56h275q343 0 456 -152q49 -67 49 -142q0 -104 -83 -194
t-215 -125q272 -60 386.5 -178t114.5 -249q0 -118 -55.5 -208t-148 -146t-203.5 -56q-81 0 -133 28.5t-77.5 72.5t-26.5 93q0 88 50 135z" />
    <glyph glyph-name="C" unicode="C" horiz-adv-x="986" 
d="M261 254q-69 90 -102 202q-36 121 -36 258q0 272 131 458q-9 -20 -17 -40q-71 -190 -71 -433q2 -251 95 -445zM441 80q-164 120 -218 389q-25 124 -25 261q0 206 68 391q62 157 173 240q-122 -51 -200.5 -156t-113 -231.5t-34.5 -259.5q0 -223 91 -397q87 -165 259 -237z
M706 954q6 -1 13 -1q52 0 87 27t52.5 70t17.5 91q0 56 -26 108.5t-79 86.5t-134 34q-184 0 -290 -207q-94 -184 -94 -441q0 -142 28 -263q56 -237 199 -338q71 -51 166 -51q92 0 144 34t90 103h-60v55h174v-55h-56q-43 -97 -122.5 -157t-185.5 -60q-279 0 -441 215
q-154 204 -154 510q0 137 32 257q35 134 108.5 241.5t185 172t258.5 64.5q108 0 178 -43.5t105 -110t35 -136.5q0 -60 -23.5 -113.5t-69 -87t-112.5 -33.5q-68 0 -104.5 36t-36.5 92q0 43 30 72t71 29t70.5 -29t29.5 -72q0 -42 -30 -71q-24 -25 -56 -29z" />
    <glyph glyph-name="D" unicode="D" horiz-adv-x="1142" 
d="M269 88h-44v1265h44v-1265zM894 273q59 186 59 457q0 212 -65 379q111 -180 111 -408q0 -255 -105 -428zM301 56v1329h-108v-1329h108zM768 102q64 40 111 97q152 189 152 506q0 223 -97 391q-81 135 -205 204q101 -103 146.5 -254t45.5 -316q0 -439 -153 -628zM442 277
q-5 -7 -10 -15q-17 -32 -17 -71q0 -37 15.5 -70t47 -54.5t77.5 -21.5q121 0 209 148q102 176 102 537q0 277 -112 452q-131 202 -397 202v-1328h55v-56h-330v56h55v1328h-56v56l276 1q255 -1 415.5 -102.5t235.5 -262.5q77 -167 77 -370q0 -352 -163 -543
q-76 -88 -164.5 -130.5t-169.5 -42.5q-73 0 -120 29.5t-70.5 75.5t-23.5 94q0 51 22 87.5t56 56t69 19.5q53 -1 88 -33q29 -29 29 -71t-29.5 -72t-70.5 -30t-70.5 30t-29.5 72q0 16 4 29z" />
    <glyph glyph-name="E" unicode="E" horiz-adv-x="935" 
d="M273 88h-45v1264h45v-1264zM304 56v1328h-108v-1328h108zM555 0h-474v56h59v1328h-59v56h474q146 0 233 -40q115 -52 115 -185q0 -59 -40.5 -92t-96.5 -33q-57 0 -86.5 29.5t-29.5 72.5q0 42 29.5 71t70.5 29t71 -29t30 -71q0 -28 -13 -50l9 8q18 19 18 59
q0 103 -109 147q-81 33 -201 33h-196v-820h275v-56h-275v-461h196q120 0 201 33q109 43 109 148q0 54 -42 75q20 -25 20 -59q0 -42 -30 -72t-71 -30t-70.5 30t-29.5 72t30.5 72t89.5 30q60 0 100.5 -33.5t40.5 -91.5q0 -133 -115 -186q-87 -40 -233 -40z" />
    <glyph glyph-name="F" unicode="F" horiz-adv-x="809" 
d="M275 88h-44v1264h44v-1264zM307 56v1328h-108v-1328h108zM418 0h-330v56h55v1328h-58v56h473q348 0 348 -225q0 -59 -40.5 -92t-96.5 -33q-53 0 -91 35q-29 29 -29 70q0 40 29 68.5t70 28.5q42 0 70.5 -28.5t28.5 -68.5q0 -37 -24 -64q45 21 45 78q0 103 -108 147
q-82 33 -202 33h-195v-820h275v-56h-275v-457h55v-56z" />
    <glyph glyph-name="G" unicode="G" horiz-adv-x="1052" 
d="M260 264q-70 90 -103 202q-36 121 -36 248q0 109 30 227.5t101 220.5q-88 -196 -88 -446q2 -255 96 -452zM440 80q-164 120 -219 399q-25 124 -25 251q0 196 68 381q62 157 172 240q-122 -51 -200 -156t-112.5 -231.5t-34.5 -249.5q0 -137 38 -257q49 -145 130.5 -243
t182.5 -134zM900 56v457h-108v-457h108zM628 -10q-147 0 -257 58q-123 70 -192 175q-145 217 -145 492q0 127 33.5 254t106.5 234.5t184 172t259 64.5q108 0 178.5 -43.5t105 -110t34.5 -136.5q0 -60 -23.5 -113.5t-69 -87t-113.5 -33.5q-67 0 -100 37q-35 41 -35 94
q0 40 29 68.5t70 28.5t69.5 -28.5t28.5 -68.5q0 -41 -28.5 -69.5t-77.5 -28.5q14 -6 33 -6q51 0 86 27t52.5 70t17.5 91q0 56 -26 108.5t-79 86.5t-133 34q-185 0 -291 -207q-93 -183 -93 -430q0 -270 107 -461q58 -104 128 -148t157 -44q50 0 92 8v435h-180v56h455v-56h-56
v-457h56v-56h-274q-53 -10 -109 -10zM868 88l-44 1v393h44v-394z" />
    <glyph glyph-name="H" unicode="H" horiz-adv-x="1045" 
d="M268 88h-44v1264h44v-1264zM300 56v1328h-108v-1328h108zM410 0h-329v56h56v1328h-56v56h329v-56h-54v-1328h54v-56zM490 513q-54 0 -88.5 35.5t-34.5 90.5q0 71 37 115q68 81 219 81h199v549h-59v56h214v-56h-55v-1328h55v-56h-214v56h59v723h-199q-222 0 -222 -154
q0 -34 21 -57q-12 21 -12 47q0 40 29.5 68.5t70.5 28.5t69.5 -28.5t28.5 -68.5q0 -41 -29 -70q-31 -32 -89 -32z" />
    <glyph glyph-name="I" unicode="I" horiz-adv-x="616" 
d="M402 88h-43v1264h43v-1264zM434 56v1328h-107v-1328h107zM139 1119q-55 0 -89 35t-34 90q0 72 36.5 114.5t94.5 62t124 19.5h274v-56h-55v-1328h55v-56h-329v56h55v1328q-221 0 -221 -154q0 -40 28 -64q-16 24 -16 55q0 40 29 68.5t70 28.5t69.5 -28.5t28.5 -68.5
q0 -41 -29 -69q-33 -33 -91 -33z" />
    <glyph glyph-name="J" unicode="J" horiz-adv-x="871" 
d="M603 205q23 89 28 186q3 78 3 961h45v-736q0 -59 -5 -133q-10 -172 -71 -278zM501 74q170 75 198 340q12 111 12 202v768h-109q0 -807 1 -862q0 -185 -29 -304q-22 -87 -73 -144zM344 -10q-143 0 -219.5 88t-76.5 246h-59v56h184v-56h-55q0 -127 57.5 -197t148.5 -70
q150 0 194 167q20 78 25 177.5t5 982.5q-196 0 -234 -4q-152 -19 -152 -150q0 -43 33 -68q-20 26 -20 60q0 40 29 68.5t70 28.5t69.5 -28.5t28.5 -68.5q0 -41 -28 -69q-36 -34 -93 -34q-55 0 -89 35t-34 90q0 133 131 177q58 19 124 19h437v-56h-54v-768q0 -197 -38.5 -337
t-130.5 -214.5t-253 -74.5z" />
    <glyph glyph-name="K" unicode="K" horiz-adv-x="1094" 
d="M925 88h-44v269q0 162 -34 261q78 -99 78 -268v-262zM268 88h-43v1264h43v-1264zM957 56v294q0 62 -13.5 128t-46 123t-89.5 91q-29 17 -64 24q85 -72 100 -232q5 -69 5 -428h108zM300 56v1328h-107v-1328h107zM1068 0h-330v56h56v301q0 139 -26 221q-37 124 -145 124
q-89 0 -152.5 -50.5t-63.5 -142.5q0 -30 7.5 -65t28 -60t58.5 -25h6q-22 7 -39 24q-29 29 -29 70q0 40 29 68.5t70 28.5t69.5 -28.5t28.5 -68.5q0 -47 -34.5 -84.5t-99.5 -37.5t-101 39t-45 96v-410h54v-56h-329v56h56v1328h-56v56h329v-56h-54v-837q12 84 96.5 215
t270.5 386l170 236h-44v56h173v-56h-51l-466 -659q91 53 192 53q97 0 168 -56t109 -152.5t38 -219.5v-294h56v-56z" />
    <glyph glyph-name="L" unicode="L" horiz-adv-x="797" 
d="M269 88h-44v1264h44v-1264zM301 56v1328h-108v-1328h108zM416 0h-335v56h56v1328h-56v56h331v-56h-55v-1332q104 0 161 2q247 10 247 179q0 59 -46 77q23 -27 23 -62q0 -41 -28.5 -69.5t-69.5 -28.5t-70 28.5t-29 69.5q0 39 29 68q35 35 91 35t96 -33.5t40 -91.5
q0 -154 -140 -198q-84 -28 -245 -28z" />
    <glyph glyph-name="M" unicode="M" horiz-adv-x="1224" 
d="M715 706l-25 56l215 590h46zM270 88h-44v1264h44v-1264zM716 614l280 770h-114l-226 -621zM301 56l1 1328h-108v-1328h107zM1153 0h-215v56h60v1169l-252 -691q24 -88 24 -179q0 -58 -18.5 -105.5t-56.5 -76t-98 -28.5q-53 0 -86.5 36t-33.5 98q0 50 29.5 78.5t70.5 28.5
t69.5 -28.5t28.5 -68.5q0 -41 -28.5 -69.5t-69.5 -28.5q-19 0 -36 6q15 -18 42 -18q75 0 103 46.5t28 129.5q0 160 -353 884h-4v-1183h55v-56h-331v56h57v1328h-57v56h221q24 0 37.5 -9.5t29.5 -44.5l256 -546l219 600h309v-56h-55v-1328h55v-56z" />
    <glyph glyph-name="N" unicode="N" horiz-adv-x="1086" 
d="M270 88h-44v1264h44v-1264zM876 88h-45v1265h45v-1265zM302 56v1328h-108v-1328h108zM908 56v1329h-109v-1329h109zM517 873l-160 401v-1218h55v-56h-331v56h57v1328h-57v56h277q93 -230 227 -567q143 -335 143 -533q0 -68 -40.5 -118t-107.5 -50q-56 0 -98 46
q-35 36 -35 104q0 40 29 68.5t70 28.5t69.5 -28.5t28.5 -68.5q0 -41 -28.5 -69.5t-69.5 -28.5q-17 0 -32 5q26 -24 57 -24q102 0 102 135q0 163 -156 533zM1017 56v-56h-331v56h58v1329h-58v55h331v-55h-54v-1329h54z" />
    <glyph glyph-name="O" unicode="O" horiz-adv-x="1014" 
d="M752 193q40 147 48 285q6 102 6 211q0 344 -52 544q98 -167 99 -513q0 -154 -16.5 -287t-84.5 -240zM270 187q-110 161 -114 460v129q0 112 19.5 246t97.5 240q-32 -100 -46 -195q-28 -182 -28 -347q0 -306 71 -533zM504 45q189 0 212 518q-70 -91 -171 -91
q-80 0 -135 60q-13 14 -23 33q-23 46 -23 94q0 51 22 87.5t56 56t69 19.5q53 -1 87 -34q30 -28 30 -70t-29.5 -72t-70.5 -30t-70.5 30t-29.5 72q0 16 4 29q-27 -38 -27 -86q0 -37 15.5 -70t47 -54.5t77.5 -21.5q72 0 123 63t51 141q-4 676 -215 676q-56 0 -94 -53.5
t-62 -135.5t-37.5 -174t-18.5 -172.5t-5 -139.5t5 -140t18.5 -172.5t37.5 -174t62 -135.5t94 -53zM360 75q-71 104 -102 303q-26 170 -26 354q0 157 25 329q29 196 104 306q-41 -17 -76 -48q-161 -148 -161 -536l1 -138q3 -370 166 -525q31 -29 69 -45zM662 77q40 18 73 51
q121 118 142 365q6 83 6 155l-3 188q-5 330 -153 477q-30 30 -65 48q85 -132 103 -367q9 -120 9 -248q0 -284 -34 -466q-21 -115 -78 -203zM503 -10q-135 0 -221 63q-157 115 -197 399q-18 131 -18 311q0 687 436 687q141 0 227 -64q157 -117 193 -401q17 -133 17 -314
q0 -291 -76 -457q-102 -224 -361 -224z" />
    <glyph glyph-name="P" unicode="P" horiz-adv-x="1047" 
d="M268 88h-43v1264h43v-1264zM901 775q18 82 18 165q0 145 -74 274q104 -92 104 -232q0 -111 -48 -207zM300 56v1328h-107v-1328h107zM784 603q116 73 165 200q31 85 31 179q0 46 -14 95q-33 117 -137 190q-75 52 -167 78q141 -78 195 -230q31 -84 31 -175
q0 -206 -104 -337zM424 767q-26 -23 -26 -68q0 -76 46.5 -115.5t111.5 -39.5q64 0 127.5 42t106 130t42.5 224q0 173 -109 288q-124 133 -367 133v-1305h54v-56h-329v56h56v1328h-56v56h274q347 0 525 -141q156 -126 156 -317q0 -122 -41.5 -214.5t-108.5 -155t-146.5 -94.5
t-153.5 -32q-63 0 -114 21.5t-82 65.5t-31 111q0 54 35 95t100 41q52 0 82 -33q28 -28 28 -67q0 -41 -28 -69t-67 -28q-40 0 -68.5 28t-28.5 69q0 26 12 47z" />
    <glyph glyph-name="Q" unicode="Q" horiz-adv-x="1017" 
d="M752 193q40 147 48 285q6 102 6 211q0 344 -52 544q98 -167 99 -513q0 -154 -16.5 -287t-84.5 -240zM270 187q-110 161 -114 460v129q0 112 19.5 246t97.5 240q-32 -100 -46 -195q-28 -182 -28 -347q0 -306 71 -533zM360 75q-71 104 -102 303q-26 170 -26 354
q0 157 25 329q29 196 104 306q-41 -17 -76 -48q-161 -148 -161 -536l1 -138q3 -370 166 -525q31 -29 69 -45zM662 77q40 18 73 51q121 118 142 365q6 83 6 155l-3 188q-5 330 -153 477q-30 30 -65 48q85 -132 103 -367q9 -120 9 -248q0 -284 -34 -466q-21 -115 -78 -203z
M563 60q134 73 153 503q-70 -91 -171 -91q-80 0 -135 60q-13 14 -23 33q-23 46 -23 94q0 51 22 87.5t56 56t69 19.5q53 -1 87 -34q30 -28 30 -70t-29.5 -72t-70.5 -30t-70.5 30t-29.5 72q0 16 4 29q-27 -38 -27 -86q0 -37 15.5 -70t47 -54.5t77.5 -21.5q72 0 123 63t51 141
q-4 676 -215 676q-56 0 -94 -53.5t-62 -135.5t-37.5 -174t-18.5 -172.5t-5 -139.5q0 -277 61 -486q24 -85 64 -138q22 15 51 15q50 0 100 -51zM810 -241q-134 0 -216 145q-28 49 -58 87q-16 -1 -33 -1q-135 0 -221 63q-157 115 -197 399q-18 131 -18 311q0 687 436 687
q141 0 227 -64q157 -117 193 -401q17 -133 17 -314q0 -291 -76 -457q-79 -174 -253 -213q24 -34 49 -79q62 -113 158 -113q51 0 74.5 28.5t23.5 73.5q0 27 -12 42l2 -16q0 -40 -28 -68t-69 -28q-40 0 -68 28t-28 68t28 68.5t68 28.5q63 0 97 -34.5t34 -96.5
q0 -61 -33 -102.5t-97 -41.5z" />
    <glyph glyph-name="R" unicode="R" horiz-adv-x="1067" 
d="M873 738q35 121 35 232q0 126 -54 226q89 -91 89 -240q0 -117 -70 -218zM758 590q98 57 157.5 155t59.5 211q0 108 -41 183t-109.5 124t-154.5 76q94 -54 150 -146.5t56 -222.5q0 -98 -27.5 -201t-90.5 -179zM267 88h-43v1265h43v-1265zM299 1374h2v11h-109v-1329h109v11
h-2v1307zM355 122h1v-66h56v-56h-331v56h55v1329h-55v55h331q241 0 423 -114q196 -123 196 -370q0 -124 -62.5 -231.5t-165.5 -173.5q-96 -61 -211 -66q0 -243 79 -353t185 -110q88 0 118 33q-18 -8 -39 -8q-40 0 -68.5 28.5t-28.5 68.5t28.5 68.5t68.5 28.5t68.5 -28.5
t28.5 -68.5q0 -72 -43.5 -118t-134.5 -46q-164 0 -251 127t-87 383q-67 12 -104 55q-53 59 -53 140q0 51 32 93.5t84 42.5q68 0 100 -34q28 -28 28 -67q0 -41 -28 -69t-68 -28t-68.5 28t-28.5 69q0 26 13 47q-26 -23 -26 -68q0 -64 37 -109t102 -45q150 0 224 146
q61 120 61 279q0 134 -65.5 220.5t-170.5 128.5t-229 42v-43h-1v-1196z" />
    <glyph glyph-name="S" unicode="S" horiz-adv-x="1028" 
d="M789 157q24 62 24 133q0 135 -109 230q-65 57 -200 133q-56 29 -110 62q-109 66 -169 151t-60 219q0 124 98 196q-53 -87 -53 -196q0 -106 50 -182t127 -134t162 -109q79 -50 149 -101.5t114.5 -116t44.5 -152.5q0 -80 -68 -133zM687 69q119 35 178 128q24 37 24 93
q0 96 -47.5 166t-120.5 125t-155.5 105t-156 105t-120.5 125.5t-47 168.5q0 107 51 183.5t138 114.5q-79 -14 -146 -50.5t-109.5 -97.5t-42.5 -150q0 -143 64.5 -234.5t180.5 -162.5q53 -33 109 -63q132 -73 195 -126q100 -88 100 -209q0 -142 -95 -221zM81 342h-59v56h173
v-56h-56q0 -142 82.5 -219.5t237.5 -77.5q139 0 203 77t64 168q0 69 -37 118.5t-96.5 88.5t-129 77t-136.5 81t-123.5 101.5t-91.5 138t-35 190.5q0 178 149 277q132 88 318 88q183 0 307 -80q147 -93 147 -280q0 -63 -19 -130t-64.5 -112t-123.5 -45q-59 0 -90.5 37
t-31.5 82q0 54 33 87q29 29 70 29t69.5 -28.5t28.5 -69.5t-28.5 -69.5t-69.5 -28.5q-17 0 -31 4q9 -17 49 -17q56 0 90.5 36.5t51.5 88.5t17 100q0 98 -48 166.5t-128.5 104.5t-177.5 36q-130 0 -214 -75t-84 -201q0 -82 43 -143.5t111 -112t145 -97.5q163 -100 238 -177
q111 -114 111 -265q0 -102 -67.5 -170.5t-173 -103.5t-225.5 -35q-214 0 -306 109.5t-92 251.5z" />
    <glyph glyph-name="T" unicode="T" horiz-adv-x="871" 
d="M544 91h-45v1266h45v-1266zM575 56v1328h-107v-1328h107zM130 1119q-55 0 -89 35t-34 90q0 72 36.5 114.5t94.5 62t124 19.5h714v-56h-345v-1328h57v-56h-333v56h57v1328h-150q-221 0 -221 -154q0 -49 42 -74q-26 28 -26 69q0 39 28.5 67t68.5 28t68 -28t28 -67
q0 -41 -28 -69q-36 -37 -92 -37z" />
    <glyph glyph-name="U" unicode="U" horiz-adv-x="1126" 
d="M279 205q-61 101 -70 275q-4 75 -4 872h43q0 -737 -1 -853q0 -58 4 -134t28 -160zM851 205q32 111 32 290l-1 857h43q0 -797 -3 -872q-10 -174 -71 -275zM383 77q-77 90 -90.5 207.5t-13.5 214.5q1 58 1 885h-107v-768q0 -203 34 -324q45 -163 176 -215zM747 77
q132 53 177 216q33 121 33 323v768h-107q0 -836 1 -888q0 -65 -4 -130q-12 -190 -100 -289zM565 -10q-272 0 -372 187q-76 144 -76 439v768h-57v56h329v-56h-53v-966q2 -143 45 -239q55 -122 184 -122q182 0 219 243q11 82 11 199l-1 885q-47 0 -98 -8t-86.5 -37t-35.5 -94
q0 -58 30 -82q-18 25 -18 58q0 42 29 71t70 29t70.5 -29t29.5 -71q0 -41 -30 -70q-34 -32 -93 -32q-57 0 -92.5 40t-35.5 94q0 45 24 88q56 99 224 99h285v-56h-54v-768q0 -124 -15 -237t-60 -200q-99 -189 -373 -189z" />
    <glyph glyph-name="V" unicode="V" horiz-adv-x="978" 
d="M529 88h-50l-325 1264h37zM571 56l-356 1328h-101l341 -1328h116zM703 1119q-55 0 -89 35t-34 90q0 196 278 196h175v-56h-56l-345 -1328h57v-56h-350v56h57l-339 1328h-55v56h329v-56h-58l322 -1205l322 1205h-59q-55 0 -92 -4q-152 -19 -152 -150q0 -43 34 -68
q-19 25 -19 58q0 42 29 71t70 29t71 -29t30 -71q0 -41 -30 -70q-5 -5 -10 -9q-30 -22 -86 -22z" />
    <glyph glyph-name="W" unicode="W" horiz-adv-x="1435" 
d="M821 657l156 -569h-37l-139 499zM529 88h-50l-325 1264h37zM1018 56l-196 723l-49 -209l142 -514h103zM571 56l-356 1328h-101l341 -1328h116zM703 1119q-55 0 -89 35t-34 90q0 196 278 196h175v-56h-56l-128 -493l194 -712l313 1205h-58v56h191v-56h-55
q-59 -260 -340 -1328h57v-56h-350v56h57l-116 420l-110 -420h57v-56h-350v56h57l-339 1328h-55v56h329v-56h-58l322 -1205l321 1205h-58q-55 0 -92 -4q-152 -19 -152 -150q0 -47 40 -72q-26 27 -26 65q0 41 28.5 69.5t68.5 28.5t68.5 -28.5t28.5 -69.5q0 -39 -29 -68
q-35 -36 -90 -36z" />
    <glyph glyph-name="X" unicode="X" horiz-adv-x="1033" 
d="M879 88h-19l-680 1264h19zM933 56l-716 1328h-90l713 -1328h93zM1050 0h-330v56h58l-296 548l-335 -548h54v-56h-176v56h57l372 602l-390 726h-57v56h331v-56h-57l289 -538l332 538h-124q-222 0 -222 -154q0 -41 30 -65q-20 25 -20 60q0 41 28.5 69.5t69.5 28.5
q40 0 69 -28.5t29 -69.5t-30.5 -73.5t-86.5 -32.5q-54 0 -88.5 35t-34.5 90q0 72 36.5 114.5t95 62t124.5 19.5h237v-56h-55l-361 -590l396 -738h55v-56z" />
    <glyph glyph-name="Y" unicode="Y" horiz-adv-x="879" 
d="M496 88h-43v594l-303 670h24l322 -732v-532zM528 56v570l-333 758h-94l320 -709v-619h107zM620 1119q-54 0 -88.5 35t-34.5 90q0 72 36.5 114.5t95 62t124.5 19.5h237v-56h-55l-351 -683v-645h54v-56h-331v56h58v608l-326 720h-57v56h331v-56h-57l285 -647l336 647h-124
q-220 0 -220 -154q0 -36 23 -60q-12 22 -12 48q0 41 28.5 69.5t69.5 28.5q40 0 69 -28.5t29 -69.5q0 -40 -29 -69q-32 -30 -91 -30z" />
    <glyph glyph-name="Z" unicode="Z" horiz-adv-x="1066" 
d="M249 88h-25l599 1264h25zM270 56l628 1328h-96l-628 -1328h96zM90 1160q-25 27 -25 65q0 41 28.5 69.5t69.5 28.5q40 0 69 -28.5t29 -69.5q0 -40 -29 -69q-38 -37 -90 -37q-55 0 -89 35t-34 90q0 72 36 114.5t94.5 62t124.5 19.5h713l-656 -1384h469q220 0 220 154
q0 36 -23 60q13 -22 13 -49q0 -40 -29 -68.5t-69 -28.5q-41 0 -69.5 28.5t-28.5 68.5q0 41 28 70q32 31 89 31q55 0 89 -35.5t34 -90.5q0 -72 -36 -114.5t-94.5 -62t-123.5 -19.5h-714l655 1384h-467q-221 0 -221 -154q0 -45 37 -70z" />
    <glyph glyph-name="bracketleft" unicode="[" horiz-adv-x="632" 
d="M544 -282h-365v1l-91 -1v1932l456 -2v-55h-257l-9 -1818l266 -2v-55zM144 -226l79 1l8 1819h-87v-1820zM191 -193l-15 -1v1756h23z" />
    <glyph glyph-name="backslash" unicode="\" horiz-adv-x="679" 
d="M536 2l-448 1438h56l447 -1438h-55z" />
    <glyph glyph-name="bracketright" unicode="]" horiz-adv-x="632" 
d="M441 -194l-9 1756h24v-1756h-15zM488 -226v1820h-88l9 -1818zM88 -283v56l266 1l-9 1819h-257v55l456 2v-1933l-91 2v-2h-365z" />
    <glyph glyph-name="asciicircum" unicode="^" horiz-adv-x="522" 
d="M434 1359h-49l-124 225l-122 -225h-51l158 286h30z" />
    <glyph glyph-name="underscore" unicode="_" 
d="M88 -157v57h625v-57h-625z" />
    <glyph glyph-name="grave" unicode="`" horiz-adv-x="476" 
d="M88 1300h73l227 -300h-71z" />
    <glyph glyph-name="a" unicode="a" horiz-adv-x="1012" 
d="M226 158q-94 104 -94 285q0 159 96 272q-55 -136 -55 -275q0 -161 53 -282zM339 56q-75 69 -105 174.5t-30 209.5q0 103 34 212.5t110 183.5q-122 -48 -185 -158t-63 -235q0 -139 59 -245.5t180 -141.5zM776 828h39v-741h-39v741zM688 818q-68 49 -145 49
q-93 0 -156.5 -66.5t-95.5 -162t-32 -198.5q0 -107 27 -193.5t81 -141t136 -54.5q60 0 100 31.5t40 93.5q0 40 -22 71.5t-65 31.5q-9 0 -17 -2q36 -2 63.5 -29.5t27.5 -68.5q0 -39 -29 -67.5t-69 -28.5q-41 0 -69.5 28.5t-28.5 67.5q0 82 59 112q31 16 69 16q60 0 92.5 -37
t32.5 -96q0 -72 -41 -112t-102 -56t-120 -16q-127 0 -211.5 64t-126.5 165.5t-42 223.5q0 188 113 324q124 159 337 159q109 0 194 -47v37h269v-56h-55v-805h55v-55h-269v818zM847 860h-103v-805h103v805z" />
    <glyph glyph-name="b" unicode="b" horiz-adv-x="1017" 
d="M241 87h-39v1265h39v-1265zM793 201q55 136 55 275q0 161 -54 282q95 -104 95 -285q0 -159 -96 -272zM273 55l-1 1329h-102v-1329h103zM671 80q123 48 186.5 158t63.5 235q0 139 -59.5 245t-180.5 142q76 -69 105.5 -174.5t29.5 -209.5q0 -103 -33.5 -212.5
t-111.5 -183.5zM526 -10q-109 0 -198 48v-38h-269v55h55v1330h-55v55h324v-55h-55v-1284q68 -53 149 -53q94 0 156.5 66.5t95 162.5t32.5 199q0 105 -26.5 192.5t-81 142t-136.5 54.5q-59 0 -99 -32t-40 -93q0 -40 22 -71.5t65 -31.5q14 0 24 4q-40 0 -68.5 28.5t-28.5 68.5
q0 41 28.5 69.5t69.5 28.5q40 0 69 -28.5t29 -69.5q0 -59 -39 -97q-33 -32 -90 -32q-60 0 -92.5 37t-32.5 96q0 72 41 112t101.5 56t120.5 16q127 0 211 -64t126.5 -165.5t42.5 -223.5q0 -188 -113 -323q-124 -160 -338 -160z" />
    <glyph glyph-name="c" unicode="c" horiz-adv-x="857" 
d="M228 192q-97 100 -97 268q0 177 111 280q-67 -119 -67 -285q0 -149 53 -263zM350 77q-143 132 -143 378q0 267 177 395q-137 -40 -211 -140t-74 -250q0 -139 63.5 -237.5t187.5 -145.5zM517 -10q-183 0 -319 112q-154 125 -154 358q0 136 56.5 240t167 165t272.5 61
q174 0 234 -92q28 -43 28 -94q0 -60 -39.5 -102t-111.5 -42q-53 0 -83 24q-46 39 -46 106q0 41 28.5 69.5t69.5 28.5q40 0 69 -28.5t29 -69.5q0 -40 -29 -68.5t-70 -28.5q11 -5 26 -5q56 0 85.5 34t29.5 84q0 53 -41.5 89t-112.5 36q-127 0 -226 -92q-117 -108 -117 -320
q0 -136 43.5 -225.5t110.5 -136t141 -46.5q147 0 201 132h-56v55h174v-55h-56q-67 -189 -304 -189z" />
    <glyph glyph-name="d" unicode="d" horiz-adv-x="1022" 
d="M816 87h-40v1265h40v-1265zM225 158q-95 104 -95 285q0 169 97 282q-56 -136 -56 -285q0 -161 54 -282zM848 55v1329h-104v-1329h104zM338 56q-75 69 -105 174.5t-30 209.5q0 113 34 222.5t110 183.5q-123 -48 -186 -158t-63 -245q0 -139 59.5 -245.5t180.5 -141.5z
M958 0h-269l-3 829q-68 38 -144 38q-93 0 -156.5 -61.5t-95.5 -157t-32 -208.5q0 -107 27 -193.5t80.5 -141t135.5 -54.5q61 0 101 31.5t40 93.5q0 40 -22.5 71.5t-65.5 31.5l-16 -2q35 -2 62.5 -29.5t27.5 -68.5q0 -39 -29 -67.5t-69 -28.5q-41 0 -69.5 28.5t-28.5 67.5
q0 65 46 105q30 23 81 23q62 0 94.5 -37t32.5 -96q0 -72 -41 -112t-102 -56t-120 -16q-128 0 -212.5 64t-126 165.5t-41.5 223.5q0 198 113 334q123 149 336 149q108 0 194 -37l3 496h-54v55h323v-55h-54v-1330h54v-55z" />
    <glyph glyph-name="e" unicode="e" horiz-adv-x="874" 
d="M226 191q-93 99 -93 271q0 160 98 271q-54 -111 -54 -265q0 -155 49 -277zM331 81q-65 73 -93.5 176.5t-28.5 210.5q0 119 39 221.5t133 166.5q-134 -38 -207 -144t-73 -250q0 -135 57 -232.5t173 -148.5zM508 -10q-179 0 -311 109q-152 124 -152 363q0 124 51.5 227.5
t151.5 170t248 66.5q111 0 183.5 -38.5t107.5 -104.5t35 -133q0 -100 -44 -165t-112.5 -97t-141.5 -32q-64 0 -121 21t-93 62t-36 111q0 41 28.5 69.5t69.5 28.5q40 0 69 -28.5t29 -69.5q0 -40 -29 -68.5t-69 -28.5q-19 0 -36 6q16 -23 55 -39q52 -22 118 -22q58 0 114 23.5
t92 78t36 147.5q0 50 -22.5 99t-67.5 76t-112 27t-132.5 -37.5t-109 -119.5t-43.5 -224q0 -164 59 -279q72 -142 218 -142q155 0 209 132h-56v55h174v-55h-56q-67 -189 -304 -189z" />
    <glyph glyph-name="f" unicode="f" horiz-adv-x="605" 
d="M261 87h-44v966q0 142 91 231q-47 -105 -47 -235v-962zM293 55v994q0 94 29 181.5t91 145.5q-105 -32 -166 -114t-61 -209v-998h107zM404 0h-330v55h56v806h-57v55h57v137q0 126 53.5 214t146.5 135.5t212 47.5q140 0 208 -77q40 -47 40 -91q0 -39 -11.5 -73t-38 -55
t-70.5 -21q-55 0 -90 30q-41 36 -41 96q0 41 28.5 69.5t69.5 28.5q40 0 69 -28.5t29 -69.5q0 -40 -29 -69q-22 -22 -51 -27h11q41 0 64.5 28t23.5 68q0 63 -39 99t-100 36q-99 0 -157 -51t-83.5 -130.5t-25.5 -163.5v-133h237v-55h-237v-806h55v-55z" />
    <glyph glyph-name="g" unicode="g" horiz-adv-x="1022" 
d="M739 -262q27 76 33 158q5 69 5 132l-2 800h44q6 -688 6 -785q0 -202 -86 -305zM228 158q-96 104 -96 295q0 160 96 272q-55 -127 -55 -275q0 -171 55 -292zM636 -364q221 71 221 403l-6 821h-108q2 -807 2 -842q0 -86 -12 -179q-18 -124 -97 -203zM339 56
q-75 69 -104.5 174.5t-29.5 219.5q0 103 33.5 212.5t111.5 183.5q-124 -48 -187 -158t-63 -235q0 -149 60 -255.5t179 -141.5zM494 -434q-242 0 -290 214h-57v55h172v-55h-53q38 -149 188 -149q151 0 200 129q35 92 35 293l-1 766q-68 48 -145 48q-93 0 -156 -61.5
t-94.5 -157t-31.5 -198.5q0 -117 26 -203.5t80 -141t136 -54.5q60 0 100 31.5t40 93.5q0 40 -22 71.5t-65 31.5q-13 0 -24 -4q39 0 68 -28.5t29 -69.5q0 -40 -29 -68.5t-69 -28.5q-41 0 -69.5 28.5t-28.5 68.5q0 60 39 99q33 31 90 31q60 0 93 -37t33 -96q0 -72 -41 -112
t-102 -56t-120 -16q-128 0 -212.5 64t-126.5 165.5t-42 233.5q0 188 113 324q124 149 337 149q109 0 194 -46l-1 36h276v-55h-56l6 -808q0 -233 -96.5 -360t-322.5 -127z" />
    <glyph glyph-name="h" unicode="h" horiz-adv-x="1003" 
d="M834 88h-43q0 554 -26 664q60 -76 67 -177q2 -47 2 -487zM247 87h-44v1265h44v-1265zM866 56q0 492 -12 567.5t-52 135t-118 93.5q58 -65 69 -238q6 -90 6 -558h107zM279 55v1329h-108v-1329h108zM390 0h-331v55h57v1330h-57v55h331v-55h-55v-1330h55v-55zM551 600
q-35 -30 -79 -30q-33 0 -64.5 15.5t-51.5 47.5t-20 81q0 91 73.5 151.5t181.5 60.5q130 0 202.5 -69.5t100.5 -173t28 -628.5h55v-55h-330v55h56q0 608 -32 706q-34 99 -139 99q-81 0 -121.5 -45.5t-40.5 -100.5q0 -44 16.5 -69t39.5 -36t43 -11q12 0 21 3q-38 1 -65 28
q-29 29 -29 69q0 41 28.5 69.5t69.5 28.5q40 0 69.5 -28.5t29.5 -69.5q0 -63 -42 -98z" />
    <glyph glyph-name="i" unicode="i" horiz-adv-x="606" 
d="M395 87h-43v742h43v-742zM427 55v805h-107v-805h107zM369 1044q-47 0 -79 31.5t-32 77.5q0 44 32 76t79 32q44 0 76.5 -32t32.5 -76q0 -46 -32.5 -77.5t-76.5 -31.5zM140 580q-60 0 -89.5 35.5t-29.5 88.5q0 87 65 149.5t178 62.5h275v-55h-56v-806h56v-55h-331v55h56
v800q-85 0 -128.5 -27.5t-63 -64.5t-19.5 -71q0 -58 35 -72q-24 27 -24 63q0 41 28.5 69.5t69.5 28.5q40 0 69 -28.5t29 -69.5q0 -40 -29 -68q-36 -35 -91 -35z" />
    <glyph glyph-name="j" unicode="j" horiz-adv-x="512" 
d="M122 -364q221 72 221 404q0 100 -6 820h-108q2 -807 3 -843q0 -85 -14 -178q-17 -124 -96 -203zM225 -262q27 76 33 158q5 69 5 132l-2 800h44q6 -688 6 -786q0 -201 -86 -304zM280 1044q-46 0 -78 31.5t-32 77.5q0 44 32 76t78 32t78 -32t32 -76q0 -46 -32 -77.5
t-78 -31.5zM-60 -369q150 0 200 129q35 92 35 293l-2 808h-55v55h330v-55h-55l5 -808q0 -232 -96 -359.5t-322 -127.5q-242 0 -290 214h-57v55h172v-55h-53q38 -149 188 -149z" />
    <glyph glyph-name="k" unicode="k" horiz-adv-x="902" 
d="M247 87h-44v1265h44v-1265zM279 55v1329h-108v-1329h108zM748 55l-340 507l-28 -43l295 -464h73zM847 755q-2 42 -26 80q-26 42 -77 42q-125 0 -302 -265l373 -557h56v-55h-226l-301 472l-9 -18v-399h55v-55h-331v55h57v1330h-57v55h331v-55h-55l-5 -841q80 128 175 230
q129 142 225 142q91 0 128 -86q17 -39 17 -81q0 -50 -25 -89q-28 -42 -93 -42q-41 0 -69.5 28.5t-28.5 68.5q0 41 28.5 69.5t69.5 28.5q40 0 69 -28q13 -14 21 -30z" />
    <glyph glyph-name="l" unicode="l" horiz-adv-x="611" 
d="M246 88h-44v1264h44v-1264zM278 56v1328h-108v-1328h108zM475 352q71 0 106.5 -45t35.5 -105q-3 -92 -64 -147t-147 -55h-347v55h56v1330h-57v55h331v-55h-55v-1330h72q53 0 92 24.5t59.5 62t20.5 76.5q0 48 -34 78q12 -21 12 -48q0 -40 -29 -68.5t-69 -28.5
q-41 0 -69.5 28.5t-28.5 68.5q0 41 29 69q36 35 86 35z" />
    <glyph glyph-name="m" unicode="m" horiz-adv-x="1494" 
d="M779 88h-43v476q0 142 -22 215q65 -73 65 -215v-476zM247 88h-43l3 740h40v-740zM1316 88h-44v476q0 138 -26 220q70 -73 70 -220v-476zM811 56v508q0 248 -182 300q37 -36 55 -93q20 -69 20 -207v-508h107zM279 56v804h-103l-4 -804h107zM1348 56v508q0 253 -189 302
q67 -65 77 -196q5 -56 5 -614h107zM1459 0h-330v55h56q0 561 -4 613q-17 193 -157 193q-65 0 -106 -50t-41 -104q0 -44 24.5 -75.5t75.5 -33.5q14 0 23 4q-42 0 -70.5 28.5t-28.5 68.5q0 41 28.5 69.5t69.5 28.5q40 0 69 -28.5t29 -69.5q0 -66 -39 -99q-36 -30 -80 -30
q-74 0 -114 62q3 -32 3 -577h55v-55h-330v55h56q0 561 -3 613q-12 193 -157 193q-44 0 -73 -23.5t-43 -59t-14 -71.5q0 -44 24.5 -75.5t73.5 -33.5q14 0 23 4q-42 0 -70.5 28.5t-28.5 68.5q0 41 28.5 69.5t69.5 28.5q40 0 69 -28.5t29 -69.5q0 -68 -37 -98.5t-81 -30.5
q-37 0 -71 19t-52 58v-592h54v-55h-329v55h56l4 806h-60v55h275v-123q25 68 81 103t124 35q59 0 119 -18.5t108.5 -63t75.5 -121.5q9 98 79.5 150.5t154.5 52.5q134 0 221 -76q106 -92 106 -291v-509h55v-55z" />
    <glyph glyph-name="n" unicode="n" horiz-adv-x="1015" 
d="M840 88h-44v385q0 171 -26 279q61 -76 67 -177q3 -47 3 -487zM247 88h-43l3 740h40v-740zM872 56v417q0 74 -12 149.5t-58.5 146t-112.5 83.5q57 -64 70 -225q6 -79 6 -154v-417h107zM279 56v804h-103l-4 -804h107zM389 0h-329v55h56l4 806h-60v55h275v-861h54v-55z
M557 600q-35 -30 -80 -30q-33 0 -64.5 15.5t-51 47.5t-19.5 81q0 91 74 151.5t181 60.5q130 0 202.5 -69.5t100.5 -173t28 -210.5v-418h55v-55h-330v55h56v418q0 194 -33 290.5t-138 96.5q-81 0 -121.5 -45.5t-40.5 -100.5q0 -44 16.5 -69t39 -36t43.5 -11q16 0 27 5h-2
q-41 0 -69.5 28.5t-28.5 68.5q0 41 28.5 69.5t69.5 28.5q40 0 69 -28.5t29 -69.5q0 -65 -41 -100z" />
    <glyph glyph-name="o" unicode="o" horiz-adv-x="928" 
d="M227 181q-96 104 -96 277q0 172 96 276q-55 -142 -55 -277q0 -134 55 -276zM707 188q49 148 49 270t-48 269q89 -104 89 -269q0 -166 -90 -270zM464 55q128 0 187 249q-66 -66 -146 -66t-135 60q-13 14 -22 33q-24 46 -24 94q0 51 22 87.5t56 56t69 19.5q53 -1 88 -33
q29 -29 29 -71t-29.5 -72t-70.5 -30t-70.5 30t-29.5 72q0 16 4 29q-27 -38 -27 -86q0 -37 15.5 -70t47 -54.5t77.5 -21.5q67 0 115.5 51t48.5 126q0 118 -46 244q-57 158 -159 158q-98 0 -157 -160q-47 -130 -47 -243q0 -112 47 -242q59 -160 157 -160zM619 85
q103 47 156.5 146t53.5 227q0 127 -53.5 226t-157.5 146q57 -81 81.5 -189t24.5 -183t-24.5 -183t-80.5 -190zM315 83q-51 73 -74 152q-37 122 -37 222q0 97 37 223q23 79 74 152q-107 -45 -161 -145t-54 -229q0 -130 54 -230t161 -145zM464 0q-135 0 -229 61t-142.5 164.5
t-48.5 232.5q0 128 49 231.5t142.5 164.5t228.5 61t228.5 -61t142.5 -164.5t49 -231.5t-48.5 -232t-142.5 -165t-229 -61z" />
    <glyph glyph-name="p" unicode="p" horiz-adv-x="1022" 
d="M245 -436h-39v1264h38zM797 191q55 136 55 285q0 161 -55 281q96 -104 96 -284q0 -170 -96 -282zM276 -468v1328h-102v-1328h102zM675 70q123 48 186.5 157.5t63.5 245.5q0 138 -60 244.5t-181 142.5q76 -70 106 -175t30 -209q0 -113 -34 -222.5t-111 -183.5zM387 -524
h-324v55h55v1329h-55v56h269l2 -828q69 -40 147 -40q93 0 156 61.5t95 157.5t32 209q0 105 -26 192.5t-80.5 142t-136.5 54.5q-60 0 -100 -32t-40 -93q0 -40 22.5 -71.5t65.5 -31.5q15 0 27 5q-42 0 -70.5 28.5t-28.5 68.5q0 41 28.5 69.5t69.5 28.5q40 0 69 -28.5t29 -69.5
q0 -58 -32 -94t-98 -36q-60 0 -93 37t-33 96q0 72 41 112t102 56t120 16q128 0 212 -64t126 -165.5t42 -223.5q0 -199 -112 -333q-126 -151 -338 -151q-109 0 -196 38l-2 -496h55v-55z" />
    <glyph glyph-name="q" unicode="q" horiz-adv-x="1023" 
d="M820 -436h-40v1264h40v-1264zM227 158q-94 104 -94 285q0 169 96 282q-55 -136 -55 -285q0 -161 53 -282zM852 -468v1328h-104v-1328h104zM340 55q-75 70 -104.5 175.5t-29.5 209.5q0 113 33.5 222t109.5 184q-122 -48 -185 -158t-63 -245q0 -139 59 -245.5t180 -142.5z
M472 275q34 31 91 31q60 0 92.5 -36.5t32.5 -95.5q0 -72 -41 -112t-102 -56.5t-120 -16.5q-127 0 -211.5 64.5t-126.5 165.5t-42 224q0 196 113 334q122 149 337 149q111 0 198 -48v38h270v-56h-55v-1329h55v-55h-324v55h55l-1 1284q-67 52 -149 52q-93 0 -156.5 -61.5
t-95.5 -157t-32 -208.5q0 -107 27 -193.5t81 -141t136 -54.5q60 0 100 31.5t40 93.5q0 40 -22 71.5t-65 31.5q-9 0 -17 -2q36 -2 62 -28q29 -29 29 -70q0 -39 -29 -67.5t-69 -28.5q-41 0 -69.5 28.5t-28.5 67.5q0 61 37 96z" />
    <glyph glyph-name="r" unicode="r" horiz-adv-x="796" 
d="M247 88h-43l3 741h40v-741zM279 56v805h-103l-4 -805h107zM389 0h-329v55h56l4 807h-60v55h275v-184q52 79 122 136t152 57q60 0 98 -22t56.5 -55t18.5 -69q0 -53 -38.5 -93.5t-110.5 -41.5q-51 0 -79.5 28.5t-28.5 68.5q0 41 28.5 69.5t69.5 28.5q40 0 69 -28.5
t29 -69.5q0 -18 -6 -34q30 21 30 75q0 20 -12.5 43.5t-42 41t-78.5 17.5q-130 0 -277 -256v-574h54v-55z" />
    <glyph glyph-name="s" unicode="s" horiz-adv-x="954" 
d="M738 103q27 45 27 94q0 58 -44.5 100.5t-114 75.5t-146.5 63t-145 62t-111 73t-43 98q0 53 58 92q-16 -42 -16 -78q0 -70 47 -117t120 -82.5t153 -65.5q74 -28 138.5 -58.5t105 -69t40.5 -87.5q0 -55 -69 -100zM670 53q169 52 169 150q0 61 -44 106t-112.5 76.5t-145 59
t-144.5 59.5t-111.5 76.5t-43.5 110.5q0 94 90 154q-42 -12 -88 -34.5t-78.5 -57.5t-32.5 -84q0 -67 49 -115t123.5 -84t155.5 -68q72 -27 134.5 -56.5t102 -65t39.5 -83.5q0 -76 -63 -144zM453 -16q-307 0 -355 261h-57v55h172v-55h-53q38 -206 293 -206q115 0 169.5 44.5
t54.5 113.5q0 27 -30 51q-41 33 -188 93q-164 62 -257 125q-129 86 -129 203q0 83 65.5 140t167.5 87t210 30q99 0 188 -27t144.5 -80.5t55.5 -135.5q0 -56 -39 -96.5t-115 -40.5q-54 0 -97 30t-43 89q0 36 16 65q29 47 85 47q40 0 69 -28.5t29 -69.5q0 -40 -29 -68.5
t-69 -28.5q-9 0 -18 2q13 -12 50 -12q52 0 78.5 31.5t26.5 74.5q0 120 -141 161q-55 17 -118 17q-169 0 -254 -76q-41 -38 -41 -89q0 -47 36 -80.5t93.5 -59.5t125.5 -51q62 -22 123 -48t111 -60.5t81 -82t31 -106.5q0 -95 -115 -157t-327 -62z" />
    <glyph glyph-name="t" unicode="t" horiz-adv-x="664" 
d="M289 114q-74 64 -74 225l-1 711l39 10q2 -785 6.5 -840t29.5 -106zM412 46q-90 38 -107.5 114t-17.5 151l-2 792l-103 -29l2 -743q0 -118 43 -195q47 -81 185 -90zM440 -11q-157 0 -234.5 84.5t-77.5 274.5l-1 512h-89v56h89v200l214 60v-260h210v-56h-210l1 -556
q0 -46 6 -89q7 -55 40 -91.5t113 -36.5q56 0 87 40.5t31 91.5q0 39 -20.5 68.5t-71.5 29.5q23 -6 42 -25q29 -28 29 -69q0 -40 -29 -68.5t-69 -28.5q-41 0 -69.5 28.5t-28.5 68.5q0 58 41 94q36 31 81 31q54 0 93 -36.5t39 -116.5q0 -96 -61.5 -151t-154.5 -55z" />
    <glyph glyph-name="u" unicode="u" horiz-adv-x="1026" 
d="M254 163q-59 77 -66 178q-3 47 -3 487h44v-385q0 -171 25 -280zM817 88h-39v740h44zM336 64q-57 64 -69 225q-6 79 -6 154v417h-108v-417q0 -74 12 -149.5t51.5 -136t119.5 -93.5zM849 56l5 804h-107v-804h102zM965 0h-274v861h-55v55h329v-55h-55l-5 -806h60v-55z
M468 316q36 30 80 30q33 0 64 -15.5t51.5 -47.5t20.5 -81q0 -91 -74 -151.5t-183 -60.5q-128 0 -200.5 69.5t-100.5 173t-28 210.5v418h-56v55h331v-55h-56v-418q0 -194 33 -290.5t138 -96.5q80 0 121 45t41 101q0 44 -17.5 69t-40 35.5t-43.5 10.5q-19 0 -30 -7l8 1
q39 0 68.5 -28.5t29.5 -69.5q0 -40 -29.5 -68.5t-68.5 -28.5q-42 0 -70.5 28.5t-28.5 68.5q0 68 40 103z" />
    <glyph glyph-name="v" unicode="v" horiz-adv-x="934" 
d="M449 87h-32l-253 741h31zM494 55l-278 805h-97l275 -805h100zM607 594q-54 0 -88.5 35.5t-34.5 90.5q0 71 36.5 114t94.5 62.5t125 19.5h197v-56h-56l-312 -805h58v-55h-347v55h56l-276 806h-74v55h345v-55h-55l249 -726l281 725h-66q-222 0 -222 -154q0 -47 39 -73
q-28 28 -28 68q0 41 28.5 69.5t69.5 28.5q40 0 69 -28.5t29 -69.5q0 -40 -29 -68q-39 -39 -89 -39z" />
    <glyph glyph-name="w" unicode="w" horiz-adv-x="1439" 
d="M450 87h-33l-253 741h31zM797 549l158 -462h-32l-142 414zM494 55l-277 805h-98l275 -805h100zM900 55h99l-201 586l-50 -140zM607 594q-54 0 -88.5 35.5t-34.5 90.5q0 71 36.5 114t94.5 62.5t125 19.5h197v-56h-55l-52 -139l201 -586l281 726h-56v55h187v-55h-56
q-164 -447 -312 -806h57v-55h-346v55h56l-126 368q-92 -235 -147 -368h58v-55h-347v55h56l-276 806h-74v55h347v-55h-57l249 -726l281 725h-66q-220 0 -220 -154q0 -49 42 -75q-29 31 -29 69q0 41 28.5 69.5t69.5 28.5q40 0 69 -28.5t29 -69.5q0 -40 -29 -68
q-41 -38 -93 -38z" />
    <glyph glyph-name="x" unicode="x" horiz-adv-x="1048" 
d="M812 87h-35l-586 741h34zM878 55l-638 805h-114l635 -805h117zM992 813q-5 30 -28 49q-29 25 -68 25q-72 0 -162 -121l-173 -221l389 -490h55v-55h-367v55h53l-259 326l-255 -326h55v-55h-186l-1 55h56l295 373l-342 433h-56v55h367v-55h-55l216 -271l166 210
q98 126 198 126q57 0 97 -33.5t40 -92.5q0 -47 -30 -84q-34 -41 -94 -41q-41 0 -69.5 28.5t-28.5 68.5q0 41 28.5 69.5t69.5 28.5q40 0 69 -29q13 -13 20 -28z" />
    <glyph glyph-name="y" unicode="y" horiz-adv-x="1020" 
d="M283 105q-44 25 -62 81q-25 72 -25 208v435h44v-452q0 -58 5.5 -129.5t37.5 -142.5zM746 -252q38 109 38 293l-3 787h45q4 -590 4 -783q0 -195 -84 -297zM362 52q-60 66 -75.5 144.5t-15.5 179.5q0 37 1 485h-108v-484q0 -66 6 -128q10 -78 52 -131t140 -66zM641 -354
q221 71 221 403q0 177 -4 811h-108q3 -797 3 -832q0 -89 -15 -187q-18 -119 -97 -195zM468 156q-24 28 -24 74q0 57 35.5 87t79.5 30q33 0 64 -15.5t51.5 -47.5t20.5 -81q0 -91 -74 -152t-183 -61q-142 2 -214 54t-94 152.5t-22 247.5v418h-55v55h329v-55h-54
q-1 -461 -1 -475q0 -131 20 -203q35 -127 151 -127q81 0 121 45.5t40 100.5q0 44 -16.5 69t-39 36t-43.5 11q-14 0 -23 -4q47 0 76 -28.5t29 -69.5q0 -40 -29 -68.5t-69 -28.5q-44 0 -76 36zM461 -369q149 0 200 139q35 92 35 293l-2 798h-56v55h330v-55h-54l4 -798
q0 -233 -95.5 -365t-321.5 -132q-242 0 -290 214h-57v55h172v-55h-53q38 -149 188 -149z" />
    <glyph glyph-name="z" unicode="z" horiz-adv-x="987" 
d="M308 87h-57l446 741h56zM326 55l484 805h-131l-484 -805h131zM224 594q-55 0 -89 35.5t-34 90.5q0 71 36 114t94.5 62.5t124.5 19.5h552l-517 -861h259q220 0 220 155q0 47 -41 73q27 -27 27 -67t-29 -68.5t-69 -28.5q-41 0 -69.5 28.5t-28.5 68.5q0 41 28 69
q35 37 94 37q55 0 89 -36t34 -91q0 -71 -36.5 -114t-94.5 -62t-124 -19h-553l517 860h-258q-221 0 -221 -154q0 -44 33 -69q-21 26 -21 61q0 41 28.5 69.5t69.5 28.5q40 0 69 -28.5t29 -69.5q0 -40 -29 -69q-37 -35 -90 -35z" />
    <glyph glyph-name="braceleft" unicode="{" horiz-adv-x="819" 
d="M731 -283q-410 0 -482 182q-26 61 -26 132q0 92 43 249q36 143 36 208q0 30 -8.5 70t-56.5 70.5t-149 30.5v61q184 0 209 112q5 27 5 57q0 64 -36 206q-43 153 -43 244q0 177 142.5 243t365.5 66v-55q-248 0 -291 -138q-12 -41 -12 -89q0 -71 35 -217.5t35 -231.5
q0 -69 -33 -132t-148 -96q116 -33 154 -105q30 -59 30 -132q0 -82 -37 -232q-34 -145 -34 -220q0 -48 15 -100.5t82 -89.5t204 -37v-56zM316 747q83 26 105 76.5t22 104.5q0 72 -34 209q-36 146 -36 245t63 173q-103 -37 -130.5 -96t-27.5 -120q0 -79 40 -222
q42 -148 42 -229q0 -68 -31 -123q-6 -10 -13 -18zM438 -190q-64 76 -64 177q0 100 38 247q35 137 35 214q0 53 -19 96q-26 60 -113 88q44 -57 44 -146q0 -81 -40.5 -228.5t-40.5 -227.5q0 -61 23 -112q32 -69 137 -108zM355 -105q-44 49 -44 127q0 90 39 236q39 158 39 233
q0 37 -6 67q30 -39 30 -105q0 -74 -33 -219q-35 -169 -35 -250q0 -48 10 -89zM383 822q6 29 6 62q0 73 -39 229q-39 144 -39 232q0 76 43 125q-12 -43 -12 -93q0 -86 37 -247q31 -143 31 -213q0 -60 -27 -95z" />
    <glyph glyph-name="bar" unicode="|" horiz-adv-x="858" 
d="M450 -200h-50v1899h58z" />
    <glyph glyph-name="braceright" unicode="}" horiz-adv-x="819" 
d="M464 -105q10 41 10 89q0 81 -35 250q-33 145 -33 219q0 66 30 105q-6 -30 -6 -68q0 -74 39 -232q39 -146 39 -236q0 -78 -44 -127zM436 822q-27 35 -27 95q0 70 31 213q37 162 37 246q0 50 -12 94q43 -48 43 -125q0 -89 -39 -232q-39 -156 -39 -229q0 -32 6 -62zM503 747
q-7 8 -13 18q-30 55 -30 123q0 81 41 229q41 143 41 223q0 60 -28 119t-131 96q63 -74 63 -173t-37 -245q-33 -137 -33 -209q0 -55 22 -105t105 -76zM381 -190q105 39 137 108q24 51 24 112q0 80 -41 227.5t-41 228.5q0 89 44 146q-87 -28 -113 -88q-19 -42 -19 -97
q0 -75 35 -213q38 -147 38 -247q0 -101 -64 -177zM88 -283v56q137 0 204 37t82 89.5t15 99.5q0 75 -34 221q-38 151 -38 233q0 72 31 131q38 72 154 105q-115 33 -148 96t-33 132q0 84 35 231t35 218q0 48 -12 89q-42 138 -291 138v55q223 0 365 -66t142 -243
q0 -92 -42 -244q-36 -142 -36 -207q0 -29 5 -56q25 -112 209 -112v-61q-101 0 -149 -30.5t-56.5 -70.5t-8.5 -70q0 -65 36 -208q42 -157 42 -249q0 -71 -25 -132q-72 -182 -482 -182z" />
    <glyph glyph-name="asciitilde" unicode="~" horiz-adv-x="928" 
d="M328 546q-109 0 -240 175l46 32q112 -133 194 -133q33 0 136 72q88 63 136 63q109 0 240 -175l-46 -32q-112 133 -194 133q-33 0 -136 -72q-88 -63 -136 -63z" />
    <glyph glyph-name="exclamdown" unicode="&#xa1;" horiz-adv-x="380" 
d="M196 415l26 -842h-39zM167 574l-16 -1033h104l-34 1033h-54zM113 630h161l39 -1144h-219zM194 926q45 0 77 -32t32 -77q0 -44 -32 -76t-77 -32q-47 0 -79 32t-32 76q0 45 32 77t79 32z" />
    <glyph glyph-name="cent" unicode="&#xa2;" horiz-adv-x="1036" 
d="M408 192q-97 100 -97 268q0 177 111 280q-67 -119 -67 -285q0 -149 53 -263zM530 77q-77 71 -110 170t-33 208q0 123 41.5 225t135.5 170q-137 -40 -211 -140t-74 -250q0 -139 63.5 -237.5t187.5 -145.5zM554 130l206 517q-32 36 -32 92q0 41 28.5 69.5t69.5 28.5h10
l9 23q-26 7 -59 7q-127 0 -226 -92q-117 -108 -117 -320q0 -136 44 -225q28 -59 67 -100zM884 818q5 -4 11 -9q29 -29 29 -70q0 -40 -29 -68.5t-70 -28.5q11 -5 26 -5q43 0 66 32t23 73q0 31 -16 60q-12 20 -33 35zM595 95q1 -1 2 -1q67 -47 141 -47q53 0 104 28t76 70h-56
v55h174v-55h-56q-45 -81 -118 -118t-165 -37q-72 0 -137 17l-83 -207h-55l89 223q-71 28 -133 79q-154 125 -154 358q0 136 56.5 240t167 165t272.5 61q85 0 143 -22l78 196h55l-88 -220q28 -19 46 -46q28 -43 28 -94q0 -55 -31.5 -93t-93.5 -38q-31 0 -54 8z" />
    <glyph glyph-name="sterling" unicode="&#xa3;" horiz-adv-x="1079" 
d="M412 237q53 90 53 176q0 66 -20.5 121.5t-53 104.5t-69.5 96.5t-70 99t-54.5 109.5t-21.5 129q0 132 100 217q-51 -98 -51 -217q0 -86 23.5 -154.5t59 -127.5t73.5 -111q49 -65 84.5 -129t35.5 -138q0 -94 -89 -176zM256 91q60 33 123.5 79.5t108.5 107t45 135.5
q0 55 -18 102t-46 90.5t-60 87.5q-37 50 -72 106t-57.5 123t-22.5 151q0 245 192 328q-84 -13 -153 -56.5t-110.5 -112t-41.5 -159.5q0 -78 22.5 -139.5t57.5 -114.5t71.5 -100t68 -94t50.5 -99t19 -113q0 -62 -27 -119t-68 -108t-82 -95zM755 0q-58 0 -124 12
q-95 14 -159 14q-91 0 -188 -26h-196q130 130 149 152q139 150 139 273h-275v57h265q-20 70 -55.5 124t-74.5 102t-72 99.5t-54.5 115t-21.5 150.5q0 120 62 207.5t162 135.5t215 48q107 0 206 -43.5t163 -125.5t64 -199q0 -62 -20 -125.5t-64 -106.5t-117 -43
q-49 0 -87.5 30t-38.5 95q0 41 29 70.5t71 29.5q41 0 71 -29.5t30 -70.5t-30 -70t-71 -29q-6 0 -12 1q9 -4 25 -4q60 0 97 35t53.5 87.5t16.5 106.5q0 119 -90.5 210.5t-210.5 91.5q-146 0 -222.5 -78.5t-76.5 -223.5q0 -78 20 -137q29 -89 116 -207q41 -54 76 -112.5
t54 -134.5h271v-57h-263q0 -94 -38 -159q-65 -108 -242 -210q131 74 224 74q57 0 111.5 -14.5t102.5 -14.5q78 0 124 74l122 1q-53 -176 -236 -176z" />
    <glyph glyph-name="currency" unicode="&#xa4;" 
d="M400 480q119 0 122 170q-2 170 -122 170q-69 0 -99 -69q-22 -50 -22 -101q0 -50 22 -100q30 -70 99 -70zM601 409l-78 78q-49 -42 -124 -42q-72 0 -120 42l-79 -78l-41 40l82 82q-31 52 -31 116q0 69 31 122l-82 82l41 40l78 -77q47 42 121 42q63 0 105 -30l18 -14l79 79
l41 -40l-84 -84q32 -54 32 -121q0 -65 -30 -115l82 -82z" />
    <glyph glyph-name="yen" unicode="&#xa5;" horiz-adv-x="1184" 
d="M602 88h-44l3 588l-305 676h24l322 -719v-545zM634 56v584l-334 744h-95l324 -713l-3 -615h108zM726 1119q-54 0 -88.5 35t-34.5 90q0 72 36.5 114.5t95 62t124.5 19.5h237v-56h-55l-352 -683v-5h277v-57h-277v-157h277v-57h-277v-369h55v-56h-331v56h57v369h-253v57h253
v157h-253v57h238l-310 688h-57v56h331v-56h-59l285 -647l338 647h-124q-222 0 -222 -154q0 -42 32 -67q-19 25 -19 58q0 41 28.5 69.5t69.5 28.5q40 0 69 -28.5t29 -69.5q0 -40 -29 -68q-34 -34 -91 -34z" />
    <glyph glyph-name="section" unicode="&#xa7;" horiz-adv-x="1063" 
d="M827 151q8 26 8 54q0 59 -44.5 101t-113.5 75t-146 63t-145 62.5t-111 74t-43 96.5q0 53 57 93q-13 -32 -13 -70q0 -77 48.5 -128t122.5 -85.5t155 -64.5q72 -26 134.5 -55t102 -67.5t39.5 -94.5q0 -28 -51 -54zM844 668v5q0 86 -44.5 139t-123 94.5t-165.5 75.5
q-73 29 -136.5 60.5t-103 71t-39.5 93.5q0 53 58 93q-14 -33 -14 -71q0 -72 50 -123t126.5 -89.5t158.5 -70.5q113 -43 192 -93q74 -46 74 -114q0 -38 -33 -71zM568 529q74 17 131.5 59.5t57.5 96.5q0 53 -44.5 93.5t-137.5 81.5q-88 -14 -149.5 -55t-61.5 -105
q0 -80 115 -133q80 -38 89 -38zM770 578q45 21 88 58q51 47 51 103q0 83 -81 134q-89 57 -210 103q-79 31 -149 65t-115.5 79t-45.5 109q0 95 90 154q-42 -11 -87.5 -33.5t-78 -58t-32.5 -84.5q0 -66 44 -111.5t110 -79.5t149 -66q122 -46 216 -111.5t94 -156.5
q0 -60 -43 -104zM755 89q155 44 155 116q0 68 -44 112.5t-112.5 77t-145.5 60t-144.5 59.5t-111.5 76t-44 110q0 95 91 154q-45 -12 -91 -35t-77 -58t-31 -84q0 -67 48.5 -114.5t123 -83.5t156.5 -67q72 -29 134 -58.5t101.5 -65t39.5 -83.5q0 -66 -48 -116zM488 2
q-77 0 -145.5 10.5t-120 39t-78.5 79.5h-56v56h177v-56h-55q26 -37 111 -55t172 -18q66 0 124 16t94 49t36 82q0 29 -29.5 52.5t-78.5 45.5t-110 46q-65 26 -132.5 56.5t-124.5 69t-92.5 88t-35.5 114.5q0 64 39.5 112.5t104 81t144.5 48.5q-74 31 -139.5 71.5t-107 93.5
t-41.5 123q0 84 65.5 141t167 86.5t209.5 29.5q99 0 188 -27t145 -80.5t56 -135.5q0 -56 -39.5 -96.5t-115.5 -40.5q-54 0 -97 30.5t-43 88.5q0 57 29.5 85.5t70.5 28.5t70.5 -29t29.5 -70t-29.5 -70t-70.5 -29h-12q13 -8 45 -8q52 0 79 31t27 75q0 62 -40 102t-100.5 58.5
t-130.5 18.5q-74 0 -138 -20.5t-105 -57t-41 -89.5q0 -50 39.5 -87t101.5 -67.5t134 -58.5q124 -47 222 -109.5t105 -167.5q-2 -84 -80 -151.5t-207 -100.5q74 -27 139 -63.5t106.5 -88.5t41.5 -130q0 -70 -69.5 -115t-178.5 -66.5t-230 -21.5z" />
    <glyph glyph-name="dieresis" unicode="&#xa8;" horiz-adv-x="676" 
d="M181 1044q-38 0 -65.5 27t-27.5 66q0 37 27.5 64.5t65.5 27.5q40 0 67 -27.5t27 -64.5q0 -39 -27 -66t-67 -27zM494 1044q-38 0 -65.5 27t-27.5 66q0 37 27.5 64.5t65.5 27.5q40 0 67 -27.5t27 -64.5q0 -39 -27 -66t-67 -27z" />
    <glyph glyph-name="copyright" unicode="&#xa9;" horiz-adv-x="1504" 
d="M750 3q-297 0 -507.5 210t-210.5 507q0 298 210.5 508t507.5 210q298 0 508 -210t210 -508q0 -297 -210 -507t-508 -210zM749 32q283 0 484 202t201 488q0 285 -201 487t-484 202q-284 0 -485 -202t-201 -487q0 -286 201 -488t485 -202zM578 451q-47 53 -69 119
q-24 70 -24 144q0 153 88 262q-59 -109 -59 -270q1 -141 64 -255zM699 350q-111 70 -147 227q-17 73 -17 146q0 115 46 223q42 91 117 140q-83 -30 -135.5 -91t-76 -135t-23.5 -146q0 -124 62 -225q58 -97 174 -139zM827 298q-189 0 -298 125q-104 119 -104 292
q0 165 95 285q109 138 299 138q73 0 120.5 -25.5t71 -64t23.5 -79.5q0 -35 -15.5 -66.5t-46.5 -51t-76 -19.5q-46 0 -70.5 21t-24.5 54q0 25 20 42t48 17q27 0 47 -17t20 -42t-20 -42q-16 -14 -38 -17h9q35 0 58.5 15.5t35.5 41t12 53.5q0 32 -17.5 62.5t-53.5 50.5t-90 20
q-124 0 -196 -121q-64 -107 -64 -251q0 -77 19 -148q38 -138 134 -197q49 -30 113 -30q62 0 97 20t61 60h-40v32h117v-32h-38q-29 -56 -82.5 -91t-125.5 -35z" />
    <glyph glyph-name="guillemotleft" unicode="&#xab;" horiz-adv-x="738" 
d="M387 103h-49l-250 343l250 342h49l-245 -347zM650 103h-49l-250 343l250 342h49l-245 -347z" />
    <glyph glyph-name="logicalnot" unicode="&#xac;" horiz-adv-x="802" 
d="M714 409h-58v284h-568v57h626v-341z" />
    <glyph glyph-name="registered" unicode="&#xae;" horiz-adv-x="1612" 
d="M806 3q-297 0 -507.5 210t-210.5 507q0 298 210.5 508t507.5 210q298 0 508 -210t210 -508q0 -297 -210 -507t-508 -210zM805 32q283 0 484 202t201 488q0 285 -201 487t-484 202q-284 0 -485 -202t-201 -487q0 -286 201 -488t485 -202zM646 349h-29v738h29v-738z
M1056 728q23 71 23 136q0 73 -37 132q61 -54 61 -141q0 -68 -47 -127zM669 330v7h-1v762h1v7h-74v-776h74zM978 642q66 33 106 90t40 123q0 63 -27.5 107t-74 72.5t-103.5 44.5q138 -69 138 -215q0 -139 -79 -222zM1047 298q-84 0 -153 63t-130 186q-22 45 -39 82.5
t-17 68.5q0 29 22 54t57 25q46 0 66 -18t20 -42q0 -23 -19 -39.5t-46 -16.5q-26 0 -45.5 16.5t-19.5 39.5q0 16 8 28q-17 -13 -17 -39q0 -38 25 -64t69 -26q101 0 151 85q41 70 41 163q0 78 -44 128.5t-115 75t-155 24.5v-762h38v-32h-223v32h37v776h-37v32h223
q163 0 285 -68q133 -70 133 -215q0 -72 -42 -134.5t-112 -101.5t-155 -39q-39 0 -74 16q118 -280 270 -280q21 0 36 9q-9 -2 -19 -2q-27 0 -46.5 16.5t-19.5 40.5q0 23 19.5 39t46.5 16q67 0 67 -61q0 -32 -22 -54t-64 -22z" />
    <glyph glyph-name="macron" unicode="&#xaf;" horiz-adv-x="676" 
d="M588 1147h-500v57h500v-57z" />
    <glyph glyph-name="degree" unicode="&#xb0;" horiz-adv-x="646" 
d="M322 943q-77 0 -128.5 36t-78.5 93.5t-27 120.5t25 122.5t77 97t132 37.5q77 0 129 -37t79.5 -96t27.5 -126q0 -62 -25 -118.5t-78 -93t-133 -36.5zM323 978q147 0 150 219q-2 218 -150 218q-85 0 -123 -90q-27 -64 -27 -128q0 -65 27 -129q38 -90 123 -90z" />
    <glyph glyph-name="plusminus" unicode="&#xb1;" 
d="M429 337h-57v284h-284v58h284v284h57v-284h284v-58h-284v-284zM88 0v58h625v-58h-625z" />
    <glyph glyph-name="uni00B2" unicode="&#xb2;" horiz-adv-x="613" 
d="M155 769h-17q19 62 60 109.5t90 90.5q43 37 81 78.5t63 92.5t25 121q0 53 -26 102q50 -42 50 -102q0 -59 -27.5 -110t-69 -97t-86.5 -88q-54 -51 -94 -99t-49 -98zM170 753q0 55 69 130q31 34 68 68q87 84 128 142q62 84 62 168q0 39 -21 73t-55.5 56t-76.5 29
q97 -42 97 -158q0 -65 -25 -115.5t-63 -92.5t-81 -81q-54 -47 -97 -99.5t-56 -119.5h51zM233 1151q-19 -16 -44 -16q-36 0 -58 22t-32 53.5t-10 62.5q0 52 32 93t81.5 62.5t103.5 21.5q57 0 107 -24t81 -68t31 -97q0 -50 -18.5 -96.5t-48.5 -87.5t-65.5 -79t-70 -71
t-62.5 -63t-45 -57.5t-17 -53.5h327v-28h-437q6 87 54 150t109 117q42 37 78.5 77t60 86.5t23.5 105.5q0 66 -38.5 105.5t-111.5 39.5q-60 0 -105.5 -46t-45.5 -99q0 -26 8.5 -52.5t26.5 -43.5q16 -15 40 -18q-11 4 -20 14q-15 16 -15 38t15 37.5t36 15.5q22 0 37 -15.5
t15 -37.5q0 -30 -22 -48z" />
    <glyph glyph-name="uni00B3" unicode="&#xb3;" horiz-adv-x="635" 
d="M454 803q25 42 25 102q0 40 -15.5 72.5t-41 59t-56.5 47.5q113 80 113 177q0 53 -25 96q50 -34 50 -91q0 -88 -73 -150l-39 -33q41 -36 60 -55q52 -54 52 -127q0 -65 -50 -98zM372 751q37 8 70.5 25.5t55 46.5t21.5 78q0 43 -13 74t-36 57t-54 51l25 21q78 68 78 162
q0 41 -22 70t-56 47t-71 26q93 -47 93 -148q0 -93 -116 -171l-8 -6l7 -5q117 -76 117 -174q0 -107 -91 -154zM307 716q-88 0 -150 41q-69 46 -69 132q0 29 12 56.5t35 48.5t55 21q33 0 48 -19t15 -42q0 -22 -15 -38t-36 -16q-22 0 -37 16t-15 38q0 27 20 43q-18 -4 -30 -18
q-29 -34 -29 -93q0 -42 27 -71t66.5 -44t76.5 -15q42 0 76.5 17.5t56 49.5t21.5 82q0 44 -16.5 74t-39.5 50.5t-44 33.5q-16 12 -26 21q10 9 28 21q20 15 43 35.5t39 50t16 70.5q0 43 -21.5 75t-56 49.5t-76.5 17.5q-37 0 -76.5 -15t-66.5 -44t-27 -72q0 -21 7 -47.5
t22 -44.5t39 -19q-26 16 -26 47q0 22 15 38t37 16q21 0 36 -16t15 -38t-15 -38q-19 -20 -51 -20t-55 17.5t-35 45.5t-12 57q0 86 70 132q61 40 149 40q91 0 160 -41q80 -49 80 -135q0 -101 -98 -183q98 -81 98 -182q0 -94 -80 -143q-70 -42 -160 -42z" />
    <glyph glyph-name="acute" unicode="&#xb4;" horiz-adv-x="476" 
d="M388 1300l-229 -300h-71l227 300h73z" />
    <glyph glyph-name="paragraph" unicode="&#xb6;" horiz-adv-x="995" 
d="M907 -200h-317v56h43l1 1529h-161v-1529h42v-56h-161v56h43v813q-309 12 -309 391q0 378 385 381l434 -1v-55h-43v-1529h43v-56zM809 -144v1529h-119l-1 -1529h120zM777 -112h-57l1 1465h56v-1465z" />
    <glyph glyph-name="periodcentered" unicode="&#xb7;" horiz-adv-x="508" 
d="M181.445 627.5q-38.249 0 -65.4482 27.1992t-27.1992 65.4482q0 37.3994 27.1992 64.5986t65.4482 27.1992q39.0986 0 66.2979 -27.1992t27.1992 -64.5986q0 -38.249 -27.1992 -65.4482t-66.2979 -27.1992z" />
    <glyph glyph-name="periodcentered" unicode="&#x2219;" horiz-adv-x="508" 
d="M181.445 627.5q-38.249 0 -65.4482 27.1992t-27.1992 65.4482q0 37.3994 27.1992 64.5986t65.4482 27.1992q39.0986 0 66.2979 -27.1992t27.1992 -64.5986q0 -38.249 -27.1992 -65.4482t-66.2979 -27.1992z" />
    <glyph glyph-name="cedilla" unicode="&#xb8;" horiz-adv-x="452" 
d="M296 -255q0 103 -163 103l53 152h68l-43 -101q153 -27 153 -147q0 -152 -276 -152v52q208 0 208 93z" />
    <glyph glyph-name="uni00B9" unicode="&#xb9;" horiz-adv-x="469" 
d="M381 720h-277v27h85l-1 621l-74 -190h-26l100 262h107v-693h86v-27zM267 748v664h-51l1 -664h50zM251 764h-18l-1 633h19v-633z" />
    <glyph glyph-name="guillemotright" unicode="&#xbb;" horiz-adv-x="738" 
d="M88 103l245 338l-245 347h49l250 -342l-250 -343h-49zM351 103l245 338l-245 347h49l250 -342l-250 -343h-49z" />
    <glyph glyph-name="onequarter" unicode="&#xbc;" horiz-adv-x="1082" 
d="M947 0h-163v27h28v158h-294l303 535h98v-507h75v-28h-75v-158h28v-27zM812 213v438l-240 -438h240zM891 28v664h-51v-664h51zM875 44h-19v632h19v-632zM381 720h-277v27h85l-1 621l-74 -190h-26l100 262h107v-693h86v-27zM267 748v664h-51l1 -664h50zM251 764h-18l-1 633
h19v-633zM226 2h-55l701 1438h55z" />
    <glyph glyph-name="onehalf" unicode="&#xbd;" horiz-adv-x="1168" 
d="M381 720h-277v27h85l-1 621l-74 -190h-26l100 262h107v-693h86v-27zM267 748v664h-51l1 -664h50zM251 764h-18l-1 633h19v-633zM226 2h-55l701 1438h55zM710 44h-17q19 62 60 109.5t90 90.5q43 37 81 78.5t63 92.5t25 121q0 53 -26 102q50 -43 50 -102t-27.5 -110.5
t-69 -97t-86.5 -87.5q-54 -51 -94 -99t-49 -98zM725 28q0 55 69 130q31 34 68 68q87 84 128 142q62 84 62 168q0 39 -21 73t-55.5 56t-76.5 29q97 -42 97 -158q0 -65 -25 -115.5t-63 -92.5t-81 -81q-54 -47 -97 -99.5t-56 -119.5h51zM788 426q-19 -16 -44 -16q-36 0 -58 22
t-32 53.5t-10 62.5q0 51 32 92.5t81.5 63t103.5 21.5q57 0 107 -24t81 -68t31 -97q0 -50 -18.5 -96.5t-48.5 -87.5t-65.5 -79t-70 -71t-62.5 -63t-45 -57.5t-17 -53.5h327v-28h-437q6 87 54 150t109 117q42 37 78.5 77t60 86.5t23.5 105.5q0 66 -38.5 105t-111.5 39
q-60 0 -105.5 -45.5t-45.5 -98.5q0 -26 8.5 -52.5t26.5 -44.5q16 -14 40 -17q-11 4 -20 13q-15 16 -15 39q0 22 15 37.5t36 15.5q22 0 37 -15.5t15 -37.5q0 -30 -22 -48z" />
    <glyph glyph-name="threequarters" unicode="&#xbe;" horiz-adv-x="1244" 
d="M454 803q25 42 25 102q0 40 -15.5 72.5t-41 59t-56.5 47.5q113 80 113 177q0 53 -25 96q50 -34 50 -91q0 -88 -73 -150l-39 -33q41 -36 60 -55q52 -54 52 -127q0 -65 -50 -98zM372 751q37 8 70.5 25.5t55 46.5t21.5 78q0 43 -13 74t-36 57t-54 51l25 21q78 68 78 162
q0 41 -22 70t-56 47t-71 26q93 -47 93 -148q0 -93 -116 -171l-8 -6l7 -5q117 -76 117 -174q0 -107 -91 -154zM307 716q-88 0 -150 41q-69 46 -69 132q0 29 12 56.5t35 48.5t55 21q33 0 48 -19t15 -42q0 -22 -15 -38t-36 -16q-22 0 -37 16t-15 38q0 27 20 43q-18 -4 -30 -18
q-29 -34 -29 -93q0 -42 27 -71t66.5 -44t76.5 -15q42 0 76.5 17.5t56 49.5t21.5 82q0 44 -16.5 74t-39.5 50.5t-44 33.5q-16 12 -26 21q10 9 28 21q20 15 43 35.5t39 50t16 70.5q0 43 -21.5 75t-56 49.5t-76.5 17.5q-37 0 -76.5 -15t-66.5 -44t-27 -72q0 -21 7 -47.5
t22 -44.5t39 -19q-26 16 -26 47q0 22 15 38t37 16q21 0 36 -16t15 -38t-15 -38q-19 -20 -51 -20t-55 17.5t-35 45.5t-12 57q0 86 70 132q61 40 149 40q91 0 160 -41q80 -49 80 -135q0 -101 -98 -183q98 -81 98 -182q0 -94 -80 -143q-70 -42 -160 -42zM362 2h-55l701 1438h55
zM1109 0h-163v27h28v158h-294l303 535h98v-507h75v-28h-75v-158h28v-27zM974 213v438l-240 -438h240zM1053 28v664h-51v-664h51zM1037 44h-19v632h19v-632z" />
    <glyph glyph-name="questiondown" unicode="&#xbf;" horiz-adv-x="836" 
d="M379 541h23q-19 -104 -138 -310q-58 -101 -103 -208q-53 -124 -53 -255q0 -91 48 -168q-88 55 -88 187q0 82 22 153q33 107 128 262q131 214 161 339zM401 926q46 0 78.5 -32t32.5 -77q0 -44 -32.5 -76t-78.5 -32q-45 0 -77 32t-32 76q0 45 32 77t77 32zM362 574
q0 -20 -36.5 -112.5t-135.5 -247.5q-95 -150 -131 -267q-23 -73 -23 -160q0 -234 275 -265q-171 69 -171 249q0 123 51 243q44 102 102 198q49 82 79 147q54 113 54 215h-64zM316 630h165q0 -150 -65 -291q-24 -53 -54 -104q-61 -102 -110 -213q-57 -128 -57 -250
q0 -221 300 -221q120 0 210.5 91.5t90.5 210.5q0 127 -70 194q-24 22 -57 31q51 -32 51 -94q0 -44 -30.5 -75.5t-73.5 -31.5q-42 0 -72 31.5t-30 75.5q0 56 42 90q38 31 86 31q73 0 117.5 -43t64 -106.5t19.5 -125.5q0 -117 -64 -199t-163 -125.5t-206 -43.5
q-164 0 -257.5 44.5t-133 118.5t-39.5 162q0 93 27.5 179.5t73 165t87.5 146.5q146 234 148 352z" />
    <glyph glyph-name="Agrave" unicode="&#xc0;" horiz-adv-x="950" 
d="M821 88h-38l-321 1093l20 68zM865 56l-385 1307l-51 -182l330 -1125h106zM978 0h-333v56h56l-301 1025l-157 -544h89q66 0 124.5 -19.5t95 -62t36.5 -114.5q0 -65 -43 -97.5t-103 -32.5q-43 0 -73.5 30.5t-30.5 72.5t29.5 71t70.5 29t71 -29t30 -71q0 -29 -14 -52
q27 24 27 65q0 131 -150 150q-38 4 -175 4l-122 -425h55v-56h-172v56h59l382 1328h-87q-220 0 -220 -154q0 -37 24 -60q-14 24 -14 53q0 43 29.5 72t70.5 29t70.5 -29t29.5 -72q0 -42 -29 -71q-35 -33 -92 -33q-54 0 -88.5 35t-34.5 90q0 72 37 115q68 81 217 81h238v-56
h-47l389 -1328h56v-56zM207 1814h73l227 -300h-71z" />
    <glyph glyph-name="Aacute" unicode="&#xc1;" horiz-adv-x="950" 
d="M821 88h-38l-321 1093l20 68zM865 56l-385 1307l-51 -182l330 -1125h106zM978 0h-333v56h56l-301 1025l-157 -544h89q66 0 124.5 -19.5t95 -62t36.5 -114.5q0 -65 -43 -97.5t-103 -32.5q-43 0 -73.5 30.5t-30.5 72.5t29.5 71t70.5 29t71 -29t30 -71q0 -29 -14 -52
q27 24 27 65q0 131 -150 150q-38 4 -175 4l-122 -425h55v-56h-172v56h59l382 1328h-87q-220 0 -220 -154q0 -37 24 -60q-14 24 -14 53q0 43 29.5 72t70.5 29t70.5 -29t29.5 -72q0 -42 -29 -71q-35 -33 -92 -33q-54 0 -88.5 35t-34.5 90q0 72 37 115q68 81 217 81h238v-56
h-47l389 -1328h56v-56zM753 1814l-229 -300h-71l227 300h73z" />
    <glyph glyph-name="Acircumflex" unicode="&#xc2;" horiz-adv-x="950" 
d="M821 88h-38l-321 1093l20 68zM865 56l-385 1307l-51 -182l330 -1125h106zM978 0h-333v56h56l-301 1025l-157 -544h89q66 0 124.5 -19.5t95 -62t36.5 -114.5q0 -65 -43 -97.5t-103 -32.5q-43 0 -73.5 30.5t-30.5 72.5t29.5 71t70.5 29t71 -29t30 -71q0 -29 -14 -52
q27 24 27 65q0 131 -150 150q-38 4 -175 4l-122 -425h55v-56h-172v56h59l382 1328h-87q-220 0 -220 -154q0 -37 24 -60q-14 24 -14 53q0 43 29.5 72t70.5 29t70.5 -29t29.5 -72q0 -42 -29 -71q-35 -33 -92 -33q-54 0 -88.5 35t-34.5 90q0 72 37 115q68 81 217 81h238v-56
h-47l389 -1328h56v-56zM482 1741l-173 -227h-71l227 300h35l227 -300h-71z" />
    <glyph glyph-name="Atilde" unicode="&#xc3;" horiz-adv-x="950" 
d="M821 88h-38l-321 1093l20 68zM865 56l-385 1307l-51 -182l330 -1125h106zM978 0h-333v56h56l-301 1025l-157 -544h89q66 0 124.5 -19.5t95 -62t36.5 -114.5q0 -65 -43 -97.5t-103 -32.5q-43 0 -73.5 30.5t-30.5 72.5t29.5 71t70.5 29t71 -29t30 -71q0 -29 -14 -52
q27 24 27 65q0 131 -150 150q-38 4 -175 4l-122 -425h55v-56h-172v56h59l382 1328h-87q-220 0 -220 -154q0 -37 24 -60q-14 24 -14 53q0 43 29.5 72t70.5 29t70.5 -29t29.5 -72q0 -42 -29 -71q-35 -33 -92 -33q-54 0 -88.5 35t-34.5 90q0 72 37 115q68 81 217 81h238v-56
h-47l389 -1328h56v-56zM580 1721q54 0 113 -80l-32 -38q-38 58 -81 58q-27 0 -91.5 -34.5t-102.5 -34.5q-54 0 -113 80l32 38q38 -58 81 -58q27 0 91.5 34.5t102.5 34.5z" />
    <glyph glyph-name="Adieresis" unicode="&#xc4;" horiz-adv-x="950" 
d="M821 88h-38l-321 1093l20 68zM865 56l-385 1307l-51 -182l330 -1125h106zM978 0h-333v56h56l-301 1025l-157 -544h89q66 0 124.5 -19.5t95 -62t36.5 -114.5q0 -65 -43 -97.5t-103 -32.5q-43 0 -73.5 30.5t-30.5 72.5t29.5 71t70.5 29t71 -29t30 -71q0 -29 -14 -52
q27 24 27 65q0 131 -150 150q-38 4 -175 4l-122 -425h55v-56h-172v56h59l382 1328h-87q-220 0 -220 -154q0 -37 24 -60q-14 24 -14 53q0 43 29.5 72t70.5 29t70.5 -29t29.5 -72q0 -42 -29 -71q-35 -33 -92 -33q-54 0 -88.5 35t-34.5 90q0 72 37 115q68 81 217 81h238v-56
h-47l389 -1328h56v-56zM325 1558q-38 0 -65.5 27t-27.5 66q0 37 27.5 64.5t65.5 27.5q40 0 67 -27.5t27 -64.5q0 -39 -27 -66t-67 -27zM638 1558q-38 0 -65.5 27t-27.5 66q0 37 27.5 64.5t65.5 27.5q40 0 67 -27.5t27 -64.5q0 -39 -27 -66t-67 -27z" />
    <glyph glyph-name="Aring" unicode="&#xc5;" horiz-adv-x="950" 
d="M821 88h-38l-321 1093l20 68zM865 56l-385 1307l-51 -182l330 -1125h106zM978 0h-333v56h56l-301 1025l-157 -544h89q66 0 124.5 -19.5t95 -62t36.5 -114.5q0 -65 -43 -97.5t-103 -32.5q-43 0 -73.5 30.5t-30.5 72.5t29.5 71t70.5 29t71 -29t30 -71q0 -29 -14 -52
q27 24 27 65q0 131 -150 150q-38 4 -175 4l-122 -425h55v-56h-172v56h59l382 1328h-87q-220 0 -220 -154q0 -37 24 -60q-14 24 -14 53q0 43 29.5 72t70.5 29t70.5 -29t29.5 -72q0 -42 -29 -71q-35 -33 -92 -33q-54 0 -88.5 35t-34.5 90q0 72 37 115q68 81 217 81h238v-56
h-47l389 -1328h56v-56zM483 1489q-68 0 -115 47.5t-47 114.5q0 68 47 115.5t115 47.5q67 0 114.5 -47.5t47.5 -115.5q0 -67 -47.5 -114.5t-114.5 -47.5zM483 1531q47 0 81 35t34 85q0 49 -34 84.5t-81 35.5q-48 0 -81.5 -35.5t-33.5 -84.5q0 -50 33.5 -85t81.5 -35z" />
    <glyph glyph-name="AE" unicode="&#xc6;" horiz-adv-x="1421" 
d="M728 88h-44v1264h44v-1264zM760 56v1328h-108v-1328h108zM487 1384l-58 -203l-186 -644h89q66 0 124.5 -19.5t95 -62t36.5 -114.5q0 -65 -43 -97.5t-103 -32.5q-43 0 -73.5 30.5t-30.5 72.5t29.5 71t70.5 29t71 -29t30 -71q0 -29 -14 -52q27 24 27 65q0 131 -150 150
q-38 4 -175 4l-122 -425h55v-56h-172v56h59l382 1328h-87q-220 0 -220 -154q0 -37 24 -60q-14 24 -14 53q0 43 29.5 72t70.5 29t70.5 -29t29.5 -72q0 -42 -29 -71q-35 -33 -92 -33q-54 0 -88.5 35t-34.5 90q0 72 37 115q68 81 217 81h669q146 0 233 -40q115 -52 115 -185
q0 -59 -40.5 -92t-96.5 -33q-57 0 -86.5 29.5t-29.5 72.5q0 42 29.5 71t70.5 29t71 -29t30 -71q0 -28 -13 -50l9 8q18 19 18 59q0 103 -109 147q-81 33 -201 33h-196v-820h275v-56h-275v-461h196q120 0 201 33q109 43 109 148q0 54 -42 75q20 -25 20 -59q0 -42 -30 -72
t-71 -30t-70.5 30t-29.5 72t30.5 72t89.5 30t100 -33.5t41 -91.5q0 -133 -115 -186q-87 -40 -233 -40h-474v56h59v1328h-109z" />
    <glyph glyph-name="Ccedilla" unicode="&#xc7;" horiz-adv-x="986" 
d="M261 254q-69 90 -102 202q-36 121 -36 258q0 272 131 458q-9 -20 -17 -40q-71 -190 -71 -433q2 -251 95 -445zM441 80q-164 120 -218 389q-25 124 -25 261q0 206 68 391q62 157 173 240q-122 -51 -200.5 -156t-113 -231.5t-34.5 -259.5q0 -223 91 -397q87 -165 259 -237z
M581 -8q-244 17 -392 213q-154 204 -154 510q0 137 32 257q35 134 108.5 241.5t185 172t258.5 64.5q108 0 178 -43.5t105 -110t35 -136.5q0 -60 -23.5 -113.5t-69 -87t-112.5 -33.5q-68 0 -104.5 36t-36.5 92q0 43 30 72t71 29t70.5 -29t29.5 -72q0 -42 -30 -71
q-24 -25 -56 -29q6 -1 13 -1q52 0 87 27t52.5 70t17.5 91q0 56 -26 108.5t-79 86.5t-134 34q-184 0 -290 -207q-94 -184 -94 -441q0 -142 28 -263q56 -237 199 -338q71 -51 166 -51q92 0 144 34t90 103h-60v55h174v-55h-56q-43 -97 -122 -157q-73 -55 -168 -60l-39 -91
q153 -27 153 -147q0 -152 -276 -152v52q208 0 208 93q0 103 -163 103z" />
    <glyph glyph-name="Egrave" unicode="&#xc8;" horiz-adv-x="935" 
d="M273 88h-45v1264h45v-1264zM304 56v1328h-108v-1328h108zM555 0h-474v56h59v1328h-59v56h474q146 0 233 -40q115 -52 115 -185q0 -59 -40.5 -92t-96.5 -33q-57 0 -86.5 29.5t-29.5 72.5q0 42 29.5 71t70.5 29t71 -29t30 -71q0 -28 -13 -50l9 8q18 19 18 59
q0 103 -109 147q-81 33 -201 33h-196v-820h275v-56h-275v-461h196q120 0 201 33q109 43 109 148q0 54 -42 75q20 -25 20 -59q0 -42 -30 -72t-71 -30t-70.5 30t-29.5 72t30.5 72t89.5 30q60 0 100.5 -33.5t40.5 -91.5q0 -133 -115 -186q-87 -40 -233 -40zM252 1814h73
l227 -300h-71z" />
    <glyph glyph-name="Eacute" unicode="&#xc9;" horiz-adv-x="935" 
d="M273 88h-45v1264h45v-1264zM304 56v1328h-108v-1328h108zM555 0h-474v56h59v1328h-59v56h474q146 0 233 -40q115 -52 115 -185q0 -59 -40.5 -92t-96.5 -33q-57 0 -86.5 29.5t-29.5 72.5q0 42 29.5 71t70.5 29t71 -29t30 -71q0 -28 -13 -50l9 8q18 19 18 59
q0 103 -109 147q-81 33 -201 33h-196v-820h275v-56h-275v-461h196q120 0 201 33q109 43 109 148q0 54 -42 75q20 -25 20 -59q0 -42 -30 -72t-71 -30t-70.5 30t-29.5 72t30.5 72t89.5 30q60 0 100.5 -33.5t40.5 -91.5q0 -133 -115 -186q-87 -40 -233 -40zM692 1814l-229 -300
h-71l227 300h73z" />
    <glyph glyph-name="Ecircumflex" unicode="&#xca;" horiz-adv-x="935" 
d="M273 88h-45v1264h45v-1264zM304 56v1328h-108v-1328h108zM555 0h-474v56h59v1328h-59v56h474q146 0 233 -40q115 -52 115 -185q0 -59 -40.5 -92t-96.5 -33q-57 0 -86.5 29.5t-29.5 72.5q0 42 29.5 71t70.5 29t71 -29t30 -71q0 -28 -13 -50l9 8q18 19 18 59
q0 103 -109 147q-81 33 -201 33h-196v-820h275v-56h-275v-461h196q120 0 201 33q109 43 109 148q0 54 -42 75q20 -25 20 -59q0 -42 -30 -72t-71 -30t-70.5 30t-29.5 72t30.5 72t89.5 30q60 0 100.5 -33.5t40.5 -91.5q0 -133 -115 -186q-87 -40 -233 -40zM492 1741l-173 -227
h-71l227 300h35l227 -300h-71z" />
    <glyph glyph-name="Edieresis" unicode="&#xcb;" horiz-adv-x="935" 
d="M273 88h-45v1264h45v-1264zM304 56v1328h-108v-1328h108zM555 0h-474v56h59v1328h-59v56h474q146 0 233 -40q115 -52 115 -185q0 -59 -40.5 -92t-96.5 -33q-57 0 -86.5 29.5t-29.5 72.5q0 42 29.5 71t70.5 29t71 -29t30 -71q0 -28 -13 -50l9 8q18 19 18 59
q0 103 -109 147q-81 33 -201 33h-196v-820h275v-56h-275v-461h196q120 0 201 33q109 43 109 148q0 54 -42 75q20 -25 20 -59q0 -42 -30 -72t-71 -30t-70.5 30t-29.5 72t30.5 72t89.5 30q60 0 100.5 -33.5t40.5 -91.5q0 -133 -115 -186q-87 -40 -233 -40zM335 1558
q-38 0 -65.5 27t-27.5 66q0 37 27.5 64.5t65.5 27.5q40 0 67 -27.5t27 -64.5q0 -39 -27 -66t-67 -27zM648 1558q-38 0 -65.5 27t-27.5 66q0 37 27.5 64.5t65.5 27.5q40 0 67 -27.5t27 -64.5q0 -39 -27 -66t-67 -27z" />
    <glyph glyph-name="Igrave" unicode="&#xcc;" horiz-adv-x="616" 
d="M402 88h-43v1264h43v-1264zM434 56v1328h-107v-1328h107zM139 1119q-55 0 -89 35t-34 90q0 72 36.5 114.5t94.5 62t124 19.5h274v-56h-55v-1328h55v-56h-329v56h55v1328q-221 0 -221 -154q0 -40 28 -64q-16 24 -16 55q0 40 29 68.5t70 28.5t69.5 -28.5t28.5 -68.5
q0 -41 -29 -69q-33 -33 -91 -33zM122 1814h73l227 -300h-71z" />
    <glyph glyph-name="Iacute" unicode="&#xcd;" horiz-adv-x="616" 
d="M402 88h-43v1264h43v-1264zM434 56v1328h-107v-1328h107zM139 1119q-55 0 -89 35t-34 90q0 72 36.5 114.5t94.5 62t124 19.5h274v-56h-55v-1328h55v-56h-329v56h55v1328q-221 0 -221 -154q0 -40 28 -64q-16 24 -16 55q0 40 29 68.5t70 28.5t69.5 -28.5t28.5 -68.5
q0 -41 -29 -69q-33 -33 -91 -33zM640 1814l-229 -300h-71l227 300h73z" />
    <glyph glyph-name="Icircumflex" unicode="&#xce;" horiz-adv-x="616" 
d="M402 88h-43v1264h43v-1264zM434 56v1328h-107v-1328h107zM139 1119q-55 0 -89 35t-34 90q0 72 36.5 114.5t94.5 62t124 19.5h274v-56h-55v-1328h55v-56h-329v56h55v1328q-221 0 -221 -154q0 -40 28 -64q-16 24 -16 55q0 40 29 68.5t70 28.5t69.5 -28.5t28.5 -68.5
q0 -41 -29 -69q-33 -33 -91 -33zM371 1741l-173 -227h-71l227 300h35l227 -300h-71z" />
    <glyph glyph-name="Idieresis" unicode="&#xcf;" horiz-adv-x="616" 
d="M402 88h-43v1264h43v-1264zM434 56v1328h-107v-1328h107zM139 1119q-55 0 -89 35t-34 90q0 72 36.5 114.5t94.5 62t124 19.5h274v-56h-55v-1328h55v-56h-329v56h55v1328q-221 0 -221 -154q0 -40 28 -64q-16 24 -16 55q0 40 29 68.5t70 28.5t69.5 -28.5t28.5 -68.5
q0 -41 -29 -69q-33 -33 -91 -33zM224 1558q-38 0 -65.5 27t-27.5 66q0 37 27.5 64.5t65.5 27.5q40 0 67 -27.5t27 -64.5q0 -39 -27 -66t-67 -27zM537 1558q-38 0 -65.5 27t-27.5 66q0 37 27.5 64.5t65.5 27.5q40 0 67 -27.5t27 -64.5q0 -39 -27 -66t-67 -27z" />
    <glyph glyph-name="Eth" unicode="&#xd0;" horiz-adv-x="1142" 
d="M269 88h-44v1265h44v-1265zM894 273q59 186 59 457q0 212 -65 379q111 -180 111 -408q0 -255 -105 -428zM301 56v1329h-108v-1329h108zM768 102q64 40 111 97q152 189 152 506q0 223 -97 391q-81 135 -205 204q101 -103 146.5 -254t45.5 -316q0 -439 -153 -628zM137 744
v640h-55v56l275 1q255 -1 415.5 -102.5t235.5 -262.5q77 -167 77 -370q0 -352 -163 -543q-76 -88 -164.5 -130.5t-169.5 -42.5q-73 0 -120 29.5t-70.5 75.5t-23.5 94q0 51 22 87.5t56 56t69 19.5q53 -1 88 -33q29 -29 29 -71t-29.5 -72t-70.5 -30t-70.5 30t-29.5 72
q0 16 4 29q-5 -7 -10 -15q-17 -32 -17 -71q0 -37 15.5 -70t47 -54.5t77.5 -21.5q121 0 209 148q102 176 102 537q0 277 -112 452q-131 202 -397 202v-640h245v-57h-245v-631h55v-56h-330v56h55v631h-55v57h55z" />
    <glyph glyph-name="Ntilde" unicode="&#xd1;" horiz-adv-x="1086" 
d="M270 88h-44v1264h44v-1264zM876 88h-45v1265h45v-1265zM302 56v1328h-108v-1328h108zM908 56v1329h-109v-1329h109zM517 873l-160 401v-1218h55v-56h-331v56h57v1328h-57v56h277q93 -230 227 -567q143 -335 143 -533q0 -68 -40.5 -118t-107.5 -50q-56 0 -98 46
q-35 36 -35 104q0 40 29 68.5t70 28.5t69.5 -28.5t28.5 -68.5q0 -41 -28.5 -69.5t-69.5 -28.5q-17 0 -32 5q26 -24 57 -24q102 0 102 135q0 163 -156 533zM1017 56v-56h-331v56h58v1329h-58v55h331v-55h-54v-1329h54zM647 1721q54 0 113 -80l-32 -38q-38 58 -81 58
q-27 0 -91.5 -34.5t-102.5 -34.5q-54 0 -113 80l32 38q38 -58 81 -58q27 0 91.5 34.5t102.5 34.5z" />
    <glyph glyph-name="Ograve" unicode="&#xd2;" horiz-adv-x="1014" 
d="M752 193q40 147 48 285q6 102 6 211q0 344 -52 544q98 -167 99 -513q0 -154 -16.5 -287t-84.5 -240zM270 187q-110 161 -114 460v129q0 112 19.5 246t97.5 240q-32 -100 -46 -195q-28 -182 -28 -347q0 -306 71 -533zM504 45q189 0 212 518q-70 -91 -171 -91
q-80 0 -135 60q-13 14 -23 33q-23 46 -23 94q0 51 22 87.5t56 56t69 19.5q53 -1 87 -34q30 -28 30 -70t-29.5 -72t-70.5 -30t-70.5 30t-29.5 72q0 16 4 29q-27 -38 -27 -86q0 -37 15.5 -70t47 -54.5t77.5 -21.5q72 0 123 63t51 141q-4 676 -215 676q-56 0 -94 -53.5
t-62 -135.5t-37.5 -174t-18.5 -172.5t-5 -139.5t5 -140t18.5 -172.5t37.5 -174t62 -135.5t94 -53zM360 75q-71 104 -102 303q-26 170 -26 354q0 157 25 329q29 196 104 306q-41 -17 -76 -48q-161 -148 -161 -536l1 -138q3 -370 166 -525q31 -29 69 -45zM662 77q40 18 73 51
q121 118 142 365q6 83 6 155l-3 188q-5 330 -153 477q-30 30 -65 48q85 -132 103 -367q9 -120 9 -248q0 -284 -34 -466q-21 -115 -78 -203zM503 -10q-135 0 -221 63q-157 115 -197 399q-18 131 -18 311q0 687 436 687q141 0 227 -64q157 -117 193 -401q17 -133 17 -314
q0 -291 -76 -457q-102 -224 -361 -224zM304 1814h73l227 -300h-71z" />
    <glyph glyph-name="Oacute" unicode="&#xd3;" horiz-adv-x="1014" 
d="M752 193q40 147 48 285q6 102 6 211q0 344 -52 544q98 -167 99 -513q0 -154 -16.5 -287t-84.5 -240zM270 187q-110 161 -114 460v129q0 112 19.5 246t97.5 240q-32 -100 -46 -195q-28 -182 -28 -347q0 -306 71 -533zM504 45q189 0 212 518q-70 -91 -171 -91
q-80 0 -135 60q-13 14 -23 33q-23 46 -23 94q0 51 22 87.5t56 56t69 19.5q53 -1 87 -34q30 -28 30 -70t-29.5 -72t-70.5 -30t-70.5 30t-29.5 72q0 16 4 29q-27 -38 -27 -86q0 -37 15.5 -70t47 -54.5t77.5 -21.5q72 0 123 63t51 141q-4 676 -215 676q-56 0 -94 -53.5
t-62 -135.5t-37.5 -174t-18.5 -172.5t-5 -139.5t5 -140t18.5 -172.5t37.5 -174t62 -135.5t94 -53zM360 75q-71 104 -102 303q-26 170 -26 354q0 157 25 329q29 196 104 306q-41 -17 -76 -48q-161 -148 -161 -536l1 -138q3 -370 166 -525q31 -29 69 -45zM662 77q40 18 73 51
q121 118 142 365q6 83 6 155l-3 188q-5 330 -153 477q-30 30 -65 48q85 -132 103 -367q9 -120 9 -248q0 -284 -34 -466q-21 -115 -78 -203zM503 -10q-135 0 -221 63q-157 115 -197 399q-18 131 -18 311q0 687 436 687q141 0 227 -64q157 -117 193 -401q17 -133 17 -314
q0 -291 -76 -457q-102 -224 -361 -224zM704 1814l-229 -300h-71l227 300h73z" />
    <glyph glyph-name="Ocircumflex" unicode="&#xd4;" horiz-adv-x="1014" 
d="M752 193q40 147 48 285q6 102 6 211q0 344 -52 544q98 -167 99 -513q0 -154 -16.5 -287t-84.5 -240zM270 187q-110 161 -114 460v129q0 112 19.5 246t97.5 240q-32 -100 -46 -195q-28 -182 -28 -347q0 -306 71 -533zM504 45q189 0 212 518q-70 -91 -171 -91
q-80 0 -135 60q-13 14 -23 33q-23 46 -23 94q0 51 22 87.5t56 56t69 19.5q53 -1 87 -34q30 -28 30 -70t-29.5 -72t-70.5 -30t-70.5 30t-29.5 72q0 16 4 29q-27 -38 -27 -86q0 -37 15.5 -70t47 -54.5t77.5 -21.5q72 0 123 63t51 141q-4 676 -215 676q-56 0 -94 -53.5
t-62 -135.5t-37.5 -174t-18.5 -172.5t-5 -139.5t5 -140t18.5 -172.5t37.5 -174t62 -135.5t94 -53zM360 75q-71 104 -102 303q-26 170 -26 354q0 157 25 329q29 196 104 306q-41 -17 -76 -48q-161 -148 -161 -536l1 -138q3 -370 166 -525q31 -29 69 -45zM662 77q40 18 73 51
q121 118 142 365q6 83 6 155l-3 188q-5 330 -153 477q-30 30 -65 48q85 -132 103 -367q9 -120 9 -248q0 -284 -34 -466q-21 -115 -78 -203zM503 -10q-135 0 -221 63q-157 115 -197 399q-18 131 -18 311q0 687 436 687q141 0 227 -64q157 -117 193 -401q17 -133 17 -314
q0 -291 -76 -457q-102 -224 -361 -224zM503 1741l-173 -227h-71l227 300h35l227 -300h-71z" />
    <glyph glyph-name="Otilde" unicode="&#xd5;" horiz-adv-x="1014" 
d="M752 193q40 147 48 285q6 102 6 211q0 344 -52 544q98 -167 99 -513q0 -154 -16.5 -287t-84.5 -240zM270 187q-110 161 -114 460v129q0 112 19.5 246t97.5 240q-32 -100 -46 -195q-28 -182 -28 -347q0 -306 71 -533zM504 45q189 0 212 518q-70 -91 -171 -91
q-80 0 -135 60q-13 14 -23 33q-23 46 -23 94q0 51 22 87.5t56 56t69 19.5q53 -1 87 -34q30 -28 30 -70t-29.5 -72t-70.5 -30t-70.5 30t-29.5 72q0 16 4 29q-27 -38 -27 -86q0 -37 15.5 -70t47 -54.5t77.5 -21.5q72 0 123 63t51 141q-4 676 -215 676q-56 0 -94 -53.5
t-62 -135.5t-37.5 -174t-18.5 -172.5t-5 -139.5t5 -140t18.5 -172.5t37.5 -174t62 -135.5t94 -53zM360 75q-71 104 -102 303q-26 170 -26 354q0 157 25 329q29 196 104 306q-41 -17 -76 -48q-161 -148 -161 -536l1 -138q3 -370 166 -525q31 -29 69 -45zM662 77q40 18 73 51
q121 118 142 365q6 83 6 155l-3 188q-5 330 -153 477q-30 30 -65 48q85 -132 103 -367q9 -120 9 -248q0 -284 -34 -466q-21 -115 -78 -203zM503 -10q-135 0 -221 63q-157 115 -197 399q-18 131 -18 311q0 687 436 687q141 0 227 -64q157 -117 193 -401q17 -133 17 -314
q0 -291 -76 -457q-102 -224 -361 -224zM601 1721q54 0 113 -80l-32 -38q-38 58 -81 58q-27 0 -91.5 -34.5t-102.5 -34.5q-54 0 -113 80l32 38q38 -58 81 -58q27 0 91.5 34.5t102.5 34.5z" />
    <glyph glyph-name="Odieresis" unicode="&#xd6;" horiz-adv-x="1014" 
d="M752 193q40 147 48 285q6 102 6 211q0 344 -52 544q98 -167 99 -513q0 -154 -16.5 -287t-84.5 -240zM270 187q-110 161 -114 460v129q0 112 19.5 246t97.5 240q-32 -100 -46 -195q-28 -182 -28 -347q0 -306 71 -533zM504 45q189 0 212 518q-70 -91 -171 -91
q-80 0 -135 60q-13 14 -23 33q-23 46 -23 94q0 51 22 87.5t56 56t69 19.5q53 -1 87 -34q30 -28 30 -70t-29.5 -72t-70.5 -30t-70.5 30t-29.5 72q0 16 4 29q-27 -38 -27 -86q0 -37 15.5 -70t47 -54.5t77.5 -21.5q72 0 123 63t51 141q-4 676 -215 676q-56 0 -94 -53.5
t-62 -135.5t-37.5 -174t-18.5 -172.5t-5 -139.5t5 -140t18.5 -172.5t37.5 -174t62 -135.5t94 -53zM360 75q-71 104 -102 303q-26 170 -26 354q0 157 25 329q29 196 104 306q-41 -17 -76 -48q-161 -148 -161 -536l1 -138q3 -370 166 -525q31 -29 69 -45zM662 77q40 18 73 51
q121 118 142 365q6 83 6 155l-3 188q-5 330 -153 477q-30 30 -65 48q85 -132 103 -367q9 -120 9 -248q0 -284 -34 -466q-21 -115 -78 -203zM503 -10q-135 0 -221 63q-157 115 -197 399q-18 131 -18 311q0 687 436 687q141 0 227 -64q157 -117 193 -401q17 -133 17 -314
q0 -291 -76 -457q-102 -224 -361 -224zM346 1558q-38 0 -65.5 27t-27.5 66q0 37 27.5 64.5t65.5 27.5q40 0 67 -27.5t27 -64.5q0 -39 -27 -66t-67 -27zM659 1558q-38 0 -65.5 27t-27.5 66q0 37 27.5 64.5t65.5 27.5q40 0 67 -27.5t27 -64.5q0 -39 -27 -66t-67 -27z" />
    <glyph glyph-name="multiply" unicode="&#xd7;" 
d="M642 449l-41 -40l-200 200l-201 -200l-41 40l201 201l-201 201l41 40l201 -200l200 200l41 -40l-201 -201z" />
    <glyph glyph-name="Oslash" unicode="&#xd8;" horiz-adv-x="1014" 
d="M662 77q40 18 74 50q68 68 100.5 169.5t40 196.5t7.5 175l-3 168q-6 330 -153 478q-31 29 -66 47q85 -132 101 -367q12 -132 13 -274q-3 -264 -35 -440q-22 -115 -79 -203zM360 75q-71 104 -102 303q-25 165 -27 342q0 162 27 341q28 196 103 306q-41 -17 -76 -48
q-73 -67 -108 -170t-44.5 -200t-9.5 -181l2 -123q3 -370 165 -526q32 -28 70 -44zM752 193q40 147 47 285q8 116 9 243q-3 316 -54 512q98 -167 98 -513l1 -42q0 -112 -16.5 -245t-84.5 -240zM270 187q-110 161 -113 460l-2 118q0 116 20 253.5t98 243.5q-32 -100 -45 -195
q-29 -182 -29 -347q0 -166 29 -347q12 -90 42 -186zM813 1301q85 -117 110 -316q17 -133 17 -314q0 -291 -76 -457q-102 -224 -361 -224q-135 0 -221 63q-29 21 -53 48l-48 -98h-55l68 140q-81 115 -108 309q-19 131 -19 311q0 289 81 461q105 226 355 226q141 0 227 -64
q26 -19 49 -43l47 97h55zM314 388l370 760q-52 247 -180 247q-56 0 -94 -53.5t-62 -135.5t-37.5 -174t-18.5 -172.5t-5 -139.5t5 -140t19 -172q1 -10 3 -20zM698 1065l-369 -758q9 -38 19 -73q24 -83 62 -136t94 -53q58 0 96.5 43.5t62 114.5t36 158.5t17 177.5t4.5 181
q-2 203 -22 345z" />
    <glyph glyph-name="Ugrave" unicode="&#xd9;" horiz-adv-x="1126" 
d="M279 205q-61 101 -70 275q-4 75 -4 872h43q0 -737 -1 -853q0 -58 4 -134t28 -160zM851 205q32 111 32 290l-1 857h43q0 -797 -3 -872q-10 -174 -71 -275zM383 77q-77 90 -90.5 207.5t-13.5 214.5q1 58 1 885h-107v-768q0 -203 34 -324q45 -163 176 -215zM747 77
q132 53 177 216q33 121 33 323v768h-107q0 -836 1 -888q0 -65 -4 -130q-12 -190 -100 -289zM565 -10q-272 0 -372 187q-76 144 -76 439v768h-57v56h329v-56h-53v-966q2 -143 45 -239q55 -122 184 -122q182 0 219 243q11 82 11 199l-1 885q-47 0 -98 -8t-86.5 -37t-35.5 -94
q0 -58 30 -82q-18 25 -18 58q0 42 29 71t70 29t70.5 -29t29.5 -71q0 -41 -30 -70q-34 -32 -93 -32q-57 0 -92.5 40t-35.5 94q0 45 24 88q56 99 224 99h285v-56h-54v-768q0 -124 -15 -237t-60 -200q-99 -189 -373 -189zM333 1814h73l227 -300h-71z" />
    <glyph glyph-name="Uacute" unicode="&#xda;" horiz-adv-x="1126" 
d="M279 205q-61 101 -70 275q-4 75 -4 872h43q0 -737 -1 -853q0 -58 4 -134t28 -160zM851 205q32 111 32 290l-1 857h43q0 -797 -3 -872q-10 -174 -71 -275zM383 77q-77 90 -90.5 207.5t-13.5 214.5q1 58 1 885h-107v-768q0 -203 34 -324q45 -163 176 -215zM747 77
q132 53 177 216q33 121 33 323v768h-107q0 -836 1 -888q0 -65 -4 -130q-12 -190 -100 -289zM565 -10q-272 0 -372 187q-76 144 -76 439v768h-57v56h329v-56h-53v-966q2 -143 45 -239q55 -122 184 -122q182 0 219 243q11 82 11 199l-1 885q-47 0 -98 -8t-86.5 -37t-35.5 -94
q0 -58 30 -82q-18 25 -18 58q0 42 29 71t70 29t70.5 -29t29.5 -71q0 -41 -30 -70q-34 -32 -93 -32q-57 0 -92.5 40t-35.5 94q0 45 24 88q56 99 224 99h285v-56h-54v-768q0 -124 -15 -237t-60 -200q-99 -189 -373 -189zM803 1814l-229 -300h-71l227 300h73z" />
    <glyph glyph-name="Ucircumflex" unicode="&#xdb;" horiz-adv-x="1126" 
d="M279 205q-61 101 -70 275q-4 75 -4 872h43q0 -737 -1 -853q0 -58 4 -134t28 -160zM851 205q32 111 32 290l-1 857h43q0 -797 -3 -872q-10 -174 -71 -275zM383 77q-77 90 -90.5 207.5t-13.5 214.5q1 58 1 885h-107v-768q0 -203 34 -324q45 -163 176 -215zM747 77
q132 53 177 216q33 121 33 323v768h-107q0 -836 1 -888q0 -65 -4 -130q-12 -190 -100 -289zM565 -10q-272 0 -372 187q-76 144 -76 439v768h-57v56h329v-56h-53v-966q2 -143 45 -239q55 -122 184 -122q182 0 219 243q11 82 11 199l-1 885q-47 0 -98 -8t-86.5 -37t-35.5 -94
q0 -58 30 -82q-18 25 -18 58q0 42 29 71t70 29t70.5 -29t29.5 -71q0 -41 -30 -70q-34 -32 -93 -32q-57 0 -92.5 40t-35.5 94q0 45 24 88q56 99 224 99h285v-56h-54v-768q0 -124 -15 -237t-60 -200q-99 -189 -373 -189zM563 1741l-173 -227h-71l227 300h35l227 -300h-71z" />
    <glyph glyph-name="Udieresis" unicode="&#xdc;" horiz-adv-x="1126" 
d="M279 205q-61 101 -70 275q-4 75 -4 872h43q0 -737 -1 -853q0 -58 4 -134t28 -160zM851 205q32 111 32 290l-1 857h43q0 -797 -3 -872q-10 -174 -71 -275zM383 77q-77 90 -90.5 207.5t-13.5 214.5q1 58 1 885h-107v-768q0 -203 34 -324q45 -163 176 -215zM747 77
q132 53 177 216q33 121 33 323v768h-107q0 -836 1 -888q0 -65 -4 -130q-12 -190 -100 -289zM565 -10q-272 0 -372 187q-76 144 -76 439v768h-57v56h329v-56h-53v-966q2 -143 45 -239q55 -122 184 -122q182 0 219 243q11 82 11 199l-1 885q-47 0 -98 -8t-86.5 -37t-35.5 -94
q0 -58 30 -82q-18 25 -18 58q0 42 29 71t70 29t70.5 -29t29.5 -71q0 -41 -30 -70q-34 -32 -93 -32q-57 0 -92.5 40t-35.5 94q0 45 24 88q56 99 224 99h285v-56h-54v-768q0 -124 -15 -237t-60 -200q-99 -189 -373 -189zM406 1558q-38 0 -65.5 27t-27.5 66q0 37 27.5 64.5
t65.5 27.5q40 0 67 -27.5t27 -64.5q0 -39 -27 -66t-67 -27zM719 1558q-38 0 -65.5 27t-27.5 66q0 37 27.5 64.5t65.5 27.5q40 0 67 -27.5t27 -64.5q0 -39 -27 -66t-67 -27z" />
    <glyph glyph-name="Yacute" unicode="&#xdd;" horiz-adv-x="879" 
d="M496 88h-43v594l-303 670h24l322 -732v-532zM528 56v570l-333 758h-94l320 -709v-619h107zM620 1119q-54 0 -88.5 35t-34.5 90q0 72 36.5 114.5t95 62t124.5 19.5h237v-56h-55l-351 -683v-645h54v-56h-331v56h58v608l-326 720h-57v56h331v-56h-57l285 -647l336 647h-124
q-220 0 -220 -154q0 -36 23 -60q-12 22 -12 48q0 41 28.5 69.5t69.5 28.5q40 0 69 -28.5t29 -69.5q0 -40 -29 -69q-32 -30 -91 -30zM729 1814l-229 -300h-71l227 300h73z" />
    <glyph glyph-name="Thorn" unicode="&#xde;" horiz-adv-x="1047" 
d="M901 575q18 82 18 165q0 145 -74 274q104 -92 104 -232q0 -111 -48 -207zM784 403q116 73 165 200q31 85 31 179q0 46 -14 95q-33 117 -137 190q-75 52 -167 78q141 -78 195 -230q31 -84 31 -175q0 -206 -104 -337zM268 88h-43v1264h43v-1264zM192 1099h1v-1043h107v1043
h-1v285h-107v-285zM355 1240q347 0 525 -141q156 -126 156 -317q0 -122 -41.5 -214.5t-108.5 -155t-146.5 -94.5t-153.5 -32q-63 0 -114 21.5t-82 65.5t-31 111q0 54 35 95t100 41q52 0 82 -33q28 -28 28 -67q0 -41 -28 -69t-67 -28q-40 0 -68.5 28t-28.5 69q0 26 12 47
q-26 -23 -26 -68q0 -76 46.5 -115.5t111.5 -39.5q64 0 127.5 42t106 130t42.5 224q0 173 -109 288q-124 133 -368 133v-62l1 -903v-140h54v-56h-329v56h56v1043h-1v285h-55v56h329v-56h-55v-144z" />
    <glyph glyph-name="germandbls" unicode="&#xdf;" horiz-adv-x="1139" 
d="M383 0h-330v55h55v989q0 207 141 314q122 92 283 92q98 0 168 -43t70 -130q0 -57 -31 -104t-68 -88q-31 -36 -54.5 -69.5t-23.5 -68.5q0 -45 27 -74t70.5 -50t98 -40.5t111 -46t104 -67t76.5 -103t29 -157.5q0 -193 -151 -305q-139 -103 -338 -103q-78 0 -152 15v58
q75 -15 150 -15q79 0 145 29t106 89.5t40 155.5q0 106 -42.5 167.5t-107.5 98t-136 63.5q-65 26 -121.5 56.5t-92.5 78.5t-36 128q0 55 29.5 97t74 75.5t90.5 61.5q54 33 92 64.5t38 68.5q0 55 -33.5 79t-83.5 24q-55 0 -113.5 -34.5t-99 -111t-40.5 -209.5v-985h56v-55z
M272 56v984q0 218 117 330q-144 -49 -196 -171q-29 -67 -29 -155v-988h108zM908 136q146 96 146 273q0 107 -44 167.5t-110 96t-137 60.5q-59 22 -110 47.5t-83 64t-32 102.5q0 51 28 94q21 31 85 107q-29 -21 -61 -41q-41 -25 -77.5 -52.5t-60 -59t-23.5 -70.5
q0 -61 31 -99.5t81.5 -66t108 -51t113 -51.5t101 -69t73.5 -102.5t28 -152.5q0 -118 -57 -197zM240 88h-44v956q0 145 87 228q-43 -98 -43 -232v-952zM552 788q-40 20 -66 52.5t-26 84.5q0 47 62 97q-17 -44 -17 -83q0 -43 31 -98q30 -54 169.5 -114t182.5 -84
q61 -31 97.5 -84.5t36.5 -149.5q0 -72 -28 -130q3 27 3 54q0 142 -67 231q-67 87 -204 146t-174 78z" />
    <glyph glyph-name="agrave" unicode="&#xe0;" horiz-adv-x="1012" 
d="M226 158q-94 104 -94 285q0 159 96 272q-55 -136 -55 -275q0 -161 53 -282zM339 56q-75 69 -105 174.5t-30 209.5q0 103 34 212.5t110 183.5q-122 -48 -185 -158t-63 -235q0 -139 59 -245.5t180 -141.5zM776 828h39v-741h-39v741zM688 818q-68 49 -145 49
q-93 0 -156.5 -66.5t-95.5 -162t-32 -198.5q0 -107 27 -193.5t81 -141t136 -54.5q60 0 100 31.5t40 93.5q0 40 -22 71.5t-65 31.5q-9 0 -17 -2q36 -2 63.5 -29.5t27.5 -68.5q0 -39 -29 -67.5t-69 -28.5q-41 0 -69.5 28.5t-28.5 67.5q0 82 59 112q31 16 69 16q60 0 92.5 -37
t32.5 -96q0 -72 -41 -112t-102 -56t-120 -16q-127 0 -211.5 64t-126.5 165.5t-42 223.5q0 188 113 324q124 159 337 159q109 0 194 -47v37h269v-56h-55v-805h55v-55h-269v818zM847 860h-103v-805h103v805zM271 1300h73l227 -300h-71z" />
    <glyph glyph-name="aacute" unicode="&#xe1;" horiz-adv-x="1012" 
d="M226 158q-94 104 -94 285q0 159 96 272q-55 -136 -55 -275q0 -161 53 -282zM339 56q-75 69 -105 174.5t-30 209.5q0 103 34 212.5t110 183.5q-122 -48 -185 -158t-63 -235q0 -139 59 -245.5t180 -141.5zM776 828h39v-741h-39v741zM688 818q-68 49 -145 49
q-93 0 -156.5 -66.5t-95.5 -162t-32 -198.5q0 -107 27 -193.5t81 -141t136 -54.5q60 0 100 31.5t40 93.5q0 40 -22 71.5t-65 31.5q-9 0 -17 -2q36 -2 63.5 -29.5t27.5 -68.5q0 -39 -29 -67.5t-69 -28.5q-41 0 -69.5 28.5t-28.5 67.5q0 82 59 112q31 16 69 16q60 0 92.5 -37
t32.5 -96q0 -72 -41 -112t-102 -56t-120 -16q-127 0 -211.5 64t-126.5 165.5t-42 223.5q0 188 113 324q124 159 337 159q109 0 194 -47v37h269v-56h-55v-805h55v-55h-269v818zM847 860h-103v-805h103v805zM793 1300l-229 -300h-71l227 300h73z" />
    <glyph glyph-name="acircumflex" unicode="&#xe2;" horiz-adv-x="1012" 
d="M226 158q-94 104 -94 285q0 159 96 272q-55 -136 -55 -275q0 -161 53 -282zM339 56q-75 69 -105 174.5t-30 209.5q0 103 34 212.5t110 183.5q-122 -48 -185 -158t-63 -235q0 -139 59 -245.5t180 -141.5zM776 828h39v-741h-39v741zM688 818q-68 49 -145 49
q-93 0 -156.5 -66.5t-95.5 -162t-32 -198.5q0 -107 27 -193.5t81 -141t136 -54.5q60 0 100 31.5t40 93.5q0 40 -22 71.5t-65 31.5q-9 0 -17 -2q36 -2 63.5 -29.5t27.5 -68.5q0 -39 -29 -67.5t-69 -28.5q-41 0 -69.5 28.5t-28.5 67.5q0 82 59 112q31 16 69 16q60 0 92.5 -37
t32.5 -96q0 -72 -41 -112t-102 -56t-120 -16q-127 0 -211.5 64t-126.5 165.5t-42 223.5q0 188 113 324q124 159 337 159q109 0 194 -47v37h269v-56h-55v-805h55v-55h-269v818zM847 860h-103v-805h103v805zM500 1227l-173 -227h-71l227 300h35l227 -300h-71z" />
    <glyph glyph-name="atilde" unicode="&#xe3;" horiz-adv-x="1012" 
d="M226 158q-94 104 -94 285q0 159 96 272q-55 -136 -55 -275q0 -161 53 -282zM339 56q-75 69 -105 174.5t-30 209.5q0 103 34 212.5t110 183.5q-122 -48 -185 -158t-63 -235q0 -139 59 -245.5t180 -141.5zM776 828h39v-741h-39v741zM688 818q-68 49 -145 49
q-93 0 -156.5 -66.5t-95.5 -162t-32 -198.5q0 -107 27 -193.5t81 -141t136 -54.5q60 0 100 31.5t40 93.5q0 40 -22 71.5t-65 31.5q-9 0 -17 -2q36 -2 63.5 -29.5t27.5 -68.5q0 -39 -29 -67.5t-69 -28.5q-41 0 -69.5 28.5t-28.5 67.5q0 82 59 112q31 16 69 16q60 0 92.5 -37
t32.5 -96q0 -72 -41 -112t-102 -56t-120 -16q-127 0 -211.5 64t-126.5 165.5t-42 223.5q0 188 113 324q124 159 337 159q109 0 194 -47v37h269v-56h-55v-805h55v-55h-269v818zM847 860h-103v-805h103v805zM598 1207q54 0 113 -80l-32 -38q-38 58 -81 58q-27 0 -91.5 -34.5
t-102.5 -34.5q-54 0 -113 80l32 38q38 -58 81 -58q27 0 91.5 34.5t102.5 34.5z" />
    <glyph glyph-name="adieresis" unicode="&#xe4;" horiz-adv-x="1012" 
d="M226 158q-94 104 -94 285q0 159 96 272q-55 -136 -55 -275q0 -161 53 -282zM339 56q-75 69 -105 174.5t-30 209.5q0 103 34 212.5t110 183.5q-122 -48 -185 -158t-63 -235q0 -139 59 -245.5t180 -141.5zM776 828h39v-741h-39v741zM688 818q-68 49 -145 49
q-93 0 -156.5 -66.5t-95.5 -162t-32 -198.5q0 -107 27 -193.5t81 -141t136 -54.5q60 0 100 31.5t40 93.5q0 40 -22 71.5t-65 31.5q-9 0 -17 -2q36 -2 63.5 -29.5t27.5 -68.5q0 -39 -29 -67.5t-69 -28.5q-41 0 -69.5 28.5t-28.5 67.5q0 82 59 112q31 16 69 16q60 0 92.5 -37
t32.5 -96q0 -72 -41 -112t-102 -56t-120 -16q-127 0 -211.5 64t-126.5 165.5t-42 223.5q0 188 113 324q124 159 337 159q109 0 194 -47v37h269v-56h-55v-805h55v-55h-269v818zM847 860h-103v-805h103v805zM343 1044q-38 0 -65.5 27t-27.5 66q0 37 27.5 64.5t65.5 27.5
q40 0 67 -27.5t27 -64.5q0 -39 -27 -66t-67 -27zM656 1044q-38 0 -65.5 27t-27.5 66q0 37 27.5 64.5t65.5 27.5q40 0 67 -27.5t27 -64.5q0 -39 -27 -66t-67 -27z" />
    <glyph glyph-name="aring" unicode="&#xe5;" horiz-adv-x="1012" 
d="M226 158q-94 104 -94 285q0 159 96 272q-55 -136 -55 -275q0 -161 53 -282zM339 56q-75 69 -105 174.5t-30 209.5q0 103 34 212.5t110 183.5q-122 -48 -185 -158t-63 -235q0 -139 59 -245.5t180 -141.5zM776 828h39v-741h-39v741zM688 818q-68 49 -145 49
q-93 0 -156.5 -66.5t-95.5 -162t-32 -198.5q0 -107 27 -193.5t81 -141t136 -54.5q60 0 100 31.5t40 93.5q0 40 -22 71.5t-65 31.5q-9 0 -17 -2q36 -2 63.5 -29.5t27.5 -68.5q0 -39 -29 -67.5t-69 -28.5q-41 0 -69.5 28.5t-28.5 67.5q0 82 59 112q31 16 69 16q60 0 92.5 -37
t32.5 -96q0 -72 -41 -112t-102 -56t-120 -16q-127 0 -211.5 64t-126.5 165.5t-42 223.5q0 188 113 324q124 159 337 159q109 0 194 -47v37h269v-56h-55v-805h55v-55h-269v818zM847 860h-103v-805h103v805zM501 975q-68 0 -115 47.5t-47 114.5q0 68 47 115.5t115 47.5
q67 0 114.5 -47.5t47.5 -115.5q0 -67 -47.5 -114.5t-114.5 -47.5zM501 1017q47 0 81 35t34 85q0 49 -34 84.5t-81 35.5q-48 0 -81.5 -35.5t-33.5 -84.5q0 -50 33.5 -85t81.5 -35z" />
    <glyph glyph-name="ae" unicode="&#xe6;" horiz-adv-x="1603" 
d="M955 191q-93 99 -93 271q0 160 98 271q-54 -111 -54 -265q0 -155 49 -277zM648 725q93 -99 93 -271q0 -160 -98 -271q54 111 54 265q0 155 -49 277zM1060 81q-65 73 -93.5 176.5t-28.5 210.5q0 119 39 221.5t133 166.5q-134 -38 -207 -144t-73 -250q0 -135 57 -232.5
t173 -148.5zM543 835q65 -73 93.5 -176.5t28.5 -210.5q0 -119 -39 -221.5t-133 -166.5q134 38 207 144t73 250q0 135 -57 232.5t-173 148.5zM802 634q10 29 24 56q51 103 151 169.5t248 66.5q111 0 183.5 -38.5t107.5 -104.5t35 -133q0 -100 -44 -165t-112.5 -97t-141.5 -32
q-64 0 -121 21t-93 62t-36 111q0 41 28.5 69.5t69.5 28.5q40 0 69 -28.5t29 -69.5q0 -40 -29 -68.5t-69 -28.5q-19 0 -36 6q16 -23 55 -39q52 -22 118 -22q58 0 114 23.5t92 78t36 147.5q0 50 -22.5 99t-67.5 76t-112 27t-132.5 -37.5t-109 -119.5t-43.5 -224
q0 -164 59 -279q72 -141 218 -141q43 0 99.5 20.5t85.5 66.5h-55v55h172v-55h-55q-30 -71 -106.5 -108t-173.5 -37q-179 0 -311 109q-88 72 -125 183q-10 -29 -23 -55q-52 -104 -152 -170.5t-248 -66.5q-111 0 -183.5 38.5t-107.5 104.5t-35 133q0 100 44 165t112.5 97
t141.5 32q64 0 121 -21t93 -62t36 -111q0 -41 -28.5 -69.5t-69.5 -28.5q-40 0 -69 28.5t-29 69.5q0 40 29 68.5t69 28.5q19 0 36 -6q-16 23 -55 39q-52 22 -118 22q-58 0 -114 -23.5t-92 -78t-36 -147.5q0 -50 22.5 -99t67.5 -76t112 -27t132.5 37.5t109 119.5t43.5 224
q0 164 -59 279q-72 141 -218 141q-43 0 -99.5 -20.5t-85.5 -66.5h55v-55h-172v55h55q30 71 106.5 108t173.5 37q179 0 311 -109q88 -72 125 -183z" />
    <glyph glyph-name="ccedilla" unicode="&#xe7;" horiz-adv-x="857" 
d="M228 192q-97 100 -97 268q0 177 111 280q-67 -119 -67 -285q0 -149 53 -263zM350 77q-77 71 -110 170t-33 208q0 123 41.5 225t135.5 170q-137 -40 -211 -140t-74 -250q0 -139 63.5 -237.5t187.5 -145.5zM495 -10q-169 7 -297 112q-154 125 -154 358q0 136 56.5 240
t167 165t272.5 61q174 0 234 -92q28 -43 28 -94q0 -55 -31.5 -93t-93.5 -38q-53 0 -83 24q-46 39 -46 106q0 41 28.5 69.5t69.5 28.5q40 0 69 -28.5t29 -69.5q0 -40 -29 -68.5t-70 -28.5q11 -5 26 -5q43 0 66 32t23 73q0 31 -16.5 59.5t-51 47t-86.5 18.5q-127 0 -226 -92
q-117 -108 -117 -320q0 -136 43.5 -225.5t110.5 -136t141 -46.5q53 0 104 28t76 70h-56v55h174v-55h-56q-45 -81 -118 -118q-54 -28 -119 -35l-40 -93q153 -27 153 -147q0 -152 -276 -152v52q208 0 208 93q0 103 -163 103z" />
    <glyph glyph-name="egrave" unicode="&#xe8;" horiz-adv-x="874" 
d="M226 191q-93 99 -93 271q0 160 98 271q-54 -111 -54 -265q0 -155 49 -277zM331 81q-65 73 -93.5 176.5t-28.5 210.5q0 119 39 221.5t133 166.5q-134 -38 -207 -144t-73 -250q0 -135 57 -232.5t173 -148.5zM508 -10q-179 0 -311 109q-152 124 -152 363q0 124 51.5 227.5
t151.5 170t248 66.5q111 0 183.5 -38.5t107.5 -104.5t35 -133q0 -100 -44 -165t-112.5 -97t-141.5 -32q-64 0 -121 21t-93 62t-36 111q0 41 28.5 69.5t69.5 28.5q40 0 69 -28.5t29 -69.5q0 -40 -29 -68.5t-69 -28.5q-19 0 -36 6q16 -23 55 -39q52 -22 118 -22q58 0 114 23.5
t92 78t36 147.5q0 50 -22.5 99t-67.5 76t-112 27t-132.5 -37.5t-109 -119.5t-43.5 -224q0 -164 59 -279q72 -142 218 -142q155 0 209 132h-56v55h174v-55h-56q-67 -189 -304 -189zM244 1300h73l227 -300h-71z" />
    <glyph glyph-name="eacute" unicode="&#xe9;" horiz-adv-x="874" 
d="M226 191q-93 99 -93 271q0 160 98 271q-54 -111 -54 -265q0 -155 49 -277zM331 81q-65 73 -93.5 176.5t-28.5 210.5q0 119 39 221.5t133 166.5q-134 -38 -207 -144t-73 -250q0 -135 57 -232.5t173 -148.5zM508 -10q-179 0 -311 109q-152 124 -152 363q0 124 51.5 227.5
t151.5 170t248 66.5q111 0 183.5 -38.5t107.5 -104.5t35 -133q0 -100 -44 -165t-112.5 -97t-141.5 -32q-64 0 -121 21t-93 62t-36 111q0 41 28.5 69.5t69.5 28.5q40 0 69 -28.5t29 -69.5q0 -40 -29 -68.5t-69 -28.5q-19 0 -36 6q16 -23 55 -39q52 -22 118 -22q58 0 114 23.5
t92 78t36 147.5q0 50 -22.5 99t-67.5 76t-112 27t-132.5 -37.5t-109 -119.5t-43.5 -224q0 -164 59 -279q72 -142 218 -142q155 0 209 132h-56v55h174v-55h-56q-67 -189 -304 -189zM644 1300l-229 -300h-71l227 300h73z" />
    <glyph glyph-name="ecircumflex" unicode="&#xea;" horiz-adv-x="874" 
d="M226 191q-93 99 -93 271q0 160 98 271q-54 -111 -54 -265q0 -155 49 -277zM331 81q-65 73 -93.5 176.5t-28.5 210.5q0 119 39 221.5t133 166.5q-134 -38 -207 -144t-73 -250q0 -135 57 -232.5t173 -148.5zM508 -10q-179 0 -311 109q-152 124 -152 363q0 124 51.5 227.5
t151.5 170t248 66.5q111 0 183.5 -38.5t107.5 -104.5t35 -133q0 -100 -44 -165t-112.5 -97t-141.5 -32q-64 0 -121 21t-93 62t-36 111q0 41 28.5 69.5t69.5 28.5q40 0 69 -28.5t29 -69.5q0 -40 -29 -68.5t-69 -28.5q-19 0 -36 6q16 -23 55 -39q52 -22 118 -22q58 0 114 23.5
t92 78t36 147.5q0 50 -22.5 99t-67.5 76t-112 27t-132.5 -37.5t-109 -119.5t-43.5 -224q0 -164 59 -279q72 -142 218 -142q155 0 209 132h-56v55h174v-55h-56q-67 -189 -304 -189zM444 1227l-173 -227h-71l227 300h35l227 -300h-71z" />
    <glyph glyph-name="edieresis" unicode="&#xeb;" horiz-adv-x="874" 
d="M226 191q-93 99 -93 271q0 160 98 271q-54 -111 -54 -265q0 -155 49 -277zM331 81q-65 73 -93.5 176.5t-28.5 210.5q0 119 39 221.5t133 166.5q-134 -38 -207 -144t-73 -250q0 -135 57 -232.5t173 -148.5zM508 -10q-179 0 -311 109q-152 124 -152 363q0 124 51.5 227.5
t151.5 170t248 66.5q111 0 183.5 -38.5t107.5 -104.5t35 -133q0 -100 -44 -165t-112.5 -97t-141.5 -32q-64 0 -121 21t-93 62t-36 111q0 41 28.5 69.5t69.5 28.5q40 0 69 -28.5t29 -69.5q0 -40 -29 -68.5t-69 -28.5q-19 0 -36 6q16 -23 55 -39q52 -22 118 -22q58 0 114 23.5
t92 78t36 147.5q0 50 -22.5 99t-67.5 76t-112 27t-132.5 -37.5t-109 -119.5t-43.5 -224q0 -164 59 -279q72 -142 218 -142q155 0 209 132h-56v55h174v-55h-56q-67 -189 -304 -189zM287 1044q-38 0 -65.5 27t-27.5 66q0 37 27.5 64.5t65.5 27.5q40 0 67 -27.5t27 -64.5
q0 -39 -27 -66t-67 -27zM600 1044q-38 0 -65.5 27t-27.5 66q0 37 27.5 64.5t65.5 27.5q40 0 67 -27.5t27 -64.5q0 -39 -27 -66t-67 -27z" />
    <glyph glyph-name="igrave" unicode="&#xec;" horiz-adv-x="606" 
d="M395 87h-43v742h43v-742zM427 55v805h-107v-805h107zM140 580q-60 0 -89.5 35.5t-29.5 88.5q0 87 65 149.5t178 62.5h275v-55h-56v-806h56v-55h-331v55h56v800q-85 0 -128.5 -27.5t-63 -64.5t-19.5 -71q0 -58 35 -72q-24 27 -24 63q0 41 28.5 69.5t69.5 28.5
q40 0 69 -28.5t29 -69.5q0 -40 -29 -68q-36 -35 -91 -35zM115 1300h73l227 -300h-71z" />
    <glyph glyph-name="iacute" unicode="&#xed;" horiz-adv-x="606" 
d="M395 87h-43v742h43v-742zM427 55v805h-107v-805h107zM140 580q-60 0 -89.5 35.5t-29.5 88.5q0 87 65 149.5t178 62.5h275v-55h-56v-806h56v-55h-331v55h56v800q-85 0 -128.5 -27.5t-63 -64.5t-19.5 -71q0 -58 35 -72q-24 27 -24 63q0 41 28.5 69.5t69.5 28.5
q40 0 69 -28.5t29 -69.5q0 -40 -29 -68q-36 -35 -91 -35zM642 1300l-229 -300h-71l227 300h73z" />
    <glyph glyph-name="icircumflex" unicode="&#xee;" horiz-adv-x="606" 
d="M395 87h-43v742h43v-742zM427 55v805h-107v-805h107zM140 580q-60 0 -89.5 35.5t-29.5 88.5q0 87 65 149.5t178 62.5h275v-55h-56v-806h56v-55h-331v55h56v800q-85 0 -128.5 -27.5t-63 -64.5t-19.5 -71q0 -58 35 -72q-24 27 -24 63q0 41 28.5 69.5t69.5 28.5
q40 0 69 -28.5t29 -69.5q0 -40 -29 -68q-36 -35 -91 -35zM385 1227l-173 -227h-71l227 300h35l227 -300h-71z" />
    <glyph glyph-name="idieresis" unicode="&#xef;" horiz-adv-x="606" 
d="M395 87h-43v742h43v-742zM427 55v805h-107v-805h107zM140 580q-60 0 -89.5 35.5t-29.5 88.5q0 87 65 149.5t178 62.5h275v-55h-56v-806h56v-55h-331v55h56v800q-85 0 -128.5 -27.5t-63 -64.5t-19.5 -71q0 -58 35 -72q-24 27 -24 63q0 41 28.5 69.5t69.5 28.5
q40 0 69 -28.5t29 -69.5q0 -40 -29 -68q-36 -35 -91 -35zM223 1044q-38 0 -65.5 27t-27.5 66q0 37 27.5 64.5t65.5 27.5q40 0 67 -27.5t27 -64.5q0 -39 -27 -66t-67 -27zM536 1044q-38 0 -65.5 27t-27.5 66q0 37 27.5 64.5t65.5 27.5q40 0 67 -27.5t27 -64.5q0 -39 -27 -66
t-67 -27z" />
    <glyph glyph-name="eth" unicode="&#xf0;" horiz-adv-x="1022" 
d="M816 87h-40v1265h40v-1265zM225 158q-95 104 -95 285q0 169 97 282q-56 -136 -56 -285q0 -161 54 -282zM848 55v1329h-104v-1329h104zM338 56q-75 69 -105 174.5t-30 209.5q0 113 34 222.5t110 183.5q-123 -48 -186 -158t-63 -245q0 -139 59.5 -245.5t180.5 -141.5z
M904 1085v-1030h54v-55h-269l-3 829q-68 38 -144 38q-93 0 -156.5 -61.5t-95.5 -157t-32 -208.5q0 -107 27 -193.5t80.5 -141t135.5 -54.5q61 0 101 31.5t40 93.5q0 40 -22.5 71.5t-65.5 31.5l-16 -2q35 -2 62.5 -29.5t27.5 -68.5q0 -39 -29 -67.5t-69 -28.5
q-41 0 -69.5 28.5t-28.5 67.5q0 65 46 105q30 23 81 23q62 0 94.5 -37t32.5 -96q0 -72 -41 -112t-102 -56t-120 -16q-128 0 -212.5 64t-126 165.5t-41.5 223.5q0 198 113 334q123 149 336 149q108 0 194 -37l1 196h-188v57h189l1 243h-54v55h323v-55h-54v-243h118v-57h-118z
" />
    <glyph glyph-name="ntilde" unicode="&#xf1;" horiz-adv-x="1015" 
d="M840 88h-44v385q0 171 -26 279q61 -76 67 -177q3 -47 3 -487zM247 88h-43l3 740h40v-740zM872 56v417q0 74 -12 149.5t-58.5 146t-112.5 83.5q57 -64 70 -225q6 -79 6 -154v-417h107zM279 56v804h-103l-4 -804h107zM389 0h-329v55h56l4 806h-60v55h275v-861h54v-55z
M557 600q-35 -30 -80 -30q-33 0 -64.5 15.5t-51 47.5t-19.5 81q0 91 74 151.5t181 60.5q130 0 202.5 -69.5t100.5 -173t28 -210.5v-418h55v-55h-330v55h56v418q0 194 -33 290.5t-138 96.5q-81 0 -121.5 -45.5t-40.5 -100.5q0 -44 16.5 -69t39 -36t43.5 -11q16 0 27 5h-2
q-41 0 -69.5 28.5t-28.5 68.5q0 41 28.5 69.5t69.5 28.5q40 0 69 -28.5t29 -69.5q0 -65 -41 -100zM619 1207q54 0 113 -80l-32 -38q-38 58 -81 58q-27 0 -91.5 -34.5t-102.5 -34.5q-54 0 -113 80l32 38q38 -58 81 -58q27 0 91.5 34.5t102.5 34.5z" />
    <glyph glyph-name="ograve" unicode="&#xf2;" horiz-adv-x="928" 
d="M227 181q-96 104 -96 277q0 172 96 276q-55 -142 -55 -277q0 -134 55 -276zM707 188q49 148 49 270t-48 269q89 -104 89 -269q0 -166 -90 -270zM464 55q128 0 187 249q-66 -66 -146 -66t-135 60q-13 14 -22 33q-24 46 -24 94q0 51 22 87.5t56 56t69 19.5q53 -1 88 -33
q29 -29 29 -71t-29.5 -72t-70.5 -30t-70.5 30t-29.5 72q0 16 4 29q-27 -38 -27 -86q0 -37 15.5 -70t47 -54.5t77.5 -21.5q67 0 115.5 51t48.5 126q0 118 -46 244q-57 158 -159 158q-98 0 -157 -160q-47 -130 -47 -243q0 -112 47 -242q59 -160 157 -160zM619 85
q103 47 156.5 146t53.5 227q0 127 -53.5 226t-157.5 146q57 -81 81.5 -189t24.5 -183t-24.5 -183t-80.5 -190zM315 83q-51 73 -74 152q-37 122 -37 222q0 97 37 223q23 79 74 152q-107 -45 -161 -145t-54 -229q0 -130 54 -230t161 -145zM464 0q-135 0 -229 61t-142.5 164.5
t-48.5 232.5q0 128 49 231.5t142.5 164.5t228.5 61t228.5 -61t142.5 -164.5t49 -231.5t-48.5 -232t-142.5 -165t-229 -61zM264 1300h73l227 -300h-71z" />
    <glyph glyph-name="oacute" unicode="&#xf3;" horiz-adv-x="928" 
d="M227 181q-96 104 -96 277q0 172 96 276q-55 -142 -55 -277q0 -134 55 -276zM707 188q49 148 49 270t-48 269q89 -104 89 -269q0 -166 -90 -270zM464 55q128 0 187 249q-66 -66 -146 -66t-135 60q-13 14 -22 33q-24 46 -24 94q0 51 22 87.5t56 56t69 19.5q53 -1 88 -33
q29 -29 29 -71t-29.5 -72t-70.5 -30t-70.5 30t-29.5 72q0 16 4 29q-27 -38 -27 -86q0 -37 15.5 -70t47 -54.5t77.5 -21.5q67 0 115.5 51t48.5 126q0 118 -46 244q-57 158 -159 158q-98 0 -157 -160q-47 -130 -47 -243q0 -112 47 -242q59 -160 157 -160zM619 85
q103 47 156.5 146t53.5 227q0 127 -53.5 226t-157.5 146q57 -81 81.5 -189t24.5 -183t-24.5 -183t-80.5 -190zM315 83q-51 73 -74 152q-37 122 -37 222q0 97 37 223q23 79 74 152q-107 -45 -161 -145t-54 -229q0 -130 54 -230t161 -145zM464 0q-135 0 -229 61t-142.5 164.5
t-48.5 232.5q0 128 49 231.5t142.5 164.5t228.5 61t228.5 -61t142.5 -164.5t49 -231.5t-48.5 -232t-142.5 -165t-229 -61zM664 1300l-229 -300h-71l227 300h73z" />
    <glyph glyph-name="ocircumflex" unicode="&#xf4;" horiz-adv-x="928" 
d="M227 181q-96 104 -96 277q0 172 96 276q-55 -142 -55 -277q0 -134 55 -276zM707 188q49 148 49 270t-48 269q89 -104 89 -269q0 -166 -90 -270zM464 55q128 0 187 249q-66 -66 -146 -66t-135 60q-13 14 -22 33q-24 46 -24 94q0 51 22 87.5t56 56t69 19.5q53 -1 88 -33
q29 -29 29 -71t-29.5 -72t-70.5 -30t-70.5 30t-29.5 72q0 16 4 29q-27 -38 -27 -86q0 -37 15.5 -70t47 -54.5t77.5 -21.5q67 0 115.5 51t48.5 126q0 118 -46 244q-57 158 -159 158q-98 0 -157 -160q-47 -130 -47 -243q0 -112 47 -242q59 -160 157 -160zM619 85
q103 47 156.5 146t53.5 227q0 127 -53.5 226t-157.5 146q57 -81 81.5 -189t24.5 -183t-24.5 -183t-80.5 -190zM315 83q-51 73 -74 152q-37 122 -37 222q0 97 37 223q23 79 74 152q-107 -45 -161 -145t-54 -229q0 -130 54 -230t161 -145zM464 0q-135 0 -229 61t-142.5 164.5
t-48.5 232.5q0 128 49 231.5t142.5 164.5t228.5 61t228.5 -61t142.5 -164.5t49 -231.5t-48.5 -232t-142.5 -165t-229 -61zM464 1227l-173 -227h-71l227 300h35l227 -300h-71z" />
    <glyph glyph-name="otilde" unicode="&#xf5;" horiz-adv-x="928" 
d="M227 181q-96 104 -96 277q0 172 96 276q-55 -142 -55 -277q0 -134 55 -276zM707 188q49 148 49 270t-48 269q89 -104 89 -269q0 -166 -90 -270zM464 55q128 0 187 249q-66 -66 -146 -66t-135 60q-13 14 -22 33q-24 46 -24 94q0 51 22 87.5t56 56t69 19.5q53 -1 88 -33
q29 -29 29 -71t-29.5 -72t-70.5 -30t-70.5 30t-29.5 72q0 16 4 29q-27 -38 -27 -86q0 -37 15.5 -70t47 -54.5t77.5 -21.5q67 0 115.5 51t48.5 126q0 118 -46 244q-57 158 -159 158q-98 0 -157 -160q-47 -130 -47 -243q0 -112 47 -242q59 -160 157 -160zM619 85
q103 47 156.5 146t53.5 227q0 127 -53.5 226t-157.5 146q57 -81 81.5 -189t24.5 -183t-24.5 -183t-80.5 -190zM315 83q-51 73 -74 152q-37 122 -37 222q0 97 37 223q23 79 74 152q-107 -45 -161 -145t-54 -229q0 -130 54 -230t161 -145zM464 0q-135 0 -229 61t-142.5 164.5
t-48.5 232.5q0 128 49 231.5t142.5 164.5t228.5 61t228.5 -61t142.5 -164.5t49 -231.5t-48.5 -232t-142.5 -165t-229 -61zM561 1207q54 0 113 -80l-32 -38q-38 58 -81 58q-27 0 -91.5 -34.5t-102.5 -34.5q-54 0 -113 80l32 38q38 -58 81 -58q27 0 91.5 34.5t102.5 34.5z" />
    <glyph glyph-name="odieresis" unicode="&#xf6;" horiz-adv-x="928" 
d="M227 181q-96 104 -96 277q0 172 96 276q-55 -142 -55 -277q0 -134 55 -276zM707 188q49 148 49 270t-48 269q89 -104 89 -269q0 -166 -90 -270zM464 55q128 0 187 249q-66 -66 -146 -66t-135 60q-13 14 -22 33q-24 46 -24 94q0 51 22 87.5t56 56t69 19.5q53 -1 88 -33
q29 -29 29 -71t-29.5 -72t-70.5 -30t-70.5 30t-29.5 72q0 16 4 29q-27 -38 -27 -86q0 -37 15.5 -70t47 -54.5t77.5 -21.5q67 0 115.5 51t48.5 126q0 118 -46 244q-57 158 -159 158q-98 0 -157 -160q-47 -130 -47 -243q0 -112 47 -242q59 -160 157 -160zM619 85
q103 47 156.5 146t53.5 227q0 127 -53.5 226t-157.5 146q57 -81 81.5 -189t24.5 -183t-24.5 -183t-80.5 -190zM315 83q-51 73 -74 152q-37 122 -37 222q0 97 37 223q23 79 74 152q-107 -45 -161 -145t-54 -229q0 -130 54 -230t161 -145zM464 0q-135 0 -229 61t-142.5 164.5
t-48.5 232.5q0 128 49 231.5t142.5 164.5t228.5 61t228.5 -61t142.5 -164.5t49 -231.5t-48.5 -232t-142.5 -165t-229 -61zM307 1044q-38 0 -65.5 27t-27.5 66q0 37 27.5 64.5t65.5 27.5q40 0 67 -27.5t27 -64.5q0 -39 -27 -66t-67 -27zM620 1044q-38 0 -65.5 27t-27.5 66
q0 37 27.5 64.5t65.5 27.5q40 0 67 -27.5t27 -64.5q0 -39 -27 -66t-67 -27z" />
    <glyph glyph-name="divide" unicode="&#xf7;" 
d="M88 621v58h625v-58h-625zM400 210q-45 0 -77 32t-32 77q0 44 32 76t77 32q46 0 78 -32t32 -76q0 -45 -32 -77t-78 -32zM400 873q-45 0 -77 32t-32 77q0 44 32 76t77 32q46 0 78 -32t32 -76q0 -45 -32 -77t-78 -32z" />
    <glyph glyph-name="oslash" unicode="&#xf8;" horiz-adv-x="928" 
d="M315 83q-51 73 -74 152q-37 122 -37 222q0 97 37 223q23 79 74 152q-107 -45 -161 -145t-54 -229q0 -130 54 -230t161 -145zM619 85q103 47 156.5 146t53.5 227q0 127 -53.5 226t-157.5 146q57 -81 81.5 -189t24.5 -183t-24.5 -183t-80.5 -190zM227 181q-96 104 -96 277
q0 172 96 276q-55 -142 -55 -277q0 -134 55 -276zM707 188q49 148 49 270t-48 269q89 -104 89 -269q0 -166 -90 -270zM358 116q46 -61 106 -61q103 0 160 158q45 126 45 245q0 118 -46 244q-7 21 -16 38zM325 171l250 626q-47 63 -111 63q-98 0 -157 -160q-47 -130 -47 -243
q0 -112 47 -242q9 -24 18 -44zM660 873q17 -9 33 -19q93 -61 142 -164.5t49 -231.5t-48.5 -232t-142.5 -165t-229 -61q-79 0 -144 21l-88 -221h-55l96 240q-20 9 -38 21q-94 61 -142.5 164.5t-48.5 232.5q0 128 49 231.5t142.5 164.5t228.5 61q82 0 149 -23l83 208h55z" />
    <glyph glyph-name="ugrave" unicode="&#xf9;" horiz-adv-x="1026" 
d="M254 163q-59 77 -66 178q-3 47 -3 487h44v-385q0 -171 25 -280zM817 88h-39v740h44zM336 64q-57 64 -69 225q-6 79 -6 154v417h-108v-417q0 -74 12 -149.5t51.5 -136t119.5 -93.5zM849 56l5 804h-107v-804h102zM965 0h-274v861h-55v55h329v-55h-55l-5 -806h60v-55z
M468 316q36 30 80 30q33 0 64 -15.5t51.5 -47.5t20.5 -81q0 -91 -74 -151.5t-183 -60.5q-128 0 -200.5 69.5t-100.5 173t-28 210.5v418h-56v55h331v-55h-56v-418q0 -194 33 -290.5t138 -96.5q80 0 121 45t41 101q0 44 -17.5 69t-40 35.5t-43.5 10.5q-19 0 -30 -7l8 1
q39 0 68.5 -28.5t29.5 -69.5q0 -40 -29.5 -68.5t-68.5 -28.5q-42 0 -70.5 28.5t-28.5 68.5q0 68 40 103zM251 1300h73l227 -300h-71z" />
    <glyph glyph-name="uacute" unicode="&#xfa;" horiz-adv-x="1026" 
d="M254 163q-59 77 -66 178q-3 47 -3 487h44v-385q0 -171 25 -280zM817 88h-39v740h44zM336 64q-57 64 -69 225q-6 79 -6 154v417h-108v-417q0 -74 12 -149.5t51.5 -136t119.5 -93.5zM849 56l5 804h-107v-804h102zM965 0h-274v861h-55v55h329v-55h-55l-5 -806h60v-55z
M468 316q36 30 80 30q33 0 64 -15.5t51.5 -47.5t20.5 -81q0 -91 -74 -151.5t-183 -60.5q-128 0 -200.5 69.5t-100.5 173t-28 210.5v418h-56v55h331v-55h-56v-418q0 -194 33 -290.5t138 -96.5q80 0 121 45t41 101q0 44 -17.5 69t-40 35.5t-43.5 10.5q-19 0 -30 -7l8 1
q39 0 68.5 -28.5t29.5 -69.5q0 -40 -29.5 -68.5t-68.5 -28.5q-42 0 -70.5 28.5t-28.5 68.5q0 68 40 103zM763 1300l-229 -300h-71l227 300h73z" />
    <glyph glyph-name="ucircumflex" unicode="&#xfb;" horiz-adv-x="1026" 
d="M254 163q-59 77 -66 178q-3 47 -3 487h44v-385q0 -171 25 -280zM817 88h-39v740h44zM336 64q-57 64 -69 225q-6 79 -6 154v417h-108v-417q0 -74 12 -149.5t51.5 -136t119.5 -93.5zM849 56l5 804h-107v-804h102zM965 0h-274v861h-55v55h329v-55h-55l-5 -806h60v-55z
M468 316q36 30 80 30q33 0 64 -15.5t51.5 -47.5t20.5 -81q0 -91 -74 -151.5t-183 -60.5q-128 0 -200.5 69.5t-100.5 173t-28 210.5v418h-56v55h331v-55h-56v-418q0 -194 33 -290.5t138 -96.5q80 0 121 45t41 101q0 44 -17.5 69t-40 35.5t-43.5 10.5q-19 0 -30 -7l8 1
q39 0 68.5 -28.5t29.5 -69.5q0 -40 -29.5 -68.5t-68.5 -28.5q-42 0 -70.5 28.5t-28.5 68.5q0 68 40 103zM503 1227l-173 -227h-71l227 300h35l227 -300h-71z" />
    <glyph glyph-name="udieresis" unicode="&#xfc;" horiz-adv-x="1026" 
d="M254 163q-59 77 -66 178q-3 47 -3 487h44v-385q0 -171 25 -280zM817 88h-39v740h44zM336 64q-57 64 -69 225q-6 79 -6 154v417h-108v-417q0 -74 12 -149.5t51.5 -136t119.5 -93.5zM849 56l5 804h-107v-804h102zM965 0h-274v861h-55v55h329v-55h-55l-5 -806h60v-55z
M468 316q36 30 80 30q33 0 64 -15.5t51.5 -47.5t20.5 -81q0 -91 -74 -151.5t-183 -60.5q-128 0 -200.5 69.5t-100.5 173t-28 210.5v418h-56v55h331v-55h-56v-418q0 -194 33 -290.5t138 -96.5q80 0 121 45t41 101q0 44 -17.5 69t-40 35.5t-43.5 10.5q-19 0 -30 -7l8 1
q39 0 68.5 -28.5t29.5 -69.5q0 -40 -29.5 -68.5t-68.5 -28.5q-42 0 -70.5 28.5t-28.5 68.5q0 68 40 103zM346 1044q-38 0 -65.5 27t-27.5 66q0 37 27.5 64.5t65.5 27.5q40 0 67 -27.5t27 -64.5q0 -39 -27 -66t-67 -27zM659 1044q-38 0 -65.5 27t-27.5 66q0 37 27.5 64.5
t65.5 27.5q40 0 67 -27.5t27 -64.5q0 -39 -27 -66t-67 -27z" />
    <glyph glyph-name="yacute" unicode="&#xfd;" horiz-adv-x="1020" 
d="M283 105q-44 25 -62 81q-25 72 -25 208v435h44v-452q0 -58 5.5 -129.5t37.5 -142.5zM746 -252q38 109 38 293l-3 787h45q4 -590 4 -783q0 -195 -84 -297zM362 52q-60 66 -75.5 144.5t-15.5 179.5q0 37 1 485h-108v-484q0 -66 6 -128q10 -78 52 -131t140 -66zM641 -354
q221 71 221 403q0 177 -4 811h-108q3 -797 3 -832q0 -89 -15 -187q-18 -119 -97 -195zM468 156q-24 28 -24 74q0 57 35.5 87t79.5 30q33 0 64 -15.5t51.5 -47.5t20.5 -81q0 -91 -74 -152t-183 -61q-142 2 -214 54t-94 152.5t-22 247.5v418h-55v55h329v-55h-54
q-1 -461 -1 -475q0 -131 20 -203q35 -127 151 -127q81 0 121 45.5t40 100.5q0 44 -16.5 69t-39 36t-43.5 11q-14 0 -23 -4q47 0 76 -28.5t29 -69.5q0 -40 -29 -68.5t-69 -28.5q-44 0 -76 36zM461 -369q149 0 200 139q35 92 35 293l-2 798h-56v55h330v-55h-54l4 -798
q0 -233 -95.5 -365t-321.5 -132q-242 0 -290 214h-57v55h172v-55h-53q38 -149 188 -149zM767 1300l-229 -300h-71l227 300h73z" />
    <glyph glyph-name="thorn" unicode="&#xfe;" horiz-adv-x="1022" 
d="M797 191q55 136 55 285q0 161 -55 281q96 -104 96 -284q0 -170 -96 -282zM675 70q123 48 186.5 157.5t63.5 245.5q0 138 -60 244.5t-181 142.5q76 -70 106 -175t30 -209q0 -113 -34 -222.5t-111 -183.5zM245 -194v-242h-39v1788h39v-560h-1zM174 -468h102v1852h-102
v-1852zM333 -194l-1 -275h55v-55h-324v55h55v1854h-55v55h324v-55h-55l1 -593h-1l2 -704q69 -40 147 -40q93 0 156 61.5t95 157.5t32 209q0 105 -26 192.5t-80.5 142t-136.5 54.5q-60 0 -100 -32t-40 -93q0 -40 22.5 -71.5t65.5 -31.5q15 0 27 5q-42 0 -70.5 28.5
t-28.5 68.5q0 41 28.5 69.5t69.5 28.5q40 0 69 -28.5t29 -69.5q0 -58 -32 -94t-98 -36q-60 0 -93 37t-33 96q0 72 41 112t102 56t120 16q128 0 212 -64t126 -165.5t42 -223.5q0 -199 -112 -333q-126 -151 -338 -151q-109 0 -196 38z" />
    <glyph glyph-name="ydieresis" unicode="&#xff;" horiz-adv-x="1020" 
d="M283 105q-44 25 -62 81q-25 72 -25 208v435h44v-452q0 -58 5.5 -129.5t37.5 -142.5zM746 -252q38 109 38 293l-3 787h45q4 -590 4 -783q0 -195 -84 -297zM362 52q-60 66 -75.5 144.5t-15.5 179.5q0 37 1 485h-108v-484q0 -66 6 -128q10 -78 52 -131t140 -66zM641 -354
q221 71 221 403q0 177 -4 811h-108q3 -797 3 -832q0 -89 -15 -187q-18 -119 -97 -195zM468 156q-24 28 -24 74q0 57 35.5 87t79.5 30q33 0 64 -15.5t51.5 -47.5t20.5 -81q0 -91 -74 -152t-183 -61q-142 2 -214 54t-94 152.5t-22 247.5v418h-55v55h329v-55h-54
q-1 -461 -1 -475q0 -131 20 -203q35 -127 151 -127q81 0 121 45.5t40 100.5q0 44 -16.5 69t-39 36t-43.5 11q-14 0 -23 -4q47 0 76 -28.5t29 -69.5q0 -40 -29 -68.5t-69 -28.5q-44 0 -76 36zM461 -369q149 0 200 139q35 92 35 293l-2 798h-56v55h330v-55h-54l4 -798
q0 -233 -95.5 -365t-321.5 -132q-242 0 -290 214h-57v55h172v-55h-53q38 -149 188 -149zM353 1044q-38 0 -65.5 27t-27.5 66q0 37 27.5 64.5t65.5 27.5q40 0 67 -27.5t27 -64.5q0 -39 -27 -66t-67 -27zM666 1044q-38 0 -65.5 27t-27.5 66q0 37 27.5 64.5t65.5 27.5
q40 0 67 -27.5t27 -64.5q0 -39 -27 -66t-67 -27z" />
    <glyph glyph-name="dotlessi" unicode="&#x131;" horiz-adv-x="606" 
d="M395 87h-43v742h43v-742zM427 55v805h-107v-805h107zM140 580q-60 0 -89.5 35.5t-29.5 88.5q0 87 65 149.5t178 62.5h275v-55h-56v-806h56v-55h-331v55h56v800q-85 0 -128.5 -27.5t-63 -64.5t-19.5 -71q0 -58 35 -72q-24 27 -24 63q0 41 28.5 69.5t69.5 28.5
q40 0 69 -28.5t29 -69.5q0 -40 -29 -68q-36 -35 -91 -35z" />
    <glyph glyph-name="circumflex" unicode="&#x2c6;" horiz-adv-x="665" 
d="M332 1227l-173 -227h-71l227 300h35l227 -300h-71z" />
    <glyph glyph-name="caron" unicode="&#x2c7;" horiz-adv-x="665" 
d="M332 1073l174 227h71l-227 -300h-35l-227 300h71z" />
    <glyph glyph-name="uni02C9" unicode="&#x2c9;" horiz-adv-x="576" 
d="M488 1085h-400v57h400v-57z" />
    <glyph glyph-name="breve" unicode="&#x2d8;" horiz-adv-x="528" 
d="M273 983q-46 0 -88 22.5t-69.5 67t-27.5 110.5q41 -139 185 -139q56 0 101 33.5t66 106.5q0 -68 -24 -112.5t-62 -66.5t-81 -22z" />
    <glyph glyph-name="dotaccent" unicode="&#x2d9;" horiz-adv-x="363" 
d="M181 1044q-38 0 -65.5 27t-27.5 66q0 37 27.5 64.5t65.5 27.5q40 0 67 -27.5t27 -64.5q0 -39 -27 -66t-67 -27z" />
    <glyph glyph-name="ring" unicode="&#x2da;" horiz-adv-x="499" 
d="M250 975q-68 0 -115 47.5t-47 114.5q0 68 47 115.5t115 47.5q67 0 114.5 -47.5t47.5 -115.5q0 -67 -47.5 -114.5t-114.5 -47.5zM250 1017q47 0 81 35t34 85q0 49 -34 84.5t-81 35.5q-48 0 -81.5 -35.5t-33.5 -84.5q0 -50 33.5 -85t81.5 -35z" />
    <glyph glyph-name="ogonek" unicode="&#x2db;" horiz-adv-x="447" 
d="M240 -400q-152 0 -152 132q0 151 212 268h59q-203 -153 -203 -261q0 -83 84 -83q45 0 119 10v-50q-74 -16 -119 -16z" />
    <glyph glyph-name="tilde" unicode="&#x2dc;" horiz-adv-x="567" 
d="M381 1207q54 0 113 -80l-32 -38q-38 58 -81 58q-27 0 -91.5 -34.5t-102.5 -34.5q-54 0 -113 80l32 38q38 -58 81 -58q27 0 91.5 34.5t102.5 34.5z" />
    <glyph glyph-name="hungarumlaut" unicode="&#x2dd;" horiz-adv-x="776" 
d="M388 1300l-229 -300h-71l227 300h73zM688 1300l-229 -300h-71l227 300h73z" />
    <glyph glyph-name="endash" unicode="&#x2013;" horiz-adv-x="1176" 
d="M1088 448h-1000v57h1000v-57z" />
    <glyph glyph-name="emdash" unicode="&#x2014;" horiz-adv-x="1676" 
d="M1588 448h-1500v57h1500v-57z" />
    <glyph glyph-name="quoteleft" unicode="&#x2018;" horiz-adv-x="395" 
d="M307 1450q-103 -119 -109 -290q45 0 77 -32t32 -77q0 -44 -32 -76t-77 -32q-46 0 -78 32t-32 76q0 136 55 251q70 148 164 148z" />
    <glyph glyph-name="quoteright" unicode="&#x2019;" horiz-adv-x="395" 
d="M88 943q103 119 109 290q-45 0 -77 32t-32 77q0 44 32 76t77 32q46 0 78 -32t32 -76q0 -136 -55 -251q-70 -148 -164 -148z" />
    <glyph glyph-name="quotesinglbase" unicode="&#x201a;" horiz-adv-x="395" 
d="M88 -300q103 119 109 290q-45 0 -77 32t-32 77q0 44 32 76t77 32q46 0 78 -32t32 -76q0 -136 -55 -251q-70 -148 -164 -148z" />
    <glyph glyph-name="quotedblleft" unicode="&#x201c;" horiz-adv-x="702" 
d="M307 1450q-103 -119 -109 -290q45 0 77 -32t32 -77q0 -44 -32 -76t-77 -32q-46 0 -78 32t-32 76q0 136 55 251q70 148 164 148zM614 1450q-103 -119 -109 -290q45 0 77 -32t32 -77q0 -44 -32 -76t-77 -32q-46 0 -78 32t-32 76q0 136 54 251q71 148 165 148z" />
    <glyph glyph-name="quotedblright" unicode="&#x201d;" horiz-adv-x="702" 
d="M88 943q103 119 109 290q-45 0 -77 32t-32 77q0 44 32 76t77 32q46 0 78 -32t32 -76q0 -136 -55 -251q-70 -148 -164 -148zM395 943q102 119 109 290q-45 0 -77 32t-32 77q0 44 32 76t77 32q46 0 78 -32t32 -76q0 -136 -55 -251q-70 -148 -164 -148z" />
    <glyph glyph-name="quotedblbase" unicode="&#x201e;" horiz-adv-x="702" 
d="M88 -253q103 118 109 290q-45 0 -77 32t-32 77q0 44 32 76t77 32q46 0 78 -32t32 -76q0 -136 -55 -252q-70 -147 -164 -147zM395 -253q102 118 109 290q-45 0 -77 32t-32 77q0 44 32 76t77 32q46 0 78 -32t32 -76q0 -136 -55 -252q-70 -147 -164 -147z" />
    <glyph glyph-name="dagger" unicode="&#x2020;" horiz-adv-x="976" 
d="M510 -212h-43v1564h43v-1564zM542 -244v1628h-107v-1628h107zM380 1043h-292v57h292v284h-56v56h329v-56h-55v-284h290v-57h-290v-1287h55v-56h-329v56h56v1287z" />
    <glyph glyph-name="daggerdbl" unicode="&#x2021;" horiz-adv-x="976" 
d="M510 -212h-43v1564h43v-1564zM542 -244v1628h-107v-1628h107zM380 1043h-292v57h292v284h-56v56h329v-56h-55v-284h290v-57h-290v-945h290v-57h-290v-285h55v-56h-329v56h56v285h-292v57h292v945z" />
    <glyph glyph-name="bullet" unicode="&#x2022;" horiz-adv-x="613" 
d="M305 423q-90 0 -153.5 63t-63.5 153q0 88 63.5 151.5t153.5 63.5q93 0 156.5 -63.5t63.5 -151.5q0 -90 -63.5 -153t-156.5 -63z" />
    <glyph glyph-name="ellipsis" unicode="&#x2026;" horiz-adv-x="1762" 
d="M197 -10q-45 0 -77 32t-32 77q0 44 32 76t77 32q47 0 79 -32t32 -76q0 -45 -32 -77t-79 -32zM880 -10q-45 0 -77 32t-32 77q0 44 32 76t77 32q47 0 79 -32t32 -76q0 -45 -32 -77t-79 -32zM1563 -10q-45 0 -77 32t-32 77q0 44 32 76t77 32q47 0 79 -32t32 -76
q0 -45 -32 -77t-79 -32z" />
    <glyph glyph-name="guilsinglleft" unicode="&#x2039;" horiz-adv-x="475" 
d="M387 103h-49l-250 343l250 342h49l-245 -347z" />
    <glyph glyph-name="guilsinglright" unicode="&#x203a;" horiz-adv-x="475" 
d="M88 103l245 338l-245 347h49l250 -342l-250 -343h-49z" />
    <glyph glyph-name="fraction" unicode="&#x2044;" horiz-adv-x="156" 
d="M-245 2h-55l701 1438h55z" />
    <glyph glyph-name="fraction" unicode="&#x2215;" horiz-adv-x="156" 
d="M-245 2h-55l701 1438h55z" />
    <glyph glyph-name="franc" unicode="&#x20a3;" horiz-adv-x="1026" 
d="M308 88h-44v1264h44v-1264zM340 56v1328h-108v-1328h108zM848 1136l-4 -9q19 4 38 23t19 59q0 103 -108 147q-83 33 -202 33h-195v-578h275v-56h-275v-244h221v-56h-221v-399h55v-56h-330v56h55v399h-88v56h88v873h-58v56h473q146 0 232 -40q115 -52 115 -185
q0 -59 -40 -92t-96 -33q-60 0 -100 38q-28 28 -28 68q0 41 28.5 69.5t69.5 28.5q40 0 69 -28.5t29 -69.5q0 -34 -22 -60z" />
    <glyph glyph-name="lira" unicode="&#x20a4;" horiz-adv-x="1080" 
d="M411 234q55 93 55 182q0 65 -20.5 120t-53 104t-69.5 97.5t-70.5 99.5t-55 108.5t-21.5 127.5q0 132 100 217q-51 -98 -51 -217q0 -87 22.5 -153.5t58 -122t73.5 -105.5q32 -42 59.5 -84.5t45 -89.5t17.5 -102q0 -100 -90 -182zM256 91q60 33 124 80t108.5 108t44.5 137
q0 57 -18 104.5t-46 91t-61 86.5q-37 49 -71.5 103.5t-57 121t-22.5 150.5q0 245 192 328q-83 -13 -152 -56.5t-111 -112t-42 -159.5q0 -76 22.5 -138t58 -115t73.5 -103q35 -45 66.5 -92t51 -98t19.5 -111q0 -62 -27.5 -120t-68.5 -109.5t-83 -95.5zM756 0q-58 0 -125 12
q-93 14 -159 14q-89 0 -188 -26h-195q144 140 215.5 232t71.5 190v3h-288v57h278q-19 69 -80 157h-198v57h157q-74 102 -90 127q-67 106 -67 250q0 120 62 207.5t162 135.5t215 48q107 0 206 -43.5t163 -125.5t64 -199q0 -62 -19.5 -125.5t-64 -106.5t-117.5 -43
q-47 0 -86 30t-39 82q0 46 25.5 78t73.5 32q41 0 70 -29t29 -69q0 -41 -28.5 -69t-83.5 -28q10 -4 26 -4q61 0 97.5 35t53 87.5t16.5 106.5q0 119 -90.5 210.5t-208.5 91.5q-148 0 -224.5 -78.5t-76.5 -223.5q0 -76 17.5 -132t47.5 -105t68 -100q15 -20 28 -40h363v-57h-324
q49 -82 66 -157h258v-57h-249q0 -93 -39 -159q-67 -108 -242 -210q131 74 224 74q57 0 112 -14.5t103 -14.5q77 0 123 74l123 1q-55 -176 -236 -176z" />
    <glyph glyph-name="Euro" unicode="&#x20ac;" horiz-adv-x="1114" 
d="M403 254q-69 90 -102 202q-36 121 -36 258q0 272 131 458q-9 -20 -17 -40q-71 -190 -71 -433q2 -251 95 -445zM583 80q-164 120 -218 389q-25 124 -25 261q0 206 68 391q62 157 173 240q-122 -51 -200.5 -156t-113 -231.5t-34.5 -259.5q0 -223 91 -397q87 -165 259 -237z
M186 858q8 59 23 114q35 134 108.5 241.5t185 172t258.5 64.5q108 0 178 -43.5t105 -110t35 -136.5q0 -60 -23.5 -113.5t-69 -87t-112.5 -33.5q-68 0 -104.5 36t-36.5 92q0 43 30 72t71 29t70.5 -29t29.5 -72q0 -42 -30 -71q-24 -25 -56 -29q6 -1 13 -1q52 0 87 27t52.5 70
t17.5 91q0 56 -26 108.5t-79 86.5t-134 34q-184 0 -290 -207q-68 -133 -87 -305h253v-58h-258q-2 -38 -2 -78q0 -63 6 -122h254v-58h-248q7 -43 16 -83q56 -237 199 -338q71 -51 166 -51q92 0 144 34t90 103h-60v55h174v-55h-56q-43 -97 -122.5 -157t-185.5 -60
q-279 0 -441 215q-108 143 -140 337h-202v58h194q-6 56 -6 115q0 43 3 85h-191v58h197z" />
    <glyph glyph-name="minus" unicode="&#x2212;" 
d="M88 621v58h625v-58h-625z" />
    <glyph glyph-name="approxequal" unicode="&#x2248;" horiz-adv-x="928" 
d="M328 464q-109 0 -240 175l46 32q112 -133 194 -133q33 0 136 72q88 63 136 63q109 0 240 -175l-46 -32q-112 133 -194 133q-33 0 -136 -72q-88 -63 -136 -63zM328 255q-109 0 -240 175l46 32q112 -133 194 -133q33 0 136 72q88 63 136 63q109 0 240 -175l-46 -32
q-112 133 -194 133q-33 0 -136 -72q-88 -63 -136 -63z" />
    <glyph glyph-name="lessequal" unicode="&#x2264;" 
d="M713 136l-625 287v54l625 287v-59l-556 -255l556 -255v-59zM88 0v58h625v-58h-625z" />
    <glyph glyph-name="greaterequal" unicode="&#x2265;" 
d="M88 146v59l556 255l-556 255v59l625 -287v-54zM88 0v58h625v-58h-625z" />
    <glyph glyph-name="uniE007" unicode="&#xe007;" horiz-adv-x="2329" 
d="M226 158q-94 104 -94 285q0 159 96 272q-55 -136 -55 -275q0 -161 53 -282zM339 56q-75 69 -105 174.5t-30 209.5q0 103 34 212.5t110 183.5q-122 -48 -185 -158t-63 -235q0 -139 59 -245.5t180 -141.5zM857 34q-81 46 -81 214v580h43v-580q0 -156 38 -214zM932 -11
q-81 61 -81 259v612h-107v-612q0 -144 46 -200t142 -59zM996 -70q-154 0 -231 68t-77 250v570q-68 49 -145 49q-93 0 -156.5 -66.5t-95.5 -162t-32 -198.5q0 -107 27 -193.5t81 -141t136 -54.5q60 0 100 31.5t40 93.5q0 40 -22 71.5t-65 31.5q-9 0 -17 -2q36 -2 63.5 -29.5
t27.5 -68.5q0 -39 -29 -67.5t-69 -28.5q-41 0 -69.5 28.5t-28.5 67.5q0 82 59 112q31 16 69 16q60 0 92.5 -37t32.5 -96q0 -72 -41 -112t-102 -56t-120 -16q-127 0 -211.5 64t-126.5 165.5t-42 223.5q0 188 113 324q124 159 337 159q109 0 194 -47v37h269v-56h-51v-612
q0 -240 135 -240q133 0 357 250q24 28 50 60q257 318 502 318q172 0 275.5 -100t103.5 -250q0 -123 -79 -219.5t-207 -96.5q-114 0 -171 54t-57 126q0 65 42.5 112.5t110.5 47.5q55 -1 84.5 -35.5t29.5 -70.5q0 -39 -27 -71.5t-74 -32.5q-33 0 -49.5 17t-16.5 43
q0 23 16.5 39t39.5 16q22 0 38.5 -16t16.5 -46q16 15 16 43q0 24 -18.5 43.5t-56.5 19.5q-39 0 -69 -32.5t-30 -75.5q0 -53 45.5 -91.5t127.5 -38.5q105 0 168 80t63 185q0 137 -90.5 216t-224.5 79q-226 -4 -481 -322l-29 -35q-94 -116 -180 -186q-134 -108 -271 -108z" />
    <glyph glyph-name="uniE008" unicode="&#xe008;" horiz-adv-x="1017" 
d="M793 201q55 136 55 275q0 161 -54 282q95 -104 95 -285q0 -159 -96 -272zM671 80q123 48 186.5 158t63.5 235q0 139 -59.5 245t-180.5 142q135 -123 135 -384q0 -103 -33.5 -212.5t-111.5 -183.5zM241 87h-39v1011q0 272 108 399q-69 -150 -69 -399v-1011zM273 55
l-1 1043q0 215 49 359q31 90 106 154q-98 -36 -154.5 -109t-79.5 -176t-23 -228v-1043h103zM334 1079q61 0 140.5 8.5t161.5 30t151.5 59.5t112.5 96.5t43 140.5q0 64 -39.5 115.5t-103.5 81.5t-136 30q-309 0 -332 -415q-4 -78 -4 -147h6zM526 -10q-109 0 -198 48v-38h-269
v55h55v980q-172 29 -314 106q-131 -77 -289 -77q-196 0 -285 94q-55 59 -55 150q0 64 43 111.5t111 47.5q55 -1 84.5 -35.5t29.5 -70.5q0 -39 -27 -71.5t-74 -32.5q-33 0 -49.5 17t-16.5 43q0 23 16.5 39t39.5 16q22 0 38.5 -16t16.5 -46q16 15 16 43q0 24 -18.5 43.5
t-56.5 19.5q-39 0 -69 -32.5t-30 -75.5q0 -75 39.5 -115t103.5 -56t134 -16q126 0 237 56q-65 41 -95 74q-93 102 -93 239q0 81 35.5 135t91.5 81t115 27q57 0 109 -25.5t84.5 -76t32.5 -126.5q0 -200 -162 -326q64 -32 107 -46q72 -23 150 -35q0 269 101 420
q125 180 411 180q100 0 186 -34t139 -99t53 -156q0 -172 -168 -273q-197 -118 -508 -118v-917q68 -53 149 -53q94 0 156.5 66.5t95 162.5t32.5 199q0 105 -26.5 192.5t-81 142t-136.5 54.5q-59 0 -99 -32t-40 -93q0 -40 22 -71.5t65 -31.5q14 0 24 4q-40 0 -68.5 28.5
t-28.5 68.5q0 41 28.5 69.5t69.5 28.5q40 0 69 -28.5t29 -69.5q0 -59 -39 -97q-33 -32 -90 -32q-60 0 -92.5 37t-32.5 96q0 72 41 112t101.5 56t120.5 16q127 0 211 -64t126.5 -165.5t42.5 -223.5q0 -188 -113 -323q-124 -160 -338 -160zM-204 1210q156 110 156 290
q0 91 -49 133.5t-111 42.5q-45 0 -88 -20.5t-70.5 -62t-27.5 -103.5q0 -174 190 -280z" />
    <glyph glyph-name="uniE009" unicode="&#xe009;" horiz-adv-x="1890" 
d="M228 192q-97 100 -97 268q0 177 111 280q-67 -119 -67 -285q0 -149 53 -263zM350 77q-77 71 -110 170t-33 208q0 123 41.5 225t135.5 170q-137 -40 -211 -140t-74 -250q0 -139 63.5 -237.5t187.5 -145.5zM572 49q209 0 451.5 293.5t487.5 293.5q172 0 275.5 -100
t103.5 -250q0 -123 -79 -219.5t-207 -96.5q-114 0 -171 54t-57 126q0 65 42.5 112.5t110.5 47.5q55 -1 84.5 -35.5t29.5 -70.5q0 -39 -27 -71.5t-74 -32.5q-33 0 -49.5 17t-16.5 43q0 23 16.5 39t39.5 16q22 0 38.5 -16t16.5 -39v-7q16 15 16 43q0 24 -18.5 43.5t-56.5 19.5
q-39 0 -69 -32.5t-30 -75.5q0 -53 45.5 -91.5t127.5 -38.5q105 0 168 80t63 185q0 137 -90.5 216t-224.5 79q-226 -4 -466.5 -297.5t-504.5 -293.5q-213 0 -349 112q-154 125 -154 358q0 136 56.5 240t167 165t272.5 61q174 0 234 -92q28 -43 28 -94q0 -60 -39.5 -102
t-111.5 -42q-53 0 -83 24q-46 39 -46 106q0 41 28.5 69.5t69.5 28.5q40 0 69 -28.5t29 -69.5q0 -40 -29 -68.5t-70 -28.5q11 -5 26 -5q56 0 85.5 34t29.5 84q0 53 -41.5 89t-112.5 36q-127 0 -226 -92q-117 -108 -117 -320q0 -136 43.5 -225.5t105.5 -135t160 -45.5z" />
    <glyph glyph-name="uniE00A" unicode="&#xe00a;" horiz-adv-x="1022" 
d="M853 56v1042q0 68 9 168t41 190.5t99 154.5q-98 -36 -154.5 -109t-79.5 -176t-23 -228v-1042h108zM821 88h-44v1010q0 272 108 399q-64 -150 -64 -399v-1010zM225 158q-95 104 -95 285q0 169 97 282q-56 -136 -56 -285q0 -161 54 -282zM338 56q-75 69 -105 174.5
t-30 209.5q0 113 34 222.5t110 183.5q-123 -48 -186 -158t-63 -245q0 -139 59.5 -245.5t180.5 -141.5zM423 -10q-128 0 -212.5 64t-126 165.5t-41.5 223.5q0 198 113 334q123 149 336 149q107 0 197 -39v148q-173 29 -314 106q-131 -77 -289 -77q-196 0 -285 94
q-55 59 -55 150q0 64 43 111.5t111 47.5q55 -1 84.5 -35.5t29.5 -70.5q0 -39 -27 -71.5t-74 -32.5q-33 0 -49.5 17t-16.5 43q0 23 16.5 39t39.5 16q22 0 38.5 -16t16.5 -46q16 15 16 43q0 24 -18.5 43.5t-56.5 19.5q-39 0 -69 -32.5t-30 -75.5q0 -75 39.5 -115t103.5 -56
t134 -16q126 0 237 56q-65 41 -95 74q-93 102 -93 239q0 81 35.5 135t91.5 81t115 27q57 0 109 -25.5t84.5 -76t32.5 -126.5q0 -200 -162 -326q64 -32 107 -46q72 -23 150 -36q1 272 101 421q121 180 411 180q100 0 186 -34t139 -99t53 -156q0 -93 -46.5 -160.5
t-121.5 -112.5t-164.5 -71t-173.5 -36.5t-164 -10.5v-963h49v-55h-269v828q-72 39 -147 39q-93 0 -156.5 -61.5t-95.5 -157t-32 -208.5q0 -107 27 -193.5t80.5 -141t135.5 -54.5q61 0 101 31.5t40 93.5q0 40 -22.5 71.5t-65.5 31.5l-16 -2q35 -2 62.5 -29.5t27.5 -68.5
q0 -39 -29 -67.5t-69 -28.5q-41 0 -69.5 28.5t-28.5 67.5q0 65 46 105q30 23 81 23q62 0 94.5 -37t32.5 -96q0 -72 -41 -112t-102 -56t-120 -16zM909 1079q61 0 140.5 8.5t161.5 30t151.5 59.5t112.5 96.5t43 140.5q0 64 -39.5 115.5t-103.5 81.5t-136 30q-298 0 -326 -415
q-4 -78 -4 -147zM371 1210q156 110 156 290q0 91 -49 133.5t-111 42.5q-45 0 -88 -20.5t-70.5 -62t-27.5 -103.5q0 -174 190 -280z" />
    <glyph glyph-name="uniE00B" unicode="&#xe00b;" horiz-adv-x="1889" 
d="M226 191q-93 99 -93 271q0 160 98 271q-54 -111 -54 -265q0 -155 49 -277zM331 81q-65 73 -93.5 176.5t-28.5 210.5q0 119 39 221.5t133 166.5q-134 -38 -207 -144t-73 -250q0 -135 57 -232.5t173 -148.5zM516 -10q-187 0 -319 109q-152 124 -152 363q0 124 51.5 227.5
t151.5 170t248 66.5q111 0 183.5 -38.5t107.5 -104.5t35 -133q0 -100 -44 -165t-112.5 -97t-141.5 -32q-64 0 -121 21t-93 62t-36 111q0 41 28.5 69.5t69.5 28.5q40 0 69 -28.5t29 -69.5q0 -40 -29 -68.5t-69 -28.5q-19 0 -36 6q16 -23 55 -39q52 -22 118 -22q58 0 114 23.5
t92 78t36 147.5q0 50 -22.5 99t-67.5 76t-112 27t-132.5 -37.5t-109 -119.5t-43.5 -224q0 -164 59 -279q72 -140 218 -140q209 0 466.5 293.5t502.5 293.5q172 0 275.5 -100t103.5 -250q0 -123 -79 -219.5t-207 -96.5q-114 0 -171 54t-57 126q0 65 42.5 112.5t110.5 47.5
q55 -1 84.5 -35.5t29.5 -70.5q0 -39 -27 -71.5t-74 -32.5q-33 0 -49.5 17t-16.5 43q0 23 16.5 39t39.5 16q22 0 38.5 -16t16.5 -39v-7q16 15 16 43q0 24 -18.5 43.5t-56.5 19.5q-39 0 -69 -32.5t-30 -75.5q0 -53 45.5 -91.5t127.5 -38.5q105 0 168 80t63 185
q0 137 -90.5 216t-224.5 79q-226 -4 -481.5 -297.5t-519.5 -293.5z" />
    <glyph glyph-name="uniE00C" unicode="&#xe00c;" horiz-adv-x="605" 
d="M293 56v1042q0 68 9 168t41 190.5t99 154.5q-98 -36 -154.5 -109t-79.5 -176t-23 -228v-1042h108zM261 88h-44v1010q0 272 108 399q-64 -150 -64 -399v-1010zM349 1079q61 0 140.5 8.5t161.5 30t151.5 59.5t112.5 96.5t43 140.5q0 64 -39.5 115.5t-103.5 81.5t-136 30
q-298 0 -326 -415q-4 -78 -4 -147zM404 0h-330v55h55v806h-56v55h56v119q-172 29 -314 106q-131 -77 -289 -77q-196 0 -285 94q-55 59 -55 150q0 64 43 111.5t111 47.5q55 -1 84.5 -35.5t29.5 -70.5q0 -39 -27 -71.5t-74 -32.5q-33 0 -49.5 17t-16.5 43q0 23 16.5 39
t39.5 16q22 0 38.5 -16t16.5 -46q16 15 16 43q0 24 -18.5 43.5t-56.5 19.5q-39 0 -69 -32.5t-30 -75.5q0 -75 39.5 -115t103.5 -56t134 -16q126 0 237 56q-65 41 -95 74q-93 102 -93 239q0 81 35.5 135t91.5 81t115 27q57 0 109 -25.5t84.5 -76t32.5 -126.5
q0 -200 -162 -326q64 -32 107 -46q72 -23 150 -35q0 269 101 420q121 180 411 180q100 0 186 -34t139 -99t53 -156q0 -93 -46.5 -160.5t-121.5 -112.5t-164.5 -71t-173.5 -36.5t-164 -10.5v-102h237v-55h-237v-806h55v-55zM-189 1210q156 110 156 290q0 91 -49 133.5
t-111 42.5q-45 0 -88 -20.5t-70.5 -62t-27.5 -103.5q0 -174 190 -280z" />
    <glyph glyph-name="uniE00D" unicode="&#xe00d;" horiz-adv-x="1022" 
d="M228 158q-96 104 -96 295q0 160 96 272q-55 -127 -55 -275q0 -171 55 -292zM339 56q-134 123 -134 394q0 103 33.5 212.5t111.5 183.5q-124 -48 -187 -158t-63 -235q0 -149 60 -255.5t179 -141.5zM595 -695q98 36 154.5 109t79.5 176t23 228v1042h-108v-1042
q0 -68 -9 -168t-41 -190.5t-99 -154.5zM712 -581q64 150 64 399v1010h44v-1010q0 -272 -108 -399zM358 -725q298 0 326 415q4 78 4 147q-61 0 -140.5 -8.5t-161.5 -30t-151.5 -59.5t-112.5 -96.5t-43 -140.5q0 -64 39.5 -115.5t103.5 -81.5t136 -30zM1230 -760q45 0 88 20.5
t70.5 62t27.5 103.5q0 174 -190 280q-156 -110 -156 -290q0 -91 49 -133.5t111 -42.5zM503 51q60 0 100 31.5t40 93.5q0 40 -22 71.5t-65 31.5q-13 0 -24 -4q39 0 68 -28.5t29 -69.5q0 -40 -29 -68.5t-69 -28.5q-41 0 -69.5 28.5t-28.5 68.5q0 60 39 99q33 31 90 31
q60 0 93 -37t33 -96v645q-68 48 -145 48q-93 0 -156 -61.5t-94.5 -157t-31.5 -198.5q0 -117 26 -203.5t80 -141t136 -54.5zM1851 -392q0 -64 -43 -111.5t-111 -47.5q-55 1 -84.5 35.5t-29.5 70.5q0 39 27 71.5t74 32.5q33 0 49.5 -17t16.5 -43q0 -23 -16.5 -39t-39.5 -16
q-22 0 -38.5 16t-16.5 46q-16 -15 -16 -43q0 -24 18.5 -43.5t56.5 -19.5q39 0 69 32.5t30 75.5q0 75 -39.5 115t-103.5 56t-134 16q-126 0 -237 -56q188 -119 188 -313q0 -81 -35.5 -135t-91.5 -81t-115 -27q-57 0 -109 25.5t-84.5 76t-32.5 126.5q0 200 162 326
q-64 32 -107 46q-72 23 -150 36q0 -270 -101 -421q-121 -180 -411 -180q-100 0 -186 34t-139 99t-53 156q0 93 46.5 160.5t121.5 112.5t164.5 71t173.5 36.5t164 10.5v276q0 -72 -41 -112t-102 -56t-120 -16q-128 0 -212.5 64t-126.5 165.5t-42 233.5q0 188 113 324
q124 149 337 149q109 0 194 -46v36h275v-55h-55v-980q173 -29 314 -106q131 77 289 77q196 0 285 -94q55 -59 55 -150z" />
    <glyph glyph-name="uniE00E" unicode="&#xe00e;" horiz-adv-x="1003" 
d="M834 88h-43q0 554 -26 664q60 -76 67 -177q2 -47 2 -487zM866 56q0 492 -12 567.5t-52 135t-118 93.5q58 -65 69 -238q6 -90 6 -558h107zM977 0h-330v55h56q0 608 -32 706q-34 99 -139 99q-81 0 -121.5 -45.5t-40.5 -100.5q0 -44 16.5 -69t39.5 -36t43 -11q12 0 21 3
q-38 1 -66 29t-28 68q0 41 28.5 69.5t69.5 28.5q40 0 69.5 -28.5t29.5 -69.5q0 -63 -42 -98q-35 -30 -79 -30q-33 0 -64.5 15.5t-51.5 47.5t-20 81q0 91 73.5 151.5t181.5 60.5q130 0 202.5 -69.5t100.5 -173t28 -628.5h55v-55zM278 56v1042q0 68 9 168t41 190.5t99 154.5
q-98 -36 -154.5 -109t-79.5 -176t-23 -228v-1042h108zM246 88h-44v1010q0 272 108 399q-64 -150 -64 -399v-1010zM-204 1210q156 110 156 290q0 91 -49 133.5t-111 42.5q-45 0 -88 -20.5t-70.5 -62t-27.5 -103.5q0 -174 190 -280zM334 1079q61 0 140.5 8.5t161.5 30
t151.5 59.5t112.5 96.5t43 140.5q0 64 -39.5 115.5t-103.5 81.5t-136 30q-298 0 -326 -415q-4 -78 -4 -147zM389 0h-330v55h55v980q-173 29 -314 106q-131 -77 -289 -77q-196 0 -285 94q-55 59 -55 150q0 64 43 111.5t111 47.5q55 -1 84.5 -35.5t29.5 -70.5q0 -39 -27 -71.5
t-74 -32.5q-33 0 -49.5 17t-16.5 43q0 23 16.5 39t39.5 16q22 0 38.5 -16t16.5 -46q16 15 16 43q0 24 -18.5 43.5t-56.5 19.5q-39 0 -69 -32.5t-30 -75.5q0 -75 39.5 -115t103.5 -56t134 -16q126 0 237 56q-65 41 -95 74q-93 102 -93 239q0 81 35.5 135t91.5 81t115 27
q57 0 109 -25.5t84.5 -76t32.5 -126.5q0 -200 -162 -326q64 -32 107 -46q72 -23 150 -36q1 272 101 421q121 180 411 180q100 0 186 -34t139 -99t53 -156q0 -93 -46.5 -160.5t-121.5 -112.5t-164.5 -71t-173.5 -36.5t-164 -10.5v-963h55v-55z" />
    <glyph glyph-name="uniE00F" unicode="&#xe00f;" horiz-adv-x="1905" 
d="M369 1044q-47 0 -79 31.5t-32 77.5q0 44 32 76t79 32q44 0 76.5 -32t32.5 -76q0 -46 -32.5 -77.5t-76.5 -31.5zM433 34q-81 46 -81 214v581h43v-581q0 -156 38 -214zM572 -70q-154 0 -231 68t-77 250v607q-85 0 -128.5 -27.5t-63 -64.5t-19.5 -71q0 -58 35 -72
q-24 27 -24 63q0 41 28.5 69.5t69.5 28.5q40 0 69 -28.5t29 -69.5q0 -40 -29 -68q-36 -35 -91 -35q-60 0 -89.5 35.5t-29.5 88.5q0 87 65 149.5t178 62.5h275v-55h-56v-613q0 -240 134 -240q133 0 357 250q24 28 50 60q257 318 502 318q172 0 275.5 -100t103.5 -250
q0 -123 -79 -219.5t-207 -96.5q-114 0 -171 54t-57 126q0 65 42.5 112.5t110.5 47.5q55 -1 84.5 -35.5t29.5 -70.5q0 -39 -27 -71.5t-74 -32.5q-33 0 -49.5 17t-16.5 43q0 23 16.5 39t39.5 16q22 0 38.5 -16t16.5 -46q16 15 16 43q0 24 -18.5 43.5t-56.5 19.5
q-39 0 -69 -32.5t-30 -75.5q0 -53 45.5 -91.5t127.5 -38.5q105 0 168 80t63 185q0 137 -90.5 216t-224.5 79q-226 -4 -481 -322l-29 -35q-94 -116 -180 -186q-134 -108 -271 -108zM508 -11q-81 61 -81 259v612h-107v-612q0 -144 46 -200t142 -59z" />
    <glyph glyph-name="uniE010" unicode="&#xe010;" horiz-adv-x="512" 
d="M280 1044q-46 0 -78 31.5t-32 77.5q0 44 32 76t78 32t78 -32t32 -76q0 -46 -32 -77.5t-78 -31.5zM80 -695q98 36 154.5 109t79.5 176t23 228v1042h-108v-1042q0 -68 -9 -168t-41 -190.5t-99 -154.5zM197 -581q64 150 64 399v1010h44v-1010q0 -272 -108 -399zM714 -817
q-57 0 -109 25.5t-84.5 76t-32.5 126.5q0 200 162 326q-64 32 -107 46q-72 23 -150 36q-1 -272 -101 -421q-121 -180 -411 -180q-100 0 -186 34t-139 99t-53 156q0 93 46.5 160.5t121.5 112.5t164.5 71t173.5 36.5t164 10.5v963h-55v55h330v-55h-55v-980q173 -29 314 -106
q131 77 289 77q196 0 285 -94q55 -59 55 -150q0 -64 -43 -111.5t-111 -47.5q-55 1 -84.5 35.5t-29.5 70.5q0 39 27 71.5t74 32.5q33 0 49.5 -17t16.5 -43q0 -23 -16.5 -39t-39.5 -16q-22 0 -38.5 16t-16.5 46q-16 -15 -16 -43q0 -24 18.5 -43.5t56.5 -19.5q39 0 69 32.5
t30 75.5q0 75 -39.5 115t-103.5 56t-134 16q-126 0 -237 -56q65 -41 95 -74q93 -102 93 -239q0 -81 -35.5 -135t-91.5 -81t-115 -27zM-157 -725q298 0 326 415q4 78 4 147q-61 0 -140.5 -8.5t-161.5 -30t-151.5 -59.5t-112.5 -96.5t-43 -140.5q0 -64 39.5 -115.5
t103.5 -81.5t136 -30zM715 -760q45 0 88 20.5t70.5 62t27.5 103.5q0 174 -190 280q-156 -110 -156 -290q0 -91 49 -133.5t111 -42.5z" />
    <glyph glyph-name="uniE011" unicode="&#xe011;" horiz-adv-x="902" 
d="M278 56v1042q0 68 9 168t41 190.5t99 154.5q-98 -36 -154.5 -109t-79.5 -176t-23 -228v-1042h108zM246 88h-44v1010q0 272 108 399q-64 -150 -64 -399v-1010zM748 55l-340 507l-28 -43l295 -464h73zM-204 1210q156 110 156 290q0 91 -49 133.5t-111 42.5q-45 0 -88 -20.5
t-70.5 -62t-27.5 -103.5q0 -174 190 -280zM334 1079q61 0 140.5 8.5t161.5 30t151.5 59.5t112.5 96.5t43 140.5q0 64 -39.5 115.5t-103.5 81.5t-136 30q-298 0 -326 -415q-4 -78 -4 -147zM871 0h-226l-301 472l-10 -20v-397h55v-55h-330v55h55v980q-173 29 -314 106
q-131 -77 -289 -77q-196 0 -285 94q-55 59 -55 150q0 64 43 111.5t111 47.5q55 -1 84.5 -35.5t29.5 -70.5q0 -39 -27 -71.5t-74 -32.5q-33 0 -49.5 17t-16.5 43q0 23 16.5 39t39.5 16q22 0 38.5 -16t16.5 -46q16 15 16 43q0 24 -18.5 43.5t-56.5 19.5q-39 0 -69 -32.5
t-30 -75.5q0 -75 39.5 -115t103.5 -56t134 -16q126 0 237 56q-65 41 -95 74q-93 102 -93 239q0 81 35.5 135t91.5 81t115 27q57 0 109 -25.5t84.5 -76t32.5 -126.5q0 -200 -162 -326q64 -32 107 -46q72 -23 150 -36q1 272 101 421q121 180 411 180q100 0 186 -34t139 -99
t53 -156q0 -93 -46.5 -160.5t-121.5 -112.5t-164.5 -71t-173.5 -36.5t-164 -10.5v-468q78 125 171 224q129 142 225 142q91 0 128 -86q17 -39 17 -81q0 -50 -25 -89q-28 -42 -93 -42q-41 0 -69.5 28.5t-28.5 68.5q0 41 28.5 69.5t69.5 28.5q61 0 90 -58q-2 42 -26 80
q-26 42 -77 42q-125 0 -302 -265l373 -557h56v-55z" />
    <glyph glyph-name="uniE012" unicode="&#xe012;" horiz-adv-x="611" 
d="M278 56v1042q0 68 9 168t41 190.5t99 154.5q-98 -36 -154.5 -109t-79.5 -176t-23 -228v-1042h108zM246 88h-44v1010q0 272 108 399q-64 -150 -64 -399v-1010zM-204 1210q156 110 156 290q0 91 -49 133.5t-111 42.5q-45 0 -88 -20.5t-70.5 -62t-27.5 -103.5
q0 -174 190 -280zM334 1079q61 0 140.5 8.5t161.5 30t151.5 59.5t112.5 96.5t43 140.5q0 64 -39.5 115.5t-103.5 81.5t-136 30q-298 0 -326 -415q-4 -78 -4 -147zM404 0h-345v55h55v980q-173 29 -314 106q-131 -77 -289 -77q-196 0 -285 94q-55 59 -55 150q0 64 43 111.5
t111 47.5q55 -1 84.5 -35.5t29.5 -70.5q0 -39 -27 -71.5t-74 -32.5q-33 0 -49.5 17t-16.5 43q0 23 16.5 39t39.5 16q22 0 38.5 -16t16.5 -46q16 15 16 43q0 24 -18.5 43.5t-56.5 19.5q-39 0 -69 -32.5t-30 -75.5q0 -75 39.5 -115t103.5 -56t134 -16q126 0 237 56
q-65 41 -95 74q-93 102 -93 239q0 81 35.5 135t91.5 81t115 27q57 0 109 -25.5t84.5 -76t32.5 -126.5q0 -200 -162 -326q64 -32 107 -46q72 -23 150 -36q1 272 101 421q121 180 411 180q100 0 186 -34t139 -99t53 -156q0 -93 -46.5 -160.5t-121.5 -112.5t-164.5 -71
t-173.5 -36.5t-164 -10.5v-963h70q55 0 94 25t59.5 62.5t20.5 75.5q0 50 -37 81q15 -23 15 -53q0 -39 -29 -67.5t-69 -28.5q-41 0 -69.5 28.5t-28.5 67.5q0 46 38 80q29 28 76 28q72 0 106.5 -44.5t34.5 -104.5q0 -93 -61.5 -149t-149.5 -56z" />
    <glyph glyph-name="uniE013" unicode="&#xe013;" horiz-adv-x="2826" 
d="M779 88h-43v476q0 142 -22 215q65 -73 65 -215v-476zM247 88h-43l3 740h40v-740zM811 56v508q0 248 -182 300q37 -36 54 -93q21 -69 21 -207v-508h107zM279 56v804h-103l-4 -804h107zM1354 34q-81 46 -81 214l-1 316q0 138 -26 220q70 -73 70 -220v-316q0 -156 38 -214z
M1493 -70q-154 0 -231 68t-77 250q0 385 -3 420q-18 193 -158 193q-65 0 -106 -50t-41 -104q0 -44 24.5 -75.5t75.5 -33.5q14 0 23 4q-42 0 -70.5 28.5t-28.5 68.5q0 41 28.5 69.5t69.5 28.5q40 0 69 -28.5t29 -69.5q0 -66 -39 -99q-36 -30 -80 -30q-74 0 -114 62
q3 -32 3 -577h55v-55h-330v55h56q0 561 -3 613q-12 193 -157 193q-44 0 -73 -23.5t-43 -59t-14 -71.5q0 -44 24.5 -75.5t73.5 -33.5q14 0 23 4q-42 0 -70.5 28.5t-28.5 68.5q0 41 28.5 69.5t69.5 28.5q40 0 69 -28.5t29 -69.5q0 -68 -37 -98.5t-81 -30.5q-37 0 -71 19
t-52 58v-592h54v-55h-329v55h56l4 806h-60v55h275v-123q25 68 81 103t124 35q59 0 119 -18.5t108.5 -63t75.5 -121.5q9 98 79.5 150.5t154.5 52.5q134 0 221 -76q106 -92 106 -291v-316q0 -240 134 -240q133 0 356 250q25 28 51 60q257 318 502 318q172 0 275.5 -100
t103.5 -250q0 -123 -79 -219.5t-207 -96.5q-114 0 -171 54t-57 126q0 65 42 112t108 47q58 0 87.5 -34.5t29.5 -70.5q0 -39 -27 -71.5t-74 -32.5q-33 0 -49.5 17t-16.5 43q0 23 16.5 39t39.5 16q22 0 38.5 -16t16.5 -46q16 15 16 43q0 24 -18.5 43.5t-56.5 19.5
q-39 0 -69 -32.5t-30 -75.5q0 -53 45.5 -91.5t127.5 -38.5q105 0 168 80t63 185q0 137 -90 215.5t-222 78.5q-227 0 -485 -321q-119 -148 -208 -221q-134 -108 -271 -108zM1429 -11q-81 61 -81 259v316q0 253 -189 302q67 -65 79 -196q3 -37 3 -422q0 -144 46 -200t142 -59z
" />
    <glyph glyph-name="uniE014" unicode="&#xe014;" horiz-adv-x="2350" 
d="M247 88h-43l3 740h40v-740zM279 56v804h-103l-4 -804h107zM389 0h-329v55h56l4 806h-60v55h275v-861h54v-55zM1017 -70q-154 0 -231 68t-77 250v225q0 194 -33 290.5t-138 96.5q-81 0 -121.5 -45.5t-40.5 -100.5q0 -44 16.5 -69t39 -36t43.5 -11q16 0 26 5
q-42 0 -70.5 28.5t-28.5 68.5q0 41 28.5 69.5t69.5 28.5q40 0 69 -28.5t29 -69.5q0 -65 -41 -100q-35 -30 -80 -30q-33 0 -64.5 15.5t-51 47.5t-19.5 81q0 91 74 151.5t181 60.5q130 0 202.5 -69.5t100.5 -173t28 -210.5v-225q0 -240 134 -240q133 0 357 250q24 28 50 60
q257 318 502 318q172 0 275.5 -100t103.5 -250q0 -123 -79 -219.5t-207 -96.5q-114 0 -171 54t-57 126q0 65 42.5 112.5t110.5 47.5q55 -1 84.5 -35.5t29.5 -70.5q0 -39 -27 -71.5t-74 -32.5q-33 0 -49.5 17t-16.5 43q0 23 16.5 39t39.5 16q22 0 38.5 -16t16.5 -46
q16 15 16 43q0 24 -18.5 43.5t-56.5 19.5q-39 0 -69 -32.5t-30 -75.5q0 -53 45.5 -91.5t127.5 -38.5q105 0 168 80t63 185q0 137 -90.5 216t-224.5 79q-226 -4 -481 -322l-29 -35q-94 -116 -180 -186q-134 -108 -271 -108zM953 -11q-81 61 -81 259v225q0 74 -12 149.5
t-58.5 146t-112.5 83.5q57 -64 70 -225q6 -79 6 -154v-225q0 -144 46 -200t142 -59zM878 34q-82 46 -82 214v225q0 171 -26 279q61 -76 67 -177q3 -49 3 -327q0 -156 38 -214z" />
    <glyph glyph-name="uniE015" unicode="&#xe015;" horiz-adv-x="928" 
d="M701 734q96 -104 96 -277q0 -172 -96 -276q55 142 55 277q0 134 -55 276zM221 727q-49 -148 -49 -270t48 -269q-89 104 -89 269q0 166 90 270zM464 860q-128 0 -187 -249q66 66 146 66t135 -60q13 -14 22 -33q24 -46 24 -94q0 -51 -22 -87.5t-56 -56t-69 -19.5
q-53 1 -88 33q-29 29 -29 71t29.5 72t70.5 30t70.5 -30t29.5 -72q0 -16 -4 -29q27 38 27 86q0 37 -15.5 70t-47 54.5t-77.5 21.5q-67 0 -115.5 -51t-48.5 -126q0 -118 46 -244q57 -158 159 -158q98 0 157 160q47 130 47 243q0 112 -47 242q-59 160 -157 160zM309 830
q-103 -47 -156.5 -146t-53.5 -227q0 -127 53.5 -226t157.5 -146q-57 81 -81.5 189t-24.5 183t24.5 183t80.5 190zM613 832q51 -73 74 -152q37 -122 37 -222q0 -97 -37 -223q-23 -79 -74 -152q107 45 161 145t54 229q0 130 -54 230t-161 145zM464 915q135 0 229 -61
t142.5 -164.5t48.5 -232.5q0 -128 -49 -231.5t-142.5 -164.5t-228.5 -61t-228.5 61t-142.5 164.5t-49 231.5t48.5 232t142.5 165t229 61z" />
    <glyph glyph-name="uniE016" unicode="&#xe016;" horiz-adv-x="1022" 
d="M24 -695q98 36 154.5 109t79.5 176t23 228v1042h-108v-1042q0 -68 -9 -168t-41 -190.5t-99 -154.5zM141 -581q64 150 64 399v1010h44v-1010q0 -272 -108 -399zM806 191q55 136 55 285q0 161 -55 281q96 -104 96 -284q0 -170 -96 -282zM684 70q123 48 186.5 157.5
t63.5 245.5q0 138 -60 244.5t-181 142.5q136 -125 136 -384q0 -113 -34 -222.5t-111 -183.5zM658 -817q-57 0 -109 25.5t-84.5 76t-32.5 126.5q0 200 162 326q-64 32 -107 46q-72 23 -150 36q-1 -272 -101 -421q-121 -180 -411 -180q-100 0 -186 34t-139 99t-53 156
q0 93 46.5 160.5t121.5 112.5t164.5 71t173.5 36.5t164 10.5v963h-55v55h275v-830q77 -38 153 -38q93 0 156 61.5t95 157.5t32 209q0 105 -26 192.5t-80.5 142t-136.5 54.5q-60 0 -100 -32t-40 -93q0 -40 22.5 -71.5t65.5 -31.5q15 0 27 5q-42 0 -70.5 28.5t-28.5 68.5
q0 41 28.5 69.5t69.5 28.5q40 0 69 -28.5t29 -69.5q0 -58 -32 -94t-98 -36q-60 0 -93 37t-33 96q0 72 41 112t102 56t120 16q128 0 212 -64t126 -165.5t42 -223.5q0 -199 -112 -333q-126 -151 -338 -151q-107 0 -202 36v-144q173 -29 314 -106q131 77 289 77q196 0 285 -94
q55 -59 55 -150q0 -64 -43 -111.5t-111 -47.5q-55 1 -84.5 35.5t-29.5 70.5q0 39 27 71.5t74 32.5q33 0 49.5 -17t16.5 -43q0 -23 -16.5 -39t-39.5 -16q-22 0 -38.5 16t-16.5 46q-16 -15 -16 -43q0 -24 18.5 -43.5t56.5 -19.5q39 0 69 32.5t30 75.5q0 75 -39.5 115
t-103.5 56t-134 16q-126 0 -237 -56q65 -41 95 -74q93 -102 93 -239q0 -81 -35.5 -135t-91.5 -81t-115 -27zM-213 -725q298 0 326 415q4 78 4 147q-61 0 -140.5 -8.5t-161.5 -30t-151.5 -59.5t-112.5 -96.5t-43 -140.5q0 -64 39.5 -115.5t103.5 -81.5t136 -30zM659 -760
q45 0 88 20.5t70.5 62t27.5 103.5q0 174 -190 280q-156 -110 -156 -290q0 -91 49 -133.5t111 -42.5z" />
    <glyph glyph-name="uniE017" unicode="&#xe017;" horiz-adv-x="1023" 
d="M1001 -695q-67 64 -99 154.5t-41 190.5t-9 168v1042h-108v-1042q0 -125 23 -228t79.5 -176t154.5 -109zM884 -581q-108 127 -108 399v1010h44v-1010q0 -249 64 -399zM226 158q-94 104 -94 285q0 169 96 282q-55 -136 -55 -285q0 -161 53 -282zM339 55q-134 125 -134 385
q0 113 33.5 222t109.5 184q-122 -48 -185 -158t-63 -245q0 -139 59 -245.5t180 -142.5zM1238 -725q72 0 136 30t103.5 81.5t39.5 115.5q0 82 -43 140.5t-112.5 96.5t-151.5 59.5t-161.5 30t-140.5 8.5q0 -69 4 -147q28 -415 326 -415zM366 -760q62 0 111 42.5t49 133.5
q0 180 -156 290q-190 -106 -190 -280q0 -62 27.5 -103.5t70.5 -62t88 -20.5zM367 -817q-59 0 -115 27t-91.5 81t-35.5 135q0 137 93 239q30 33 95 74q-111 56 -237 56q-277 0 -277 -187q0 -43 30 -75.5t69 -32.5q38 0 56.5 19.5t18.5 43.5q0 28 -16 43q0 -30 -16.5 -46
t-38.5 -16q-23 0 -39.5 16t-16.5 39q0 26 16.5 43t49.5 17q47 0 74 -32.5t27 -71.5q0 -36 -29.5 -70.5t-84.5 -35.5q-68 0 -111 47.5t-43 111.5q0 91 55 150q89 94 285 94q158 0 289 -77q141 77 314 106v937q-65 49 -145 49q-93 0 -156.5 -61.5t-95.5 -157t-32 -208.5
q0 -107 27 -193.5t81 -141t136 -54.5q60 0 100 31.5t40 93.5q0 40 -22 71.5t-65 31.5q-9 0 -17 -2q36 -2 62 -28q29 -29 29 -70q0 -39 -29 -67.5t-69 -28.5q-41 0 -69.5 28.5t-28.5 67.5q0 61 37 96q34 31 91 31q60 0 92.5 -36.5t32.5 -95.5q0 -72 -41 -112t-102 -56.5
t-120 -16.5q-127 0 -211.5 64.5t-126.5 165.5t-42 224q0 196 113 334q122 149 337 149q108 0 194 -46v36h275v-55h-55v-963q80 0 164 -10.5t173.5 -36.5t164.5 -71t121.5 -112.5t46.5 -160.5q0 -91 -53 -156t-139 -99t-186 -34q-290 0 -411 180q-100 149 -101 421
q-78 -13 -150 -36q-43 -14 -107 -46q162 -126 162 -326q0 -76 -32.5 -126.5t-84.5 -76t-109 -25.5z" />
    <glyph glyph-name="uniE018" unicode="&#xe018;" horiz-adv-x="456" 
d="M247 88h-43l3 741h40v-741zM279 56v805h-103l-4 -805h107zM811 1350q60 0 98 -22t56.5 -55t18.5 -69q0 -63 -38.5 -106.5t-110.5 -44.5q-51 0 -79.5 31.5t-28.5 71.5q0 41 28.5 69.5t69.5 28.5q40 0 69 -28.5t29 -69.5q0 -18 -6 -34q30 21 30 85q0 20 -12.5 43.5t-42 41
t-78.5 17.5q-253 0 -479 -660v-594h54v-55h-329v55h56l4 807h-60v55h275v-134q204 567 476 567z" />
    <glyph glyph-name="uniE019" unicode="&#xe019;" horiz-adv-x="954" 
d="M716 62q49 69 49 135q0 58 -44.5 100.5t-114 75.5t-146.5 63t-145 62t-111 73t-43 98q0 53 58 92q-16 -42 -16 -78q0 -70 47 -117t120 -82.5t153 -65.5q74 -28 138.5 -58.5t105 -69t40.5 -87.5q0 -86 -91 -141zM438 -77q-99 0 -188 27t-144.5 80.5t-55.5 135.5
q0 56 39 96.5t115 40.5q54 0 97 -30t43 -89q0 -36 -17 -64q-28 -48 -84 -48q-40 0 -69 28.5t-29 69.5q0 40 29 68.5t69 28.5q9 0 18 -2q-13 12 -50 12q-52 0 -78.5 -31.5t-26.5 -74.5q0 -120 141 -162q55 -16 118 -16q169 0 254 76q58 52 58 128q0 27 -30 51q-41 33 -189 91
q-163 64 -256 127q-129 86 -129 203q0 83 65.5 140t167.5 87t210 30q99 0 188 -27t144.5 -80.5t55.5 -135.5q0 -56 -39 -96.5t-115 -40.5q-54 0 -97 30t-43 89q0 36 17 64q28 48 84 48q40 0 69 -28.5t29 -69.5q0 -40 -29 -68.5t-69 -28.5q-9 0 -18 2q13 -12 50 -12
q52 0 78.5 31.5t26.5 74.5q0 120 -141 162q-55 16 -118 16q-169 0 -254 -76q-41 -38 -41 -89q0 -81 130 -140q57 -26 125 -51q158 -56 234 -108q112 -78 112 -195t-123 -191q-53 -32 -124 -53q-102 -30 -210 -30zM626 4q63 13 138 64.5t75 128.5q0 67 -44 112t-112.5 76.5
t-145 59t-144.5 59.5t-111.5 76.5t-43.5 110.5q0 94 90 154q-42 -12 -88 -34.5t-78.5 -57.5t-32.5 -84q0 -67 49 -115t123.5 -84t155.5 -67q72 -28 134.5 -57.5t102 -65t39.5 -83.5q0 -70 -52 -142q-21 -28 -55 -51z" />
    <glyph glyph-name="uniE01A" unicode="&#xe01a;" horiz-adv-x="1769" 
d="M297 34q-82 46 -82 214l-1 802l39 10l2 -812q0 -156 42 -214zM436 -70q-154 0 -231 68t-77 250l-1 612h-89v56h89v200l214 60v-260h210v-56h-210l1 -612q0 -240 139 -240q133 0 357 250q24 28 50 60q257 318 502 318q172 0 275.5 -100t103.5 -250q0 -123 -79 -219.5
t-207 -96.5q-114 0 -171 54t-57 126q0 65 42.5 112.5t110.5 47.5q55 -1 84.5 -35.5t29.5 -70.5q0 -39 -27 -71.5t-74 -32.5q-33 0 -49.5 17t-16.5 43q0 23 16.5 39t39.5 16q22 0 38.5 -16t16.5 -46q16 15 16 43q0 24 -18.5 43.5t-56.5 19.5q-39 0 -69 -32.5t-30 -75.5
q0 -53 45.5 -91.5t127.5 -38.5q105 0 168 80t63 185q0 137 -90.5 216t-224.5 79q-226 -4 -481 -322q-118 -146 -209 -221q-134 -108 -271 -108zM372 -11q-85 61 -85 259v855l-105 -29v-826q0 -144 47 -200t143 -59z" />
    <glyph glyph-name="uniE01B" unicode="&#xe01b;" horiz-adv-x="2331" 
d="M254 163q-59 77 -66 178q-3 47 -3 487h44v-385q0 -171 25 -280zM336 64q-57 64 -69 225q-6 79 -6 154v417h-108v-417q0 -74 12 -149.5t51.5 -136t119.5 -93.5zM468 316q36 30 80 30q33 0 64 -15.5t51.5 -47.5t20.5 -81q0 -91 -74 -151.5t-183 -60.5q-128 0 -200.5 69.5
t-100.5 173t-28 210.5v418h-56v55h331v-55h-56v-418q0 -194 33 -290.5t138 -96.5q80 0 121 45t41 101q0 44 -17.5 69t-40 35.5t-43.5 10.5q-19 0 -30 -7l8 1q39 0 68.5 -28.5t29.5 -69.5q0 -40 -29.5 -68.5t-68.5 -28.5q-42 0 -70.5 28.5t-28.5 68.5q0 68 40 103zM859 34
q-81 46 -81 214v581h43v-581q0 -156 38 -214zM934 -11q-81 61 -81 259v613h-107v-613q0 -144 46 -200t142 -59zM636 861v55h329v-55h-56v-613q0 -240 134 -240q133 0 357 250q24 28 50 60q257 318 502 318q172 0 275.5 -100t103.5 -250q0 -123 -79 -219.5t-207 -96.5
q-114 0 -171 54t-57 126q0 65 42.5 112.5t110.5 47.5q55 -1 84.5 -35.5t29.5 -70.5q0 -39 -27 -71.5t-74 -32.5q-33 0 -49.5 17t-16.5 43q0 23 16.5 39t39.5 16q22 0 38.5 -16t16.5 -46q16 15 16 43q0 24 -18.5 43.5t-56.5 19.5q-39 0 -69 -32.5t-30 -75.5q0 -53 45.5 -91.5
t127.5 -38.5q105 0 168 80t63 185q0 137 -90.5 216t-224.5 79q-226 -4 -481 -322l-29 -35q-94 -116 -180 -186q-134 -108 -271 -108q-154 0 -231 68t-77 250v613h-54z" />
    <glyph glyph-name="uniE01C" unicode="&#xe01c;" horiz-adv-x="934" 
d="M449 87h-32l-253 741h31zM494 55l-278 805h-97l275 -805h100zM627 0h-347v55h56l-276 806h-74v55h345v-55h-55l249 -726l235 587q109 273 222 477q-67 24 -128 58q-130 -78 -288 -78q-196 0 -285 94q-55 59 -55 150q0 64 42.5 111t108.5 47q58 0 87.5 -34.5t29.5 -70.5
q0 -39 -27 -71.5t-74 -32.5q-33 0 -49.5 17t-16.5 43q0 23 16.5 39t39.5 16q22 0 38.5 -16t16.5 -46q16 15 16 43q0 24 -18.5 43.5t-56.5 19.5q-39 0 -69 -32.5t-30 -75.5q0 -75 39.5 -115t103.5 -56t134 -16q126 0 236 57q-64 41 -94 73q-93 102 -93 239q0 81 35.5 135
t91.5 81t115 27q57 0 109 -25.5t84.5 -76t32.5 -126.5q0 -201 -164 -325q59 -29 101 -44q325 562 678 562q182 0 276 -79t94 -210q0 -93 -46.5 -160.5t-121.5 -112.5t-164.5 -71t-173.5 -36.5t-164 -10.5q-185 0 -341 45q-106 -195 -211 -456l-268 -667h58v-55zM1389 1194
q61 0 140.5 8.5t161.5 30t151.5 59.5t112.5 96.5t43 140.5q0 104 -73.5 165.5t-235.5 61.5q-310 0 -611 -524q145 -38 311 -38zM849 1327q158 107 158 288q0 91 -49 133.5t-111 42.5q-45 0 -88 -20.5t-70.5 -62t-27.5 -103.5q0 -173 188 -278z" />
    <glyph glyph-name="uniE01D" unicode="&#xe01d;" horiz-adv-x="1439" 
d="M450 87h-33l-253 741h31zM955 87h-32l-152 443l18 42zM494 55l-277 805h-98l275 -805h100zM999 55l-209 610l-52 -135l162 -475h99zM1132 0h-346v55h56l-126 368q-92 -235 -147 -368h58v-55h-347v55h56l-276 806h-74v55h347v-55h-57l249 -726l281 725h-66
q-220 0 -220 -154q0 -49 42 -75q-29 31 -29 69q0 41 28.5 69.5t69.5 28.5q40 0 69 -28.5t29 -69.5q0 -40 -29 -68q-41 -38 -93 -38q-54 0 -88.5 35.5t-34.5 90.5q0 71 36.5 114t94.5 62.5t125 19.5h197v-56h-55l-52 -139l201 -586l232 586q108 273 220 477q-67 25 -129 59
q-130 -78 -288 -78q-196 0 -285 94q-55 59 -55 150q0 64 42.5 111t108.5 47q58 0 87.5 -34.5t29.5 -70.5q0 -39 -27 -71.5t-74 -32.5q-33 0 -49.5 17t-16.5 43q0 23 16.5 39t39.5 16q22 0 38.5 -16t16.5 -46q16 15 16 43q0 24 -18.5 43.5t-56.5 19.5q-39 0 -69 -32.5
t-30 -75.5q0 -75 39.5 -115t103.5 -56t134 -16q126 0 236 57q-64 41 -94 73q-93 102 -93 239q0 81 35.5 135t91.5 81t115 27q57 0 109 -25.5t84.5 -76t32.5 -126.5q0 -201 -164 -325q60 -30 103 -44q323 562 676 562q182 0 276 -79t94 -210q0 -93 -46.5 -160.5
t-121.5 -112.5t-164.5 -71t-173.5 -36.5t-164 -10.5q-184 0 -338 44q-105 -196 -209 -457q-175 -442 -267 -665h57v-55zM1889 1194q61 0 140.5 8.5t161.5 30t151.5 59.5t112.5 96.5t43 140.5q0 104 -73.5 165.5t-235.5 61.5q-310 0 -608 -525q143 -37 308 -37zM1349 1327
q158 107 158 288q0 91 -49 133.5t-111 42.5q-45 0 -88 -20.5t-70.5 -62t-27.5 -103.5q0 -173 188 -278z" />
    <glyph glyph-name="uniE01E" unicode="&#xe01e;" horiz-adv-x="1048" 
d="M812 88h-34l-587 741h35zM877 56l-635 805h-117l638 -805h114zM146 -755q45 0 88 20.5t70.5 62t27.5 103.5q0 173 -188 278q-158 -107 -158 -288q0 -91 49 -133.5t111 -42.5zM-746 -720q219 0 424 203q157 157 291 306q-167 53 -365 53q-61 0 -140.5 -8.5t-161.5 -30
t-151.5 -59.5t-112.5 -96.5t-43 -140.5q0 -104 73.5 -165.5t185.5 -61.5zM145 -812q-57 0 -109 25.5t-84.5 76t-32.5 126.5q0 201 164 325q-33 17 -61 28q-134 -150 -304 -324q-213 -218 -473 -220q-125 0 -218 78t-93 209q0 93 46.5 160.5t121.5 112.5t164.5 71t173.5 36.5
t164 10.5q226 0 407 -66q170 194 287 345l144 189l-389 490h-55v55h367v-55h-53l259 -326l255 326h-55v55h186l1 -55h-56l-295 -373l342 -433h56v-55h-367v55h55l-216 271l-136 -176q-105 -138 -277 -334q39 -17 75 -37q130 78 288 78q196 0 285 -94q55 -59 55 -150
q0 -64 -42.5 -111t-108.5 -47q-58 0 -87.5 34.5t-29.5 70.5q0 39 27 71.5t74 32.5q33 0 49.5 -17t16.5 -43q0 -23 -16.5 -39t-39.5 -16q-22 0 -38.5 16t-16.5 46q-16 -15 -16 -43q0 -24 18.5 -43.5t56.5 -19.5q39 0 69 32.5t30 75.5q0 75 -39.5 115t-103.5 56t-134 16
q-126 0 -236 -57q64 -41 94 -73q93 -102 93 -239q0 -81 -35.5 -135t-91.5 -81t-115 -27z" />
    <glyph glyph-name="uniE01F" unicode="&#xe01f;" horiz-adv-x="1020" 
d="M283 105q-44 25 -62 81q-25 72 -25 208v435h44v-452q0 -58 5.5 -129.5t37.5 -142.5zM362 52q-60 66 -75.5 144.5t-15.5 179.5l1 485h-108v-484q0 -66 6 -128q10 -78 52 -131t140 -66zM438 -10q-142 2 -214 54t-94 152.5t-22 247.5v418h-55v55h329v-55h-54l-1 -475
q0 -131 20 -203q35 -127 151 -127q81 0 121 45.5t40 100.5q0 44 -16.5 69t-39 36t-43.5 11q-14 0 -23 -4q47 0 76 -28.5t29 -69.5q0 -40 -29 -68.5t-69 -28.5q-44 0 -76 36q-24 28 -24 74q0 57 35.5 87t79.5 30q33 0 64 -15.5t51.5 -47.5t20.5 -81q0 -91 -74 -152t-183 -61z
M605 -695q98 36 154.5 109t79.5 176t23 228v1042h-108v-1042q0 -68 -9 -168t-41 -190.5t-99 -154.5zM722 -581q64 150 64 399v1010h44v-1010q0 -272 -108 -399zM1239 -817q-57 0 -109 25.5t-84.5 76t-32.5 126.5q0 200 162 326q-64 32 -107 46q-72 23 -150 36
q-1 -272 -101 -421q-121 -180 -411 -180q-100 0 -186 34t-139 99t-53 156q0 93 46.5 160.5t121.5 112.5t164.5 71t173.5 36.5t164 10.5v963h-60v55h335v-55h-55v-980q173 -29 314 -106q131 77 289 77q196 0 285 -94q55 -59 55 -150q0 -64 -43 -111.5t-111 -47.5
q-55 1 -84.5 35.5t-29.5 70.5q0 39 27 71.5t74 32.5q33 0 49.5 -17t16.5 -43q0 -23 -16.5 -39t-39.5 -16q-22 0 -38.5 16t-16.5 46q-16 -15 -16 -43q0 -24 18.5 -43.5t56.5 -19.5q39 0 69 32.5t30 75.5q0 75 -39.5 115t-103.5 56t-134 16q-126 0 -237 -56q65 -41 95 -74
q93 -102 93 -239q0 -81 -35.5 -135t-91.5 -81t-115 -27zM368 -725q298 0 326 415q4 78 4 147q-61 0 -140.5 -8.5t-161.5 -30t-151.5 -59.5t-112.5 -96.5t-43 -140.5q0 -64 39.5 -115.5t103.5 -81.5t136 -30zM1240 -760q45 0 88 20.5t70.5 62t27.5 103.5q0 174 -190 280
q-156 -110 -156 -290q0 -91 49 -133.5t111 -42.5z" />
    <glyph glyph-name="uniE020" unicode="&#xe020;" horiz-adv-x="1896" 
d="M301 75l-50 12l446 741h56zM316 40l494 820h-131l-484 -805q58 -9 121 -15zM378 35q100 -7 210 -7q236 0 460 304t469 304q172 0 275.5 -100t103.5 -250q0 -123 -79 -219.5t-207 -96.5q-114 0 -171 54t-57 126q0 65 42.5 112.5t110.5 47.5q55 -1 84.5 -35.5t29.5 -70.5
q0 -39 -27 -71.5t-74 -32.5q-33 0 -49.5 17t-16.5 43q0 23 16.5 39t39.5 16q22 0 38.5 -16t16.5 -46q16 15 16 43q0 24 -18.5 43.5t-56.5 19.5q-39 0 -69 -32.5t-30 -75.5q0 -53 45.5 -91.5t127.5 -38.5q105 0 168 80t63 185q0 137 -90.5 216t-224.5 79
q-219 -4 -449.5 -312.5t-486.5 -308.5q-175 0 -491 40l517 860h-258q-221 0 -221 -154q0 -44 33 -69q-21 26 -21 61q0 41 28.5 69.5t69.5 28.5q40 0 69 -28.5t29 -69.5q0 -40 -29 -69q-37 -35 -90 -35q-55 0 -89 35.5t-34 90.5q0 71 36 114t94.5 62.5t124.5 19.5h552z" />
    <glyph glyph-name="uniE021" unicode="&#xe021;" horiz-adv-x="950" 
d="M821 88h-38l-321 1093l20 68zM865 56l-385 1307l-51 -182l330 -1125h106zM159 -817q-57 0 -109 25.5t-84.5 76t-32.5 126.5q0 200 162 326q-55 27 -95 42q-254 -561 -682 -561q-182 0 -276 79t-94 210q0 93 46.5 160.5t121.5 112.5t164.5 71t173.5 36.5t164 10.5
q191 0 350 -47q50 117 94 257l367 1276h-87q-220 0 -220 -154q0 -37 24 -60q-14 24 -14 53q0 43 29.5 72t70.5 29t70.5 -29t29.5 -72q0 -42 -29 -71q-35 -33 -92 -33q-54 0 -88.5 35t-34.5 90q0 72 37 115q68 81 217 81h238v-56h-47l389 -1328h56v-56h-333v56h56l-301 1025
l-157 -544h89q66 0 124.5 -19.5t95 -62t36.5 -114.5q0 -65 -43 -97.5t-103 -32.5q-43 0 -73.5 30.5t-30.5 72.5t29.5 71t70.5 29t71 -29t30 -71q0 -29 -14 -52q27 24 27 65q0 131 -150 150q-38 4 -175 4l-107 -373q-44 -150 -97 -275q67 -24 129 -58q131 77 289 77
q196 0 285 -94q55 -59 55 -150q0 -64 -43 -111.5t-111 -47.5q-55 1 -84.5 35.5t-29.5 70.5q0 39 27 71.5t74 32.5q33 0 49.5 -17t16.5 -43q0 -23 -16.5 -39t-39.5 -16q-22 0 -38.5 16t-16.5 46q-16 -15 -16 -43q0 -24 18.5 -43.5t56.5 -19.5q39 0 69 32.5t30 75.5
q0 75 -39.5 115t-103.5 56t-134 16q-126 0 -237 -56q65 -41 95 -74q93 -102 93 -239q0 -81 -35.5 -135t-91.5 -81t-115 -27zM-682 -725q382 0 625 521q-150 41 -325 41q-61 0 -140.5 -8.5t-161.5 -30t-151.5 -59.5t-112.5 -96.5t-43 -140.5q0 -104 73.5 -165.5t235.5 -61.5z
M160 -760q45 0 88 20.5t70.5 62t27.5 103.5q0 174 -190 280q-156 -110 -156 -290q0 -91 49 -133.5t111 -42.5z" />
    <glyph glyph-name="uniE022" unicode="&#xe022;" horiz-adv-x="1073" 
d="M268 187h-43v1165h43v-1165zM724 1024q17 58 17 111q0 58 -20 125q52 -46 52 -114q0 -63 -49 -122zM892 182q38 94 38 205q0 106 -38 197q84 -79 84 -192q0 -126 -84 -210zM356 842q93 0 161 45t102.5 113t34.5 144q0 63 -34 120q-72 120 -264 120v-542zM300 155v1229
h-107v-1229h107zM625 908q112 53 161 154q19 39 19 84q0 139 -180 202q85 -73 85 -198q0 -144 -85 -242zM781 70q97 39 162 122t65 200q0 128 -96 216q-61 59 -141 96q127 -129 127 -315q0 -134 -59 -243q-24 -42 -58 -76zM307 -96q-352 0 -573 233q-93 -50 -203 -50
q-157 0 -259 99t-102 265q0 92 50.5 144.5t128.5 52.5q55 -1 84.5 -35.5t29.5 -70.5q0 -39 -27 -71.5t-74 -32.5q-33 0 -49.5 17t-16.5 43q0 23 16.5 39t39.5 16q22 0 38.5 -16t16.5 -46q16 15 16 43q0 24 -18.5 43.5t-56.5 19.5q-49 0 -86.5 -37.5t-37.5 -108.5
q0 -133 85.5 -222.5t221.5 -89.5q88 0 166 40q-147 181 -147 424q0 143 71.5 228t170.5 85q97 0 161.5 -76t64.5 -222q0 -202 -143 -366q-43 -49 -91 -84q210 -207 523 -207q276 0 428 142q51 47 80 122t29 172q-3 158 -112 266q-127 123 -376 123v-631h54v-56h-329v56h56
v1229h-56v56h275q343 0 456 -152q49 -67 49 -142q0 -104 -83 -194t-215 -125q272 -60 386.5 -178t114.5 -249q0 -118 -55.5 -208t-147.5 -146q-230 -141 -554 -142zM-254 210q43 30 83 75q132 145 132 328q0 121 -49 183.5t-121 62.5q-85 0 -135.5 -72t-50.5 -184
q0 -228 141 -393z" />
    <glyph glyph-name="uniE023" unicode="&#xe023;" horiz-adv-x="986" 
d="M261 257q-138 180 -138 460q0 272 131 458q-88 -196 -88 -473q2 -251 95 -445zM441 80q-164 120 -218 389q-25 124 -25 261q0 206 68 391q62 157 173 240q-122 -51 -200.5 -156t-113 -231.5t-34.5 -259.5q0 -223 91 -397q87 -165 259 -237zM630 -10q-279 0 -441 215
q-143 190 -153 468q-199 45 -335 206q-86 -41 -185 -41q-157 0 -259 99t-102 265q0 92 50.5 144.5t128.5 52.5q55 -1 84.5 -35.5t29.5 -70.5q0 -39 -27 -71.5t-74 -32.5q-33 0 -49.5 17t-16.5 43q0 23 16.5 39t39.5 16q22 0 38.5 -16t16.5 -46q16 15 16 43q0 24 -18.5 43.5
t-56.5 19.5q-49 0 -86.5 -37.5t-37.5 -108.5q0 -133 85.5 -222.5t221.5 -89.5q79 0 150 33q-131 183 -131 431q0 143 71.5 228t170.5 85q97 0 161.5 -76t64.5 -222q0 -202 -143 -366q-50 -58 -107 -95q119 -132 282 -175q4 281 141 481q73 107 184.5 171.5t258.5 64.5
q108 0 178 -43.5t105 -110t35 -136.5q0 -60 -23.5 -113.5t-69 -87t-112.5 -33.5q-30 0 -54 7q-117 -257 -423 -276q5 -105 26 -198q56 -237 199 -338q71 -51 166 -51q92 0 144 34t90 103h-60v55h174v-55h-56q-43 -97 -122.5 -157t-185.5 -60zM253 714q284 18 376 246
q-38 37 -38 94q0 43 30 72t71 29t70.5 -29t29.5 -72q0 -42 -30 -71q-24 -25 -56 -29q6 -1 13 -1q52 0 87 27t52.5 70t17.5 91q0 56 -26 108.5t-79 86.5t-134 34q-184 0 -290 -207q-94 -184 -94 -441v-8zM-283 951q51 33 97 85q132 145 132 328q0 121 -49 183.5t-121 62.5
q-85 0 -135.5 -72t-50.5 -184q0 -234 127 -403z" />
    <glyph glyph-name="uniE024" unicode="&#xe024;" horiz-adv-x="1142" 
d="M894 273q59 186 59 457q0 212 -65 379q111 -180 111 -408q0 -255 -105 -428zM269 88h-44v1112h44v-1112zM768 102q64 40 111 97q152 189 152 506q0 223 -97 391q-81 135 -209 204q105 -103 150.5 -254t45.5 -316q0 -439 -153 -628zM301 56v1188h-108v-1188h108zM588 -10
q-73 0 -120 29.5t-70.5 75.5t-23.5 94q0 51 22 87.5t56 56t69 19.5q53 -1 88 -33q29 -29 29 -71t-29.5 -72t-70.5 -30t-70.5 30t-29.5 72q0 16 4 29q-27 -38 -27 -86q0 -37 15.5 -70t47 -54.5t77.5 -21.5q121 0 209 148q102 176 102 537q0 664 -579 664q-338 0 -513 -200
q53 -36 101 -90q143 -165 143 -367q0 -146 -64.5 -222t-161.5 -76q-99 0 -170.5 85t-71.5 228q0 237 138 428q-74 36 -157 36q-136 0 -221.5 -89.5t-85.5 -222.5q0 -71 32.5 -113.5t81.5 -42.5q38 0 61.5 19.5t23.5 53.5q0 28 -16 43q0 -30 -16.5 -46t-38.5 -16
q-23 0 -39.5 16t-16.5 39q0 26 16.5 43t49.5 17q47 0 74 -32.5t27 -71.5q0 -46 -34.5 -80.5t-89.5 -35.5q-78 0 -123.5 57.5t-45.5 149.5q0 166 102 265t259 99q103 0 191 -44q189 227 565 227q285 -1 465.5 -107.5t255.5 -267.5q77 -167 77 -370q0 -352 -163 -543
q-76 -88 -164.5 -130.5t-169.5 -42.5zM412 0h-330v56h55v1189h-55v56h330v-56h-55v-1189h55v-56zM-209 496q72 0 121 62.5t49 183.5q0 183 -132 329q-44 47 -91 80q-133 -177 -133 -399q0 -112 50.5 -184t135.5 -72z" />
    <glyph glyph-name="uniE025" unicode="&#xe025;" horiz-adv-x="935" 
d="M224 1440h331q146 0 233 -40q115 -52 115 -185q0 -59 -40.5 -92t-96.5 -33q-57 0 -86.5 29.5t-29.5 72.5q0 42 29.5 71t70.5 29t71 -29t30 -71q0 -28 -13 -50l9 8q18 19 18 59q0 103 -109 147q-81 33 -201 33h-196v-820h275v-56h-275v-461h196q120 0 201 33
q109 43 109 148q0 54 -42 75q20 -25 20 -59q0 -42 -30 -72t-71 -30t-70.5 30t-29.5 72t30.5 72t89.5 30q60 0 100.5 -33.5t40.5 -91.5q0 -133 -115 -186q-87 -40 -233 -40h-474v56h59v1323q-215 -25 -361 -184l-3 -3q52 -36 99 -88q143 -165 143 -367q0 -146 -64.5 -222
t-161.5 -76q-99 0 -170.5 85t-71.5 228q0 239 140 427q-75 37 -159 37q-136 0 -221.5 -89.5t-85.5 -222.5q0 -71 32.5 -113.5t81.5 -42.5q38 0 61.5 19.5t23.5 53.5q0 28 -16 43q0 -30 -16.5 -46t-38.5 -16q-23 0 -39.5 16t-16.5 39q0 26 16.5 43t49.5 17q47 0 74 -32.5
t27 -71.5q0 -46 -34.5 -80.5t-89.5 -35.5q-78 0 -123.5 57.5t-45.5 149.5q0 166 102 265t259 99q105 0 194 -45l10 10q184 207 489 207zM-260 1149q-135 -173 -135 -397q0 -112 50.5 -184t135.5 -72q72 0 121 62.5t49 183.5q0 183 -132 329q-43 46 -89 78zM273 88h-45v1264
h45v-1264zM304 56v1328h-108v-1328h108z" />
    <glyph glyph-name="uniE026" unicode="&#xe026;" horiz-adv-x="809" 
d="M275 88h-44v1264h44v-1264zM307 56v1328h-108v-1328h108zM224 1440h334q348 0 348 -225q0 -59 -40.5 -92t-96.5 -33q-53 0 -91 35q-29 29 -29 70q0 40 29 68.5t70 28.5q42 0 70.5 -28.5t28.5 -68.5q0 -37 -24 -64q45 21 45 78q0 103 -108 147q-82 33 -202 33h-195v-820
h275v-56h-275v-457h55v-56h-330v56h55v1324q-217 -25 -364 -185l-3 -3q52 -36 99 -88q143 -165 143 -367q0 -146 -64.5 -222t-161.5 -76q-99 0 -170.5 85t-71.5 228q0 239 140 427q-75 37 -159 37q-136 0 -221.5 -89.5t-85.5 -222.5q0 -71 32.5 -113.5t81.5 -42.5
q38 0 61.5 19.5t23.5 53.5q0 28 -16 43q0 -30 -16.5 -46t-38.5 -16q-23 0 -39.5 16t-16.5 39q0 26 16.5 43t49.5 17q47 0 74 -32.5t27 -71.5q0 -46 -34.5 -80.5t-89.5 -35.5q-78 0 -123.5 57.5t-45.5 149.5q0 166 102 265t259 99q105 0 194 -45l10 10q184 207 489 207z
M-260 1149q-135 -173 -135 -397q0 -112 50.5 -184t135.5 -72q72 0 121 62.5t49 183.5q0 183 -132 329q-43 46 -89 78z" />
    <glyph glyph-name="uniE027" unicode="&#xe027;" horiz-adv-x="1052" 
d="M868 88l-44 1v393h44v-394zM260 254q-70 90 -103 202q-36 121 -36 258q0 109 30 227.5t101 220.5q-88 -205 -88 -446q2 -265 96 -462zM900 56v457h-108v-457h108zM440 80q-165 120 -219 389q-25 124 -25 261q0 196 68 381q62 157 172 240q-122 -51 -200 -156
t-112.5 -231.5t-34.5 -249.5q0 -223 92 -397q87 -165 259 -237zM628 -10q-147 0 -257 58q-214 113 -296 378q-36 113 -40 247q-198 45 -334 206q-86 -41 -185 -41q-157 0 -259 99t-102 265q0 92 50.5 144.5t128.5 52.5q55 -1 84.5 -35.5t29.5 -70.5q0 -39 -27 -71.5
t-74 -32.5q-33 0 -49.5 17t-16.5 43q0 23 16.5 39t39.5 16q22 0 38.5 -16t16.5 -46q16 15 16 43q0 24 -18.5 43.5t-56.5 19.5q-49 0 -86.5 -37.5t-37.5 -108.5q0 -133 85.5 -222.5t221.5 -89.5q79 0 150 33q-131 183 -131 431q0 143 71.5 228t170.5 85q97 0 161.5 -76
t64.5 -222q0 -202 -143 -366q-50 -58 -107 -95q119 -132 281 -175q5 272 140 471q73 107 184 171.5t259 64.5q108 0 178.5 -43.5t105 -110t34.5 -136.5q0 -60 -23.5 -113.5t-69 -87t-113.5 -33.5q-31 0 -55 8q-119 -248 -420 -267q10 -237 101 -397q108 -190 289 -190
q50 0 92 8v435h-180v56h455v-56h-56v-457h56v-56h-274q-53 -10 -109 -10zM-283 951q51 33 97 85q132 145 132 328q0 121 -49 183.5t-121 62.5q-85 0 -135.5 -72t-50.5 -184q0 -234 127 -403zM252 714q282 17 375 241q-33 40 -33 92q0 40 29 68.5t70 28.5t69.5 -28.5
t28.5 -68.5q0 -41 -28.5 -69.5t-77.5 -28.5q14 -6 33 -6q51 0 86 27t52.5 70t17.5 91q0 56 -26 108.5t-79 86.5t-133 34q-185 0 -291 -207q-93 -183 -93 -430v-9z" />
    <glyph glyph-name="uniE028" unicode="&#xe028;" horiz-adv-x="1045" 
d="M268 88h-44v1264h44v-1264zM300 56v1328h-108v-1328h108zM490 513q-54 0 -88.5 35.5t-34.5 90.5q0 71 37 115q68 81 219 81h199v549h-59v56h214v-56h-55v-1328h55v-56h-214v56h59v723h-199q-222 0 -222 -154q0 -34 21 -57q-12 21 -12 47q0 40 29.5 68.5t70.5 28.5
t69.5 -28.5t28.5 -68.5q0 -41 -29 -70q-31 -32 -89 -32zM-260 1149q-135 -173 -135 -397q0 -112 50.5 -184t135.5 -72q72 0 121 62.5t49 183.5q0 183 -132 329q-43 46 -89 78zM224 1440h186v-56h-54v-1328h54v-56h-329v56h56v1323q-213 -26 -358 -184l-3 -3q52 -36 99 -88
q143 -165 143 -367q0 -146 -64.5 -222t-161.5 -76q-99 0 -170.5 85t-71.5 228q0 239 140 427q-75 37 -159 37q-136 0 -221.5 -89.5t-85.5 -222.5q0 -71 32.5 -113.5t81.5 -42.5q38 0 61.5 19.5t23.5 53.5q0 28 -16 43q0 -30 -16.5 -46t-38.5 -16q-23 0 -39.5 16t-16.5 39
q0 26 16.5 43t49.5 17q47 0 74 -32.5t27 -71.5q0 -46 -34.5 -80.5t-89.5 -35.5q-78 0 -123.5 57.5t-45.5 149.5q0 166 102 265t259 99q105 0 194 -45l10 10q184 207 489 207z" />
    <glyph glyph-name="uniE029" unicode="&#xe029;" horiz-adv-x="616" 
d="M402 88h-43v1264h43v-1264zM434 56v1328h-107v-1328h107zM216 1440h329v-56h-55v-1328h55v-56h-329v56h55v1328h-55q-263 0 -437 -189l-3 -3q52 -36 99 -88q143 -165 143 -367q0 -146 -64.5 -222t-161.5 -76q-99 0 -170.5 85t-71.5 228q0 239 140 427q-75 37 -159 37
q-136 0 -221.5 -89.5t-85.5 -222.5q0 -71 32.5 -113.5t81.5 -42.5q38 0 61.5 19.5t23.5 53.5q0 28 -16 43q0 -30 -16.5 -46t-38.5 -16q-23 0 -39.5 16t-16.5 39q0 26 16.5 43t49.5 17q47 0 74 -32.5t27 -71.5q0 -46 -34.5 -80.5t-89.5 -35.5q-78 0 -123.5 57.5t-45.5 149.5
q0 166 102 265t259 99q105 0 194 -45l10 10q184 207 481 207zM-260 1149q-135 -173 -135 -397q0 -112 50.5 -184t135.5 -72q72 0 121 62.5t49 183.5q0 183 -132 329q-43 46 -89 78z" />
    <glyph glyph-name="uniE02A" unicode="&#xe02a;" horiz-adv-x="871" 
d="M600 193q26 101 30 198q4 78 4 961h45v-736q0 -59 -4 -133q-11 -187 -75 -290zM494 46q177 95 205 368q12 111 12 202v768h-109v-874q0 -177 -28 -292q-22 -87 -80 -172zM-804 451q0 92 50 144t126 52q58 0 87.5 -34.5t29.5 -70.5q0 -39 -27 -71.5t-74 -32.5
q-33 0 -49.5 17t-16.5 43q0 23 16.5 39t39.5 16q22 0 38.5 -16t16.5 -46q16 15 16 43q0 24 -18.5 43.5t-56.5 19.5q-49 0 -86.5 -37.5t-37.5 -108.5q0 -133 85.5 -222.5t221.5 -89.5q76 0 145 31q-126 183 -126 433q0 143 71.5 228t170.5 85q97 0 161.5 -76t64.5 -222
q0 -202 -143 -366q-53 -61 -113 -99q3 -4 7 -8q164 -184 386 -184q340 0 362 441q5 99 5 982q-196 0 -234 -5q-152 -18 -152 -149q0 -43 33 -68q-20 26 -20 60q0 40 29 68.5t70 28.5t69.5 -28.5t28.5 -68.5q0 -41 -28 -69q-36 -34 -93 -34q-55 0 -89 35t-34 90
q0 133 131 177q58 19 124 19h437v-56h-54v-768q0 -404 -162.5 -557.5t-422.5 -154.5q-256 0 -430 203q-8 8 -16 18q-82 -38 -178 -38q-157 0 -259 99t-102 265zM-247 197q53 34 102 88q132 145 132 328q0 121 -49 183.5t-121 62.5q-85 0 -135.5 -72t-50.5 -184
q0 -236 122 -406z" />
    <glyph glyph-name="uniE02B" unicode="&#xe02b;" horiz-adv-x="1094" 
d="M268 88h-43v1264h43v-1264zM300 56v1328h-107v-1328h107zM925 88h-44v269q0 162 -34 261q78 -99 78 -268v-262zM957 56v294q0 62 -13.5 128t-46 123t-89.5 91q-29 17 -64 24q85 -72 100 -232q5 -69 5 -428h108zM224 1440h186v-56h-54v-837q12 84 96.5 215t270.5 386
l170 236h-44v56h173v-56h-51l-466 -659q91 53 192 53q97 0 168 -56t109 -152.5t38 -219.5v-294h56v-56h-330v56h56v301q0 139 -26 221q-37 124 -145 124q-89 0 -152.5 -50.5t-63.5 -142.5q0 -30 7.5 -65t28 -60t58.5 -25h6q-22 7 -39 24q-29 29 -29 70q0 40 29 68.5t70 28.5
t69.5 -28.5t28.5 -68.5q0 -47 -34.5 -84.5t-99.5 -37.5t-101 39t-45 96v-410h54v-56h-329v56h56v1323q-213 -26 -358 -184l-3 -3q52 -36 99 -88q143 -165 143 -367q0 -146 -64.5 -222t-161.5 -76q-99 0 -170.5 85t-71.5 228q0 239 140 427q-75 37 -159 37
q-136 0 -221.5 -89.5t-85.5 -222.5q0 -71 32.5 -113.5t81.5 -42.5q38 0 61.5 19.5t23.5 53.5q0 28 -16 43q0 -30 -16.5 -46t-38.5 -16q-23 0 -39.5 16t-16.5 39q0 26 16.5 43t49.5 17q47 0 74 -32.5t27 -71.5q0 -46 -34.5 -80.5t-89.5 -35.5q-78 0 -123.5 57.5t-45.5 149.5
q0 166 102 265t259 99q105 0 194 -45l10 10q184 207 489 207zM-260 1149q-135 -173 -135 -397q0 -112 50.5 -184t135.5 -72q72 0 121 62.5t49 183.5q0 183 -132 329q-43 46 -89 78z" />
    <glyph glyph-name="uniE02C" unicode="&#xe02c;" horiz-adv-x="797" 
d="M269 88h-44v1264h44v-1264zM301 56v1328h-108v-1328h108zM224 1440h188v-56h-55v-1332q104 0 161 2q247 10 247 179q0 59 -46 77q23 -27 23 -62q0 -41 -28.5 -69.5t-69.5 -28.5t-70 28.5t-29 69.5q0 39 29 68q35 35 91 35t96 -33.5t40 -91.5q0 -154 -140 -198
q-84 -28 -245 -28h-335v56h56v1323q-213 -26 -358 -184l-3 -3q52 -36 99 -88q143 -165 143 -367q0 -146 -64.5 -222t-161.5 -76q-99 0 -170.5 85t-71.5 228q0 239 140 427q-75 37 -159 37q-136 0 -221.5 -89.5t-85.5 -222.5q0 -71 32.5 -113.5t81.5 -42.5q38 0 61.5 19.5
t23.5 53.5q0 28 -16 43q0 -30 -16.5 -46t-38.5 -16q-23 0 -39.5 16t-16.5 39q0 26 16.5 43t49.5 17q47 0 74 -32.5t27 -71.5q0 -46 -34.5 -80.5t-89.5 -35.5q-78 0 -123.5 57.5t-45.5 149.5q0 166 102 265t259 99q105 0 194 -45l10 10q184 207 489 207zM-260 1149
q-135 -173 -135 -397q0 -112 50.5 -184t135.5 -72q72 0 121 62.5t49 183.5q0 183 -132 329q-43 46 -89 78z" />
    <glyph glyph-name="uniE02D" unicode="&#xe02d;" horiz-adv-x="1224" 
d="M270 88h-44v1264h44v-1264zM301 56l1 1328h-108v-1328h107zM690 762l215 590h46l-236 -646zM716 614l280 770h-114l-226 -621zM224 1440h78q24 0 37.5 -9.5t29.5 -44.5l256 -546l219 600h309v-56h-55v-1328h55v-56h-215v56h60v1169l-252 -691q24 -88 24 -179
q0 -58 -18.5 -105.5t-56.5 -76t-98 -28.5q-53 0 -86.5 36t-33.5 98q0 50 29.5 78.5t70.5 28.5t69.5 -28.5t28.5 -68.5q0 -41 -28.5 -69.5t-69.5 -28.5q-19 0 -36 6q15 -18 42 -18q75 0 103 46.5t28 129.5q0 160 -353 884h-4v-1183h55v-56h-331v56h57v1323
q-213 -26 -359 -184l-3 -3q52 -36 99 -88q143 -165 143 -367q0 -146 -64.5 -222t-161.5 -76q-99 0 -170.5 85t-71.5 228q0 239 140 427q-75 37 -159 37q-136 0 -221.5 -89.5t-85.5 -222.5q0 -71 32.5 -113.5t81.5 -42.5q38 0 61.5 19.5t23.5 53.5q0 28 -16 43
q0 -30 -16.5 -46t-38.5 -16q-23 0 -39.5 16t-16.5 39q0 26 16.5 43t49.5 17q47 0 74 -32.5t27 -71.5q0 -46 -34.5 -80.5t-89.5 -35.5q-78 0 -123.5 57.5t-45.5 149.5q0 166 102 265t259 99q105 0 194 -45l10 10q184 207 489 207zM-260 1149q-135 -173 -135 -397
q0 -112 50.5 -184t135.5 -72q72 0 121 62.5t49 183.5q0 183 -132 329q-43 46 -89 78z" />
    <glyph glyph-name="uniE02E" unicode="&#xe02e;" horiz-adv-x="1086" 
d="M270 88h-44v1264h44v-1264zM302 56v1328h-108v-1328h108zM876 88h-45v1265h45v-1265zM908 56v1329h-109v-1329h109zM1017 0h-331v56h58v1329h-58v55h331v-55h-54v-1329h54v-56zM-260 1149q-135 -173 -135 -397q0 -112 50.5 -184t135.5 -72q72 0 121 62.5t49 183.5
q0 183 -132 329q-43 46 -89 78zM224 1440h134q93 -230 227 -567q143 -335 143 -533q0 -68 -40.5 -118t-107.5 -50q-56 0 -98 46q-35 36 -35 104q0 40 29 68.5t70 28.5t69.5 -28.5t28.5 -68.5q0 -41 -28.5 -69.5t-69.5 -28.5q-17 0 -32 5q26 -24 57 -24q102 0 102 135
q0 163 -156 533l-160 401v-1218h55v-56h-331v56h57v1323q-213 -26 -359 -184l-3 -3q52 -36 99 -88q143 -165 143 -367q0 -146 -64.5 -222t-161.5 -76q-99 0 -170.5 85t-71.5 228q0 239 140 427q-75 37 -159 37q-136 0 -221.5 -89.5t-85.5 -222.5q0 -71 32.5 -113.5
t81.5 -42.5q38 0 61.5 19.5t23.5 53.5q0 28 -16 43q0 -30 -16.5 -46t-38.5 -16q-23 0 -39.5 16t-16.5 39q0 26 16.5 43t49.5 17q47 0 74 -32.5t27 -71.5q0 -46 -34.5 -80.5t-89.5 -35.5q-78 0 -123.5 57.5t-45.5 149.5q0 166 102 265t259 99q105 0 194 -45l10 10
q184 207 489 207z" />
    <glyph glyph-name="uniE02F" unicode="&#xe02f;" horiz-adv-x="1014" 
d="M504 45q189 0 212 518q-44 -57 -124 -103q-129 -75 -275 -92q57 -323 187 -323zM308 423q101 12 187 55q-48 14 -85 54q-13 14 -23 33q-23 46 -23 94q0 51 22 87.5t56 56t69 19.5q53 -1 87 -34q30 -28 30 -70t-29.5 -72t-70.5 -30t-70.5 30t-29.5 72q0 16 4 29
q-27 -38 -27 -86q0 -37 15.5 -70t47 -54.5t77.5 -21.5q72 0 123 63t51 141q-4 676 -215 676q-56 0 -94 -53.5t-62 -135.5t-37.5 -174t-18.5 -172.5t-5 -139.5q0 -146 21 -297zM-262 662q47 32 91 81q132 145 132 328q0 121 -49 183.5t-121 62.5q-85 0 -135.5 -72t-50.5 -184
q0 -222 133 -399zM503 -10q-320 0 -404 383q-227 37 -376 216q-89 -44 -192 -44q-157 0 -259 99t-102 265q0 92 45.5 149.5t123.5 57.5q55 -1 89.5 -35.5t34.5 -80.5q0 -39 -27 -71.5t-74 -32.5q-33 0 -49.5 17t-16.5 43q0 23 16.5 39t39.5 16q22 0 38.5 -16t16.5 -46
q16 15 16 43q0 34 -23.5 53.5t-61.5 19.5q-49 0 -81.5 -42.5t-32.5 -113.5q0 -133 85.5 -222.5t221.5 -89.5q83 0 157 36q-138 191 -138 428q0 143 71.5 228t170.5 85q97 0 161.5 -76t64.5 -222q0 -202 -143 -366q-48 -55 -102 -91q133 -149 315 -188q-21 132 -21 332
q0 687 436 687q141 0 227 -64q157 -117 193 -401q17 -133 17 -314q0 -291 -76 -457q-102 -224 -361 -224zM752 193q40 147 48 285q6 102 6 211q0 344 -52 544q98 -167 99 -513q0 -154 -16.5 -287t-84.5 -240zM270 187q-110 161 -114 460v129q0 112 19.5 246t97.5 240
q-32 -100 -46 -195q-28 -182 -28 -347q0 -306 71 -533zM360 75q-71 104 -102 303q-26 170 -26 354q0 157 25 329q29 196 104 306q-41 -17 -76 -48q-161 -148 -161 -536l1 -138q3 -370 166 -525q31 -29 69 -45zM662 77q40 18 73 51q121 118 142 365q6 83 6 155l-3 188
q-5 330 -153 477q-30 30 -65 48q85 -132 103 -367q9 -120 9 -248q0 -284 -34 -466q-21 -115 -78 -203z" />
    <glyph glyph-name="uniE030" unicode="&#xe030;" horiz-adv-x="1047" 
d="M268 88h-43v1264h43v-1264zM300 56v1328h-107v-1328h107zM901 775q18 82 18 165q0 145 -74 274q104 -92 104 -232q0 -111 -48 -207zM784 603q116 73 165 200q31 85 31 179q0 46 -14 95q-33 117 -137 190q-75 52 -167 78q141 -78 195 -230q31 -84 31 -175
q0 -206 -104 -337zM410 0h-329v56h56v1323q-215 -27 -361 -187q52 -36 99 -88q143 -165 143 -367q0 -146 -64.5 -222t-161.5 -76q-99 0 -170.5 85t-71.5 228q0 239 140 427q-75 37 -159 37q-136 0 -221.5 -89.5t-85.5 -222.5q0 -71 32.5 -113.5t81.5 -42.5q38 0 61.5 19.5
t23.5 53.5q0 28 -16 43q0 -30 -16.5 -46t-38.5 -16q-23 0 -39.5 16t-16.5 39q0 26 16.5 43t49.5 17q47 0 74 -32.5t27 -71.5q0 -46 -34.5 -80.5t-89.5 -35.5q-78 0 -123.5 57.5t-45.5 149.5q0 166 102 265t259 99q105 0 194 -45q191 217 499 217h131q347 0 525 -141
q156 -126 156 -317q0 -122 -41.5 -214.5t-108.5 -155t-146.5 -94.5t-153.5 -32q-63 0 -114 21.5t-82 65.5t-31 111q0 54 35 95t100 41q52 0 82 -33q28 -28 28 -67q0 -41 -28 -69t-67 -28q-40 0 -68.5 28t-28.5 69q0 26 12 47q-26 -23 -26 -68q0 -76 46.5 -115.5t111.5 -39.5
q64 0 127.5 42t106 130t42.5 224q0 173 -109 288q-124 133 -367 133v-1305h54v-56zM-209 496q72 0 121 62.5t49 183.5q0 183 -132 329q-43 46 -89 78q-135 -173 -135 -397q0 -112 50.5 -184t135.5 -72z" />
    <glyph glyph-name="uniE031" unicode="&#xe031;" horiz-adv-x="1017" 
d="M810 -241q-134 0 -216 145q-28 49 -58 87q-16 -1 -33 -1q-320 0 -404 383q-227 37 -376 216q-89 -44 -192 -44q-157 0 -259 99t-102 265q0 92 45.5 149.5t123.5 57.5q55 -1 89.5 -35.5t34.5 -80.5q0 -39 -27 -71.5t-74 -32.5q-33 0 -49.5 17t-16.5 43q0 23 16.5 39
t39.5 16q22 0 38.5 -16t16.5 -46q16 15 16 43q0 34 -23.5 53.5t-61.5 19.5q-49 0 -81.5 -42.5t-32.5 -113.5q0 -133 85.5 -222.5t221.5 -89.5q83 0 157 36q-138 191 -138 428q0 143 71.5 228t170.5 85q97 0 161.5 -76t64.5 -222q0 -202 -143 -366q-48 -55 -102 -91
q133 -149 315 -188q-21 133 -21 332q0 687 436 687q141 0 227 -64q157 -117 193 -401q17 -133 17 -314q0 -291 -76 -457q-79 -174 -253 -213q24 -34 49 -79q62 -113 158 -113q51 0 74.5 28.5t23.5 73.5q0 27 -12 42l2 -16q0 -40 -28 -68t-69 -28q-40 0 -68 28t-28 68
t28 68.5t68 28.5q63 0 97 -34.5t34 -96.5q0 -61 -33 -102.5t-97 -41.5zM-262 662q47 32 91 81q132 145 132 328q0 121 -49 183.5t-121 62.5q-85 0 -135.5 -72t-50.5 -184q0 -222 133 -399zM307 423q102 12 188 55q-48 14 -85 54q-13 14 -23 33q-23 46 -23 94q0 51 22 87.5
t56 56t69 19.5q53 -1 87 -34q30 -28 30 -70t-29.5 -72t-70.5 -30t-70.5 30t-29.5 72q0 16 4 29q-27 -38 -27 -86q0 -37 15.5 -70t47 -54.5t77.5 -21.5q72 0 123 63t51 141q-4 676 -215 676q-56 0 -94 -53.5t-62 -135.5t-37.5 -174t-18.5 -172.5t-5 -139.5q0 -160 20 -297z
M563 60q134 73 153 503q-42 -54 -128 -103q-135 -76 -272 -92q36 -192 96 -272q22 15 51 15q50 0 100 -51zM752 193q40 147 48 285q6 102 6 211q0 344 -52 544q98 -167 99 -513q0 -154 -16.5 -287t-84.5 -240zM270 187q-110 161 -114 460v129q0 112 19.5 246t97.5 240
q-32 -100 -46 -195q-28 -182 -28 -347q0 -306 71 -533zM360 75q-71 104 -102 303q-26 170 -26 354q0 157 25 329q29 196 104 306q-41 -17 -76 -48q-161 -148 -161 -536l1 -138q3 -370 166 -525q31 -29 69 -45zM662 77q40 18 73 51q121 118 142 365q6 83 6 155l-3 188
q-5 330 -153 477q-30 30 -65 48q85 -132 103 -367q9 -120 9 -248q0 -284 -34 -466q-21 -115 -78 -203z" />
    <glyph glyph-name="uniE032" unicode="&#xe032;" horiz-adv-x="1067" 
d="M267 88h-43v1265h43v-1265zM301 56v11h-2v1307h2v11h-109v-1329h109zM873 738q35 121 35 232q0 126 -54 226q89 -91 89 -240q0 -117 -70 -218zM758 590q98 57 157.5 155t59.5 211q0 108 -41 183t-109.5 124t-154.5 76q94 -54 150 -146.5t56 -222.5q0 -98 -27.5 -201
t-90.5 -179zM854 -20q-164 0 -251 127t-87 383q-67 12 -104 55q-53 59 -53 140q0 51 32 93.5t84 42.5q68 0 100 -34q28 -28 28 -67q0 -41 -28 -69t-68 -28t-68.5 28t-28.5 69q0 26 13 47q-26 -23 -26 -68q0 -64 37 -109t102 -45q150 0 224 146q61 120 61 279
q0 134 -65.5 220.5t-170.5 128.5t-229 42v-43h-1v-1196h1v-66h56v-56h-331v56h55v1323q-214 -27 -360 -187q52 -36 99 -88q143 -165 143 -367q0 -146 -64.5 -222t-161.5 -76q-99 0 -170.5 85t-71.5 228q0 239 140 427q-75 37 -159 37q-136 0 -221.5 -89.5t-85.5 -222.5
q0 -71 32.5 -113.5t81.5 -42.5q38 0 61.5 19.5t23.5 53.5q0 28 -16 43q0 -30 -16.5 -46t-38.5 -16q-23 0 -39.5 16t-16.5 39q0 26 16.5 43t49.5 17q47 0 74 -32.5t27 -71.5q0 -46 -34.5 -80.5t-89.5 -35.5q-78 0 -123.5 57.5t-45.5 149.5q0 166 102 265t259 99
q105 0 194 -45q191 217 499 217h188q241 0 423 -114q196 -123 196 -370q0 -124 -62.5 -231.5t-165.5 -173.5q-96 -61 -211 -66q0 -243 79 -353t185 -110q88 0 118 33q-18 -8 -39 -8q-40 0 -68.5 28.5t-28.5 68.5t28.5 68.5t68.5 28.5t68.5 -28.5t28.5 -68.5
q0 -72 -43.5 -118t-134.5 -46zM-209 496q72 0 121 62.5t49 183.5q0 183 -132 329q-43 46 -89 78q-135 -173 -135 -397q0 -112 50.5 -184t135.5 -72z" />
    <glyph glyph-name="uniE033" unicode="&#xe033;" horiz-adv-x="1028" 
d="M766 113q47 84 47 177q0 135 -109 230q-65 57 -200 133q-56 29 -110 62q-109 66 -169 151t-60 219q0 124 98 196q-53 -87 -53 -196q0 -106 50 -182t127 -134t162 -109q79 -50 149 -101.5t114.5 -116t44.5 -142.5q0 -109 -91 -187zM632 4q257 92 257 286q0 96 -47.5 166
t-120.5 125t-155.5 105t-156 105t-120.5 125.5t-47 168.5q0 107 51 183.5t138 114.5q-79 -14 -146 -50.5t-109.5 -97.5t-42.5 -150q0 -143 64.5 -234.5t180.5 -162.5q53 -33 109 -63q132 -73 195 -126q100 -88 100 -209q0 -163 -150 -286zM339 -96q-329 0 -534 228
q-89 -45 -194 -45q-157 0 -259 99t-102 265q0 92 50.5 144.5t128.5 52.5q55 -1 84.5 -35.5t29.5 -70.5q0 -39 -27 -71.5t-74 -32.5q-33 0 -49.5 17t-16.5 43q0 23 16.5 39t39.5 16q22 0 38.5 -16t16.5 -46q16 15 16 43q0 24 -18.5 43.5t-56.5 19.5q-49 0 -86.5 -37.5
t-37.5 -108.5q0 -133 85.5 -222.5t221.5 -89.5q83 0 158 37q-139 181 -139 427q0 143 71.5 228t170.5 85q97 0 161.5 -76t64.5 -222q0 -202 -143 -366q-47 -53 -99 -89l18 -18q189 -184 465 -184q171 0 279 96.5t108 232.5q0 69 -37 118.5t-96.5 88.5t-129 77t-136.5 81
t-123.5 101.5t-91.5 138t-35 190.5q0 178 149 277q132 88 318 88q183 0 307 -80q147 -93 147 -280q0 -63 -19 -130t-64.5 -112t-123.5 -45q-59 0 -90.5 37t-31.5 82q0 54 33 87q29 29 70 29t69.5 -28.5t28.5 -69.5t-28.5 -69.5t-69.5 -28.5q-17 0 -31 4q9 -17 49 -17
q56 0 90.5 36.5t51.5 88.5t17 100q0 98 -48 166.5t-128.5 104.5t-177.5 36q-130 0 -214 -75t-84 -201q0 -82 43 -143.5t111 -112t145 -97.5q163 -100 238 -177q111 -114 111 -265q0 -173 -172 -279t-434 -107zM-181 205q47 32 90 80q132 145 132 328q0 121 -49 183.5
t-121 62.5q-85 0 -135.5 -72t-50.5 -184q0 -231 134 -398z" />
    <glyph glyph-name="uniE034" unicode="&#xe034;" horiz-adv-x="871" 
d="M544 91h-45v1266h45v-1266zM575 56v1328h-107v-1328h107zM688 0h-333v56h57v1328h-75q-265 0 -440 -192q52 -36 99 -88q143 -165 143 -367q0 -146 -64.5 -222t-161.5 -76q-99 0 -170.5 85t-71.5 228q0 239 140 427q-75 37 -159 37q-136 0 -221.5 -89.5t-85.5 -222.5
q0 -71 32.5 -113.5t81.5 -42.5q38 0 61.5 19.5t23.5 53.5q0 28 -16 43q0 -30 -16.5 -46t-38.5 -16q-23 0 -39.5 16t-16.5 39q0 26 16.5 43t49.5 17q47 0 74 -32.5t27 -71.5q0 -46 -34.5 -80.5t-89.5 -35.5q-78 0 -123.5 57.5t-45.5 149.5q0 166 102 265t259 99
q105 0 194 -45q191 217 491 217h639v-56h-345v-1328h57v-56zM-88 496q72 0 121 62.5t49 183.5q0 183 -132 329q-43 46 -89 78q-135 -173 -135 -397q0 -112 50.5 -184t135.5 -72z" />
    <glyph glyph-name="uniE035" unicode="&#xe035;" horiz-adv-x="1126" 
d="M279 205q-61 101 -70 275q-4 75 -4 872h43q0 -737 -1 -853q0 -58 4 -134t28 -160zM383 77q-77 90 -90.5 207.5t-13.5 214.5q1 58 1 885h-107v-768q0 -203 34 -324q45 -163 176 -215zM851 205q32 111 32 290l-1 857h43q0 -797 -3 -872q-10 -174 -71 -275zM747 77
q132 53 177 216q33 121 33 323v768h-107q0 -836 1 -888q0 -65 -4 -130q-12 -190 -100 -289zM565 -10q-272 0 -372 187q-76 144 -76 439v760q-201 -31 -341 -184q52 -36 99 -88q143 -165 143 -367q0 -146 -64.5 -222t-161.5 -76q-99 0 -170.5 85t-71.5 228q0 239 140 427
q-75 37 -159 37q-136 0 -221.5 -89.5t-85.5 -222.5q0 -71 32.5 -113.5t81.5 -42.5q38 0 61.5 19.5t23.5 53.5q0 28 -16 43q0 -30 -16.5 -46t-38.5 -16q-23 0 -39.5 16t-16.5 39q0 26 16.5 43t49.5 17q47 0 74 -32.5t27 -71.5q0 -46 -34.5 -80.5t-89.5 -35.5
q-78 0 -123.5 57.5t-45.5 149.5q0 166 102 265t259 99q105 0 194 -45q191 217 499 217h165v-56h-53v-966q2 -143 45 -239q55 -122 184 -122q182 0 219 243q11 82 11 199l-1 885q-47 0 -98 -8t-86.5 -37t-35.5 -94q0 -58 30 -82q-18 25 -18 58q0 42 29 71t70 29t70.5 -29
t29.5 -71q0 -41 -30 -70q-34 -32 -93 -32q-57 0 -92.5 40t-35.5 94q0 45 24 88q56 99 224 99h285v-56h-54v-768q0 -124 -15 -237t-60 -200q-99 -189 -373 -189zM-209 496q72 0 121 62.5t49 183.5q0 183 -132 329q-43 46 -89 78q-135 -173 -135 -397q0 -112 50.5 -184
t135.5 -72z" />
    <glyph glyph-name="uniE036" unicode="&#xe036;" horiz-adv-x="978" 
d="M529 88h-50l-325 1264h37zM689 0h-350v56h57l-334 1309q-166 -42 -286 -173q52 -36 99 -88q143 -165 143 -367q0 -146 -64.5 -222t-161.5 -76q-99 0 -170.5 85t-71.5 228q0 239 140 427q-75 37 -159 37q-136 0 -221.5 -89.5t-85.5 -222.5q0 -71 32.5 -113.5t81.5 -42.5
q38 0 61.5 19.5t23.5 53.5q0 28 -16 43q0 -30 -16.5 -46t-38.5 -16q-23 0 -39.5 16t-16.5 39q0 26 16.5 43t49.5 17q47 0 74 -32.5t27 -71.5q0 -46 -34.5 -80.5t-89.5 -35.5q-78 0 -123.5 57.5t-45.5 149.5q0 166 102 265t259 99q105 0 194 -45q191 217 499 217h107v-56h-58
l322 -1205l322 1205q-114 0 -151 -4q-152 -19 -152 -150q0 -43 34 -68q-19 25 -19 58q0 42 29 71t70 29t71 -29t30 -71q0 -41 -31 -71t-95 -30q-55 0 -89 35t-34 90q0 196 278 196h175v-56h-56l-345 -1328h57v-56zM-209 496q72 0 121 62.5t49 183.5q0 183 -132 329
q-43 46 -89 78q-135 -173 -135 -397q0 -112 50.5 -184t135.5 -72zM571 56l-356 1328q-51 -1 -99 -8l339 -1320h116z" />
    <glyph glyph-name="uniE037" unicode="&#xe037;" horiz-adv-x="1435" 
d="M819 665l158 -577h-37l-140 506zM1018 56l-196 719l-50 -200l143 -519h103zM529 88h-50l-325 1264h37zM1151 0h-350v56h57l-116 420l-110 -420h57v-56h-350v56h57l-334 1309q-166 -42 -286 -173q52 -36 99 -88q143 -165 143 -367q0 -146 -64.5 -222t-161.5 -76
q-99 0 -170.5 85t-71.5 228q0 239 140 427q-75 37 -159 37q-136 0 -221.5 -89.5t-85.5 -222.5q0 -71 32.5 -113.5t81.5 -42.5q38 0 61.5 19.5t23.5 53.5q0 28 -16 43q0 -30 -16.5 -46t-38.5 -16q-23 0 -39.5 16t-16.5 39q0 26 16.5 43t49.5 17q47 0 74 -32.5t27 -71.5
q0 -46 -34.5 -80.5t-89.5 -35.5q-78 0 -123.5 57.5t-45.5 149.5q0 166 102 265t259 99q105 0 194 -45q191 217 499 217h107v-56h-58l322 -1205l321 1205q-113 0 -150 -4q-152 -19 -152 -150q0 -47 40 -72q-26 27 -26 65q0 41 28.5 69.5t68.5 28.5t68.5 -28.5t28.5 -69.5
q0 -39 -29 -68q-35 -36 -90 -36t-89 35t-34 90q0 196 278 196h175v-56h-56l-128 -493l194 -712l313 1205h-58v56h191v-56h-55q-59 -260 -340 -1328h57v-56zM-209 496q72 0 121 62.5t49 183.5q0 183 -132 329q-43 46 -89 78q-135 -173 -135 -397q0 -112 50.5 -184t135.5 -72z
M571 56l-356 1328q-51 -1 -99 -8l339 -1320h116z" />
    <glyph glyph-name="uniE038" unicode="&#xe038;" horiz-adv-x="1033" 
d="M879 88h-19l-680 1264h19zM1050 0h-330v56h58l-296 548l-335 -548h54v-56h-176v56h57l372 602l-381 710q-173 -40 -297 -176q52 -36 99 -88q143 -165 143 -367q0 -146 -64.5 -222t-161.5 -76q-99 0 -170.5 85t-71.5 228q0 239 140 427q-75 37 -159 37
q-136 0 -221.5 -89.5t-85.5 -222.5q0 -71 32.5 -113.5t81.5 -42.5q38 0 61.5 19.5t23.5 53.5q0 28 -16 43q0 -30 -16.5 -46t-38.5 -16q-23 0 -39.5 16t-16.5 39q0 26 16.5 43t49.5 17q47 0 74 -32.5t27 -71.5q0 -46 -34.5 -80.5t-89.5 -35.5q-78 0 -123.5 57.5t-45.5 149.5
q0 166 102 265t259 99q105 0 194 -45q191 217 499 217h114v-56h-57l289 -538l332 538h-124q-222 0 -222 -154q0 -41 30 -65q-20 25 -20 60q0 41 28.5 69.5t69.5 28.5q40 0 69 -28.5t29 -69.5t-30.5 -73.5t-86.5 -32.5q-54 0 -88.5 35t-34.5 90q0 72 36.5 114.5t95 62
t124.5 19.5h237v-56h-55l-361 -590l396 -738h55v-56zM-209 496q72 0 121 62.5t49 183.5q0 183 -132 329q-43 46 -89 78q-135 -173 -135 -397q0 -112 50.5 -184t135.5 -72zM933 56l-716 1328q-45 0 -87 -6l710 -1322h93z" />
    <glyph glyph-name="uniE039" unicode="&#xe039;" horiz-adv-x="879" 
d="M496 88h-43v594l-303 670h24l322 -732v-532zM638 0h-331v56h58v608l-316 698q-157 -44 -273 -170q52 -36 99 -88q143 -165 143 -367q0 -146 -64.5 -222t-161.5 -76q-99 0 -170.5 85t-71.5 228q0 239 140 427q-75 37 -159 37q-136 0 -221.5 -89.5t-85.5 -222.5
q0 -71 32.5 -113.5t81.5 -42.5q38 0 61.5 19.5t23.5 53.5q0 28 -16 43q0 -30 -16.5 -46t-38.5 -16q-23 0 -39.5 16t-16.5 39q0 26 16.5 43t49.5 17q47 0 74 -32.5t27 -71.5q0 -46 -34.5 -80.5t-89.5 -35.5q-78 0 -123.5 57.5t-45.5 149.5q0 166 102 265t259 99
q105 0 194 -45q191 217 499 217h89v-56h-57l285 -647l336 647h-124q-220 0 -220 -154q0 -36 23 -60q-12 22 -12 48q0 41 28.5 69.5t69.5 28.5q40 0 69 -28.5t29 -69.5q0 -40 -30.5 -69.5t-89.5 -29.5q-54 0 -88.5 35t-34.5 90q0 72 36.5 114.5t95 62t124.5 19.5h237v-56h-55
l-351 -683v-645h54v-56zM-209 496q72 0 121 62.5t49 183.5q0 183 -132 329q-43 46 -89 78q-135 -173 -135 -397q0 -112 50.5 -184t135.5 -72zM528 56v570l-333 757q-46 -1 -90 -9l316 -699v-619h107z" />
    <glyph glyph-name="uniE03A" unicode="&#xe03a;" horiz-adv-x="1066" 
d="M249 88h-25l599 1264h25zM270 56l628 1328h-96l-628 -1328h96zM800 0h-714l655 1384h-342q-271 0 -448 -192q52 -36 99 -88q143 -165 143 -367q0 -146 -64.5 -222t-161.5 -76q-99 0 -170.5 85t-71.5 228q0 239 140 427q-75 37 -159 37q-136 0 -221.5 -89.5t-85.5 -222.5
q0 -71 32.5 -113.5t81.5 -42.5q38 0 61.5 19.5t23.5 53.5q0 28 -16 43q0 -30 -16.5 -46t-38.5 -16q-23 0 -39.5 16t-16.5 39q0 26 16.5 43t49.5 17q47 0 74 -32.5t27 -71.5q0 -46 -34.5 -80.5t-89.5 -35.5q-78 0 -123.5 57.5t-45.5 149.5q0 166 102 265t259 99
q105 0 194 -45q191 217 499 217h588l-656 -1384h469q220 0 220 154q0 36 -23 60q13 -22 13 -49q0 -40 -29 -68.5t-69 -28.5q-41 0 -69.5 28.5t-28.5 68.5q0 41 28 70q32 31 89 31q55 0 89 -35.5t34 -90.5q0 -72 -36 -114.5t-94.5 -62t-123.5 -19.5zM-34 496q72 0 121 62.5
t49 183.5q0 183 -132 329q-43 46 -89 78q-135 -173 -135 -397q0 -112 50.5 -184t135.5 -72z" />
    <glyph glyph-name="uniE03B" unicode="&#xe03b;" horiz-adv-x="1933" 
d="M1213 544q61 0 140.5 8.5t161.5 30t151.5 59.5t112.5 96.5t43 140.5q0 104 -73.5 165.5t-235.5 61.5q-280 0 -432 -195q-122 -158 -146 -337q130 -30 278 -30zM673 677q158 107 158 288q0 91 -49 133.5t-111 42.5q-45 0 -88 -20.5t-70.5 -62t-27.5 -103.5
q0 -173 188 -278zM1116 145q-91 0 -151 53q-103 91 -103 288l1 44q-98 29 -185 77q-130 -78 -288 -78q-196 0 -285 94q-55 59 -55 150q0 64 42.5 111t108.5 47q58 0 87.5 -34.5t29.5 -70.5q0 -39 -27 -71.5t-74 -32.5q-33 0 -49.5 17t-16.5 43q0 23 16.5 39t39.5 16
q22 0 38.5 -16t16.5 -46q16 15 16 43q0 24 -18.5 43.5t-56.5 19.5q-39 0 -69 -32.5t-30 -75.5q0 -75 39.5 -115t103.5 -56t134 -16q126 0 236 57q-64 41 -94 73q-93 102 -93 239q0 81 35.5 135t91.5 81t115 27q57 0 109 -25.5t84.5 -76t32.5 -126.5q0 -201 -164 -325
q72 -35 136 -54q30 187 168 357q175 215 475 215q182 0 276 -79t94 -210q0 -93 -46.5 -160.5t-121.5 -112.5t-164.5 -71t-173.5 -36.5t-164 -10.5q-152 0 -283 30l-1 -27q0 -287 187 -287q43 0 75.5 30t32.5 69q0 38 -19.5 56.5t-43.5 18.5q-28 0 -43 -16q30 0 46 -16.5
t16 -38.5q0 -23 -16 -39.5t-39 -16.5q-26 0 -43 16.5t-17 49.5q0 47 32.5 74t71.5 27q36 0 70.5 -30t34.5 -87q0 -66 -47 -108.5t-111 -42.5z" />
    <glyph glyph-name="uniE03C" unicode="&#xe03c;" horiz-adv-x="1933" 
d="M671 202q62 0 111 42.5t49 133.5q0 181 -158 288q-188 -105 -188 -278q0 -62 27.5 -103.5t70.5 -62t88 -20.5zM1513 237q162 0 235.5 61.5t73.5 165.5q0 82 -43 140.5t-112.5 96.5t-151.5 59.5t-161.5 30t-140.5 8.5q-148 0 -278 -30q24 -179 146 -336q152 -196 432 -196
zM672 145q-59 0 -115 27t-91.5 81t-35.5 135q0 137 93 239q30 32 94 73q-110 57 -236 57q-277 0 -277 -187q0 -43 30 -75.5t69 -32.5q38 0 56.5 19.5t18.5 43.5q0 28 -16 43q0 -30 -16.5 -46t-38.5 -16q-23 0 -39.5 16t-16.5 39q0 26 16.5 43t49.5 17q47 0 74 -32.5
t27 -71.5q0 -36 -29.5 -70.5t-87.5 -34.5q-66 0 -108.5 47t-42.5 111q0 91 55 150q89 94 285 94q158 0 288 -78q87 48 185 77l-1 44q0 197 103 288q60 53 151 53q64 0 111 -42.5t47 -108.5q0 -57 -34.5 -87t-70.5 -30q-39 0 -71.5 27t-32.5 74q0 33 17 49.5t43 16.5
q23 0 39 -16.5t16 -39.5q0 -22 -16 -38.5t-46 -16.5q15 -16 43 -16q24 0 43.5 18.5t19.5 56.5q0 39 -32.5 69t-75.5 30q-187 0 -187 -287l1 -27q131 30 283 30q80 0 164 -10.5t173.5 -36.5t164.5 -71t121.5 -112.5t46.5 -160.5q0 -131 -94 -210t-276 -79q-300 0 -475 216
q-138 169 -168 356q-65 -19 -136 -54q164 -124 164 -325q0 -76 -32.5 -126.5t-84.5 -76t-109 -25.5z" />
    <glyph glyph-name="uniE03D" unicode="&#xe03d;" horiz-adv-x="1933" 
d="M1260 677q188 105 188 278q0 62 -27.5 103.5t-70.5 62t-88 20.5q-62 0 -111 -42.5t-49 -133.5q0 -181 158 -288zM720 544q148 0 278 30q-24 179 -146 337q-152 195 -432 195q-162 0 -235.5 -61.5t-73.5 -165.5q0 -82 43 -140.5t112.5 -96.5t151.5 -59.5t161.5 -30
t140.5 -8.5zM817 145q-64 0 -111 42.5t-47 108.5q0 57 34.5 87t70.5 30q39 0 71.5 -27t32.5 -74q0 -33 -17 -49.5t-43 -16.5q-23 0 -39 16.5t-16 39.5q0 22 16 38.5t46 16.5q-15 16 -43 16q-24 0 -43.5 -18.5t-19.5 -56.5q0 -39 32.5 -69t75.5 -30q187 0 187 287l-1 27
q-131 -30 -283 -30q-80 0 -164 10.5t-173.5 36.5t-164.5 71t-121.5 112.5t-46.5 160.5q0 131 94 210t276 79q300 0 476 -215q137 -170 167 -357q65 19 136 54q-164 124 -164 325q0 76 32.5 126.5t84.5 76t109 25.5q59 0 115 -27t91.5 -81t35.5 -135q0 -137 -93 -239
q-30 -32 -94 -73q110 -57 236 -57q277 0 277 187q0 43 -30 75.5t-69 32.5q-38 0 -56.5 -19.5t-18.5 -43.5q0 -28 16 -43q0 30 16.5 46t38.5 16q23 0 39.5 -16t16.5 -39q0 -26 -16.5 -43t-49.5 -17q-47 0 -74 32.5t-27 71.5q0 36 29.5 70.5t87.5 34.5q66 0 108.5 -47
t42.5 -111q0 -91 -55 -150q-89 -94 -285 -94q-158 0 -288 78q-87 -48 -185 -77l1 -44q0 -197 -103 -288q-60 -53 -151 -53z" />
    <glyph glyph-name="uniE03E" unicode="&#xe03e;" horiz-adv-x="1933" 
d="M420 237q280 0 432 196q122 157 146 336q-130 30 -278 30q-61 0 -140.5 -8.5t-161.5 -30t-151.5 -59.5t-112.5 -96.5t-43 -140.5q0 -104 73.5 -165.5t235.5 -61.5zM1262 202q45 0 88 20.5t70.5 62t27.5 103.5q0 173 -188 278q-158 -107 -158 -288q0 -91 49 -133.5
t111 -42.5zM1261 145q-57 0 -109 25.5t-84.5 76t-32.5 126.5q0 201 164 325q-72 35 -136 54q-30 -187 -167 -356q-176 -216 -476 -216q-182 0 -276 79t-94 210q0 93 46.5 160.5t121.5 112.5t164.5 71t173.5 36.5t164 10.5q152 0 283 -30l1 27q0 287 -187 287
q-43 0 -75.5 -30t-32.5 -69q0 -38 19.5 -56.5t43.5 -18.5q28 0 43 16q-30 0 -46 16.5t-16 38.5q0 23 16 39.5t39 16.5q26 0 43 -16.5t17 -49.5q0 -47 -32.5 -74t-71.5 -27q-36 0 -70.5 30t-34.5 87q0 66 47 108.5t111 42.5q91 0 151 -53q103 -91 103 -288l-1 -44
q98 -29 185 -77q130 78 288 78q196 0 285 -94q55 -59 55 -150q0 -64 -42.5 -111t-108.5 -47q-58 0 -87.5 34.5t-29.5 70.5q0 39 27 71.5t74 32.5q33 0 49.5 -17t16.5 -43q0 -23 -16.5 -39t-39.5 -16q-22 0 -38.5 16t-16.5 46q-16 -15 -16 -43q0 -24 18.5 -43.5t56.5 -19.5
q39 0 69 32.5t30 75.5q0 75 -39.5 115t-103.5 56t-134 16q-126 0 -236 -57q64 -41 94 -73q93 -102 93 -239q0 -81 -35.5 -135t-91.5 -81t-115 -27z" />
    </font>
</defs>
</svg>
