<?xml version="1.0" standalone="no"?>
<!DOCTYPE svg PUBLIC "-//W3C//DTD SVG 1.1//EN" "http://www.w3.org/Graphics/SVG/1.1/DTD/svg11.dtd" >
<svg xmlns="http://www.w3.org/2000/svg" xmlns:xlink="http://www.w3.org/1999/xlink" version="1.1">
<metadata>
Created by FontForge 20200427 at Tue Sep 20 00:00:15 1994
 By www
Copyright (c) 1994 Miles Inc. All rights reserved.
</metadata>
<defs>
<font id="LisbonCursive" horiz-adv-x="1208" >
  <font-face 
    font-family="Lisbon Cursive"
    font-weight="400"
    font-style="italic"
    font-stretch="normal"
    units-per-em="2048"
    panose-1="3 2 7 2 4 4 6 7 8 3"
    ascent="1638"
    descent="-410"
    x-height="994"
    cap-height="1468"
    bbox="-375 -511 2258 1933"
    underline-thickness="104"
    underline-position="-458"
    slope="-20"
    unicode-range="U+0020-F002"
    descenders="fgjpqyGJY"
    invert="1"
    licence="Lisbon Cursive - http://www.onlinewebfonts.com oNline Web Fonts"
  />
<missing-glyph horiz-adv-x="1022" 
d="M76 0v1449h870v-1449h-870zM332 256h358v937h-358v-937z" />
    <glyph glyph-name=".notdef" horiz-adv-x="1022" 
d="M76 0v1449h870v-1449h-870zM332 256h358v937h-358v-937z" />
    <glyph glyph-name=".null" horiz-adv-x="0" 
 />
    <glyph glyph-name="nonmarkingreturn" horiz-adv-x="604" 
 />
    <glyph glyph-name="space" unicode=" " horiz-adv-x="604" 
 />
    <glyph glyph-name="exclam" unicode="!" horiz-adv-x="604" 
d="M-52 63q104 71 201 131q75 -88 142 -151q-86 -54 -193 -120q-77 64 -150 140zM138 304l305 922l226 56l-414 -937z" />
    <glyph glyph-name="quotedbl" unicode="&#x22;" horiz-adv-x="831" 
d="M296 889l186 475q63 -8 95 -8q37 0 109 8l-292 -475q-28 2 -47 2q-20 0 -51 -2zM598 889l186 475q55 -8 84 -8q39 0 120 17l-292 -484q-28 2 -47 2q-20 0 -51 -2z" />
    <glyph glyph-name="numbersign" unicode="#" 
d="M634 1228h92l-148 -393h270l149 393h93l-149 -393h110l-44 -111h-104l-109 -280h110l-39 -111h-105l-154 -410h-93l154 410h-273l-153 -410h-92l152 410h-113l46 111h106l105 280h-110l43 111h108zM433 444h269l108 280h-272z" />
    <glyph glyph-name="dollar" unicode="$" 
d="M150 202q60 137 113 251l37 -19q-15 -29 -15 -40q0 -57 142 -125v0l100 239v0q-75 42 -127 83q-83 65 -83 126q0 82 85.5 199.5t189.5 176.5t183 59q1 0 20 -1v0l65 153l114 29l-82 -194v0q113 -47 167 -115q-64 -126 -132 -246l-35 17l9 18q8 17 8 27q0 44 -103 93v0
l-106 -253v0q24 -18 31 -22l80 -50q99 -62 99 -134q0 -78 -59.5 -175.5t-160.5 -168.5t-252 -79v0l-74 -174l-116 -37l93 224v0q-97 31 -191 138zM518 243v0q38 -4 78 -4q67 0 117 25t50 55q0 34 -57 77q-40 31 -99 61v0zM715 958v0q-48 6 -77 6q-174 0 -174 -91
q0 -41 75 -99q36 -28 78 -50v0z" />
    <glyph glyph-name="percent" unicode="%" horiz-adv-x="1737" 
d="M327 -77l974 1305h78l-974 -1305h-78zM863 176q0 179 146.5 344.5t301.5 165.5q96 0 158.5 -66.5t62.5 -172.5q0 -188 -138.5 -356t-292.5 -168q-105 0 -171.5 71.5t-66.5 181.5zM1161 594q-174 -154 -174 -341q0 -100 62.5 -167.5t193.5 -70.5q165 135 165 331
q0 101 -62 172.5t-185 75.5zM198 718q0 179 146.5 344.5t301.5 165.5q96 0 158.5 -66.5t62.5 -171.5q0 -186 -138.5 -355.5t-292.5 -169.5q-102 0 -170 71t-68 182zM496 1136q-174 -149 -174 -340q0 -105 65 -172t191 -67q165 135 165 331q0 101 -62.5 173t-184.5 75z" />
    <glyph glyph-name="ampersand" unicode="&#x26;" horiz-adv-x="1360" 
d="M571 195q-103 -120 -176 -191q-118 -115 -213 -115q-50 0 -81 39.5t-31 94.5q0 128 97 267.5t294 321.5l67 62v0q0 238 150.5 460t260.5 222q40 0 70 -28t30 -71q0 -88 -108.5 -240t-259.5 -288v0q4 -56 7 -85l8 -76l7 -79l6 -51v0q28 58 60 116q49 -2 81 -4
q102 -6 155 -6q92 0 222 10q-134 -143 -181 -169q-51 -28 -216 -28h-11l-51 1q-8 0 -43 2v0l21 -66q76 -237 203 -394q99 -122 216 -122q30 0 65 15l-18 -50q-150 -74 -256 -74q-119 0 -215 130q-95 128 -160 396v0zM560 263v0q-25 148 -30 263l-3 72v0q-264 -243 -264 -376
q0 -90 86 -90q105 0 211 131zM670 817v0q65 50 112.5 123t47.5 128q0 29 -18.5 46t-36.5 17q-16 0 -41 -19q-41 -90 -59 -253q-3 -23 -5 -42z" />
    <glyph glyph-name="quotesingle" unicode="'" horiz-adv-x="529" 
d="M296 889l186 475q63 -8 95 -8q37 0 109 8l-292 -475q-28 2 -47 2q-20 0 -51 -2z" />
    <glyph glyph-name="parenleft" unicode="(" horiz-adv-x="604" 
d="M73 -502q-38 207 -38 375q0 467 204.5 876.5t580.5 694.5l144 24q-279 -231 -435 -464.5t-232.5 -481.5t-76.5 -549q0 -152 34 -397z" />
    <glyph glyph-name="parenright" unicode=")" horiz-adv-x="604" 
d="M516 1468q38 -207 38 -371q0 -473 -204 -880.5t-582 -694.5l-143 -24q279 231 435 464.5t232.5 481.5t76.5 548q0 160 -33 398z" />
    <glyph glyph-name="asterisk" unicode="*" 
d="M519 1054l209 105v0l-209 104l53 91l205 -125l-10 239h105l-10 -239l204 125l54 -91l-210 -104v0l210 -105l-54 -90l-204 125l10 -239h-105l10 239l-205 -125z" />
    <glyph glyph-name="plus" unicode="+" horiz-adv-x="1737" 
d="M798 949h125v-450h450v-125h-450v-450h-125v450h-450v125h450v450z" />
    <glyph glyph-name="comma" unicode="," horiz-adv-x="604" 
d="M-89 -218q124 73 124 158q0 46 -47 119l208 116q47 -74 47 -128q0 -143 -312 -303z" />
    <glyph glyph-name="hyphen" unicode="-" horiz-adv-x="604" 
d="M357 474l-45 4q-56 5 -88 5q-54 0 -157 -15l-19 22q105 74 231 158q27 -2 53 -4q59 -5 95 -5q45 0 124 15l17 -14q-95 -79 -211 -166z" />
    <glyph glyph-name="period" unicode="." horiz-adv-x="604" 
d="M-67 47l99 62q53 33 107 66q63 -79 137 -153l-99 -60l-96 -58q-74 70 -148 143z" />
    <glyph glyph-name="slash" unicode="/" horiz-adv-x="604" 
d="M636 1468h102l-727 -1770h-102z" />
    <glyph glyph-name="zero" unicode="0" 
d="M43 353q0 192 108 394.5t294 341.5t364 139q161 0 273 -115t112 -283q0 -307 -235 -607t-513 -300q-167 0 -285 126t-118 304zM541 1094q-140 -126 -214.5 -287t-74.5 -301q0 -119 53.5 -221.5t159 -165t171.5 -62.5h73q120 115 198 282.5t78 311.5q0 200 -114 321.5
t-330 121.5z" />
    <glyph glyph-name="one" unicode="1" 
d="M472 1020l11 63q219 48 535 218l-136 -368l-214 -575q-75 -202 -126 -365l-23 -5q-111 -24 -221 -65q279 720 427 1168q-123 -54 -253 -71z" />
    <glyph glyph-name="two" unicode="2" 
d="M141 196q36 -2 86 -7v0l33 15q226 105 428 321q108 115 162 243q23 54 23 115q0 105 -75 164.5t-186 59.5q-44 0 -84 -17q-24 -41 -68 -161q-16 -44 -38 -86q-60 -116 -102 -116q-31 0 -31 93q0 120 84 221q71 85 203 136t260 51q129 0 203 -73t74 -180q0 -69 -23 -126
q-48 -119 -141 -218q-243 -261 -611 -454v0q90 -7 137 -14l123 -19q52 -8 124 -8q127 0 257 75q-66 -108 -179 -230l-38 -41q-138 7 -255 22l-215 27q-59 7 -133 11q-18 -5 -30 -8l-78 -23q-33 -10 -105 -27l37 44q95 113 158 210z" />
    <glyph glyph-name="three" unicode="3" 
d="M267 548q102 64 160 99l84 51q26 3 39 3q38 0 95 -16v0q133 76 172.5 134.5t39.5 117.5q0 66 -52.5 111.5t-133.5 45.5q-50 0 -116 -25q-60 -186 -112 -254q-26 -33 -42 -33q-21 0 -25 34v19q0 110 61 201q58 87 172.5 139.5t231.5 52.5q105 0 180.5 -52.5t75.5 -148.5
q0 -219 -382 -366v0q90 -36 143 -109t53 -154q0 -145 -160 -290q-205 -185 -396 -185q-114 0 -200 59.5t-86 110.5q0 35 38 35q31 0 117 -28q172 -56 244 -56q107 0 190 65q81 63 81 156q0 113 -135 193.5t-337 89.5z" />
    <glyph glyph-name="four" unicode="4" 
d="M377 -77l47 112q57 135 68 163l30 74q16 39 42 107q-92 -2 -130 -2l-318 -3h-16q-19 0 -96 -4l95 87q122 112 155 141l177 157q284 252 427 412q107 21 242 61l-71 -176q-84 -208 -147 -375l-51 -135q94 9 277 9q-85 -94 -147 -181q-142 7 -192 9q-51 -146 -97 -272
l-52 -142q-105 -14 -243 -42zM626 542q86 223 144 384l30 84v0l-56 -54q-64 -62 -101 -96l-27 -24q-97 -86 -132 -117q-93 -82 -189 -177v0h331z" />
    <glyph glyph-name="five" unicode="5" 
d="M296 618q162 350 268 619q140 -9 280 -9q94 0 159.5 4.5t125.5 31.5l16 -18q-78 -98 -130 -190q-45 5 -50 5l-194 1l-137 3h-71v0l-103 -246v0q65 14 112 14q157 0 251 -93t94 -221q0 -138 -91 -286t-230 -229t-265 -81q-80 0 -173 45t-93 84q0 30 43 30q18 0 48 -3
l90 -9q39 -4 107 -13q97 -13 169 -13q99 0 170 92t71 198q0 122 -83 206t-270 84q-50 0 -114 -6z" />
    <glyph glyph-name="six" unicode="6" 
d="M940 1257q95 -29 181 -59v0q-269 -101 -414.5 -188t-259.5 -226v0q218 162 338 162q117 0 200 -90.5t83 -214.5q0 -181 -132.5 -355t-299 -268.5t-302.5 -94.5q-108 0 -188.5 92t-80.5 235q0 164 103 342t280 342t492 323zM364 674q-90 -169 -90 -298q0 -132 94.5 -212.5
t206.5 -80.5q21 0 65 6q219 134 219 378q0 129 -71.5 199.5t-193.5 70.5q-115 0 -230 -63z" />
    <glyph glyph-name="seven" unicode="7" 
d="M170 -77q288 347 607 821l216 321v0h-198q-230 0 -312 -11.5t-149 -63.5l-18 26q126 118 217 221l118 -3q236 -6 355 -6q158 0 293 36q-463 -524 -817 -1115l-103 -172q-103 -17 -209 -54z" />
    <glyph glyph-name="eight" unicode="8" 
d="M403 571q-58 51 -76 97q-13 33 -13 70q0 155 166 322.5t341 167.5q113 0 215 -62t102 -168q0 -91 -80.5 -203.5t-215.5 -205.5v0q63 -44 81 -73q21 -35 21 -71q0 -152 -179 -337t-363 -185q-112 0 -205.5 70t-93.5 169q0 193 300 409v0zM438 545v0
q-110 -113 -136.5 -161.5t-26.5 -95.5q0 -75 72.5 -115.5t178.5 -40.5q153 0 264 114q-29 85 -70 125q-51 50 -282 174zM468 930q8 -86 38 -121t102 -75q83 -46 195 -113v0q181 141 181 248q0 64 -75.5 107t-176.5 43q-163 0 -264 -89z" />
    <glyph glyph-name="nine" unicode="9" 
d="M845 505q-107 -102 -192.5 -158.5t-180.5 -56.5q-123 0 -203.5 83.5t-80.5 227.5q0 149 95.5 294t265 239t293.5 94q108 0 189 -94.5t81 -220.5q0 -211 -192 -480t-492 -510h-288q513 225 705 582v0zM872 582q31 98 31 172q0 148 -70.5 244t-198.5 96q-33 0 -70 -11
q-167 -166 -167 -347q0 -109 66 -173t172 -64q125 0 237 83z" />
    <glyph glyph-name="colon" unicode=":" horiz-adv-x="604" 
d="M-12 47l100 62l106 66q63 -79 137 -153q-120 -74 -195 -118q-74 70 -148 143zM70 401q108 66 206 129q63 -79 137 -153q-57 -35 -99 -60l-95 -58l-83 79z" />
    <glyph glyph-name="semicolon" unicode=";" horiz-adv-x="604" 
d="M-89 -218q124 73 124 158q0 46 -47 119l208 116q47 -74 47 -128q0 -143 -312 -303zM72 401q108 66 206 129q63 -79 137 -153l-99 -60l-96 -58q-50 47 -83 79z" />
    <glyph glyph-name="less" unicode="&#x3c;" horiz-adv-x="2039" 
d="M1630 1244v-135l-1043 -493v0l1043 -481v-135l-1220 549v135z" />
    <glyph glyph-name="equal" unicode="=" horiz-adv-x="1737" 
d="M344 249v125h1032v-125h-1032zM344 499v125h1032v-125h-1032z" />
    <glyph glyph-name="greater" unicode="&#x3e;" horiz-adv-x="2039" 
d="M410 1244l1220 -560v-135l-1220 -549v135l1042 481v0l-1042 493v135z" />
    <glyph glyph-name="question" unicode="?" horiz-adv-x="982" 
d="M77 62q94 65 202 132q75 -87 141 -152l-107 -66l-86 -53q-80 67 -150 139zM234 471l52 28q509 275 509 469q0 60 -49.5 101.5t-129.5 41.5q-81 0 -183 -65l-4 -1q0 -132 -51 -243q-46 -101 -74 -101q-42 0 -42 122q0 117 80.5 213.5t220 162.5t241.5 66q99 0 154.5 -58
t55.5 -134q0 -265 -497 -498l-49 -23q45 -77 83 -133l-199 -115q-64 79 -118 167z" />
    <glyph glyph-name="at" unicode="@" horiz-adv-x="1737" 
d="M976 136q-147 -116 -282 -116q-113 0 -183 74t-70 202q0 233 166.5 453.5t362.5 220.5q144 0 239 -148l41 112h184l-273 -661q-25 -61 -25 -102q0 -58 59 -58q76 0 180.5 85.5t165.5 203.5t61 254q0 233 -180.5 392t-423.5 159q-312 0 -562.5 -245t-250.5 -564
q0 -262 205.5 -418t507.5 -156q149 0 286 42.5t306 162.5l69 -43q-199 -157 -357.5 -213t-339.5 -56q-337 0 -575 191.5t-238 479.5q0 364 264.5 645t647.5 281q313 0 524.5 -188t211.5 -466q0 -263 -176.5 -460.5t-389.5 -197.5q-135 0 -155 134zM604 236q0 -62 39 -99
t93 -37q102 0 177 101q59 79 110 189q117 251 117 365q0 60 -37 97.5t-90 37.5q-89 0 -186 -120.5t-160 -277t-63 -256.5z" />
    <glyph glyph-name="A" unicode="A" horiz-adv-x="1360" 
d="M42 349h41q-144 -174 -144 -296q0 -33 21 -58t52 -25q69 0 167 95q121 117 289 354v0q-68 4 -147 17q61 41 84 54l93 54q14 8 72 48q337 518 375 790q80 29 105 38l81 29l53 19q-70 -218 -98 -394.5t-61 -533.5v0q82 5 172 12q-66 -51 -172 -95v0q-13 -152 -13 -225
q0 -101 41 -101q39 0 139 116v-50q-105 -126 -143 -166l-71 -75q-63 -67 -103 -67q-79 0 -79 116q0 57 7 120l20 181l2 23l8 89v0q-73 -8 -119 -8q-55 0 -179 9v0q-79 -126 -144 -220q-313 -454 -474 -454q-55 0 -85 42t-30 99q0 106 78.5 246t161.5 217zM630 553v0
q124 -13 214 -13v0q9 70 9 71l18 174l18 169q4 39 11 111v0q-35 -63 -40 -74l-56 -113q-23 -47 -64 -122l-70 -129z" />
    <glyph glyph-name="B" unicode="B" 
d="M243 47q-106 -74 -215 -162q-6 35 -6 57q0 49 88 247l118 266q56 126 135 391t79 353q0 44 -34 44q-35 0 -128 -74v50l310 205q67 44 90 44q37 0 37 -55q0 -78 -65 -273l-8 -24l-38 -118q-25 -76 -53 -166v0q252 338 464 513q149 123 214 123q41 0 69 -44t28 -117
q0 -134 -99.5 -273t-368.5 -341q192 -86 192 -272q0 -261 -393 -532q-104 14 -159.5 86.5t-55.5 176.5t55 217l25 5q-11 -43 -11 -82q0 -127 60.5 -204.5t162.5 -84.5q123 140 123 314q0 124 -114.5 197t-273.5 79v0l-49 -112l-57 -130q0 -1 -12 -30l-73 -183
q-12 -29 -37 -91zM496 644v0q129 43 225 86q46 -4 94 -18q237 245 237 463q0 50 -38 50q-66 0 -206.5 -150.5t-261.5 -349.5q-26 -44 -50 -81z" />
    <glyph glyph-name="C" unicode="C" horiz-adv-x="1058" 
d="M554 723q162 37 325 173t163 274q0 66 -45.5 100.5t-101.5 34.5q-174 0 -424 -321t-250 -622q0 -136 74 -215t196 -79q58 0 138 26q121 109 240 316l106 17q-114 -172 -283 -340q-87 -87 -200 -142.5t-213 -55.5q-135 0 -209 97.5t-74 229.5q0 239 209 556t479 506.5
t428 189.5q61 0 100 -36t39 -90q0 -139 -195.5 -344.5t-477.5 -343.5z" />
    <glyph glyph-name="D" unicode="D" horiz-adv-x="1586" 
d="M276 -21q-156 -126 -209 -147q-12 -5 -25 -5q-28 0 -28 23q0 68 171 347q33 7 61 7q43 0 86 -12v0l399 939l215 172v0q-48 2 -83 2q-245 0 -407 -104q-78 -111 -127 -223l-70 -161q0 -1 -37 -83q-19 74 -19 138q0 131 62 220t192 186q113 84 265.5 137t276.5 53
q240 0 400.5 -172t160.5 -437q0 -371 -306 -670.5t-555 -299.5q-108 0 -388 80l-14 4q-11 3 -21 6zM422 172v0q265 -104 469 -104q216 0 346 237.5t130 452.5q0 403 -386 531z" />
    <glyph glyph-name="E" unicode="E" horiz-adv-x="982" 
d="M631 1272q-144 -113 -144 -250q0 -197 394 -226q-100 -60 -200 -136q-69 12 -112 12v0q-135 0 -267.5 -129.5t-132.5 -252.5q0 -80 61 -128t164 -48q111 0 236 64q85 104 125 210l109 13q-53 -103 -114 -173q-292 -339 -506 -339q-117 0 -200.5 74t-83.5 191
q0 123 112 267.5t364 285.5v0q-96 57 -127 102t-31 101q0 131 243.5 344.5t368.5 213.5q77 0 136.5 -44t59.5 -107q0 -110 -247 -309l-47 17q28 26 44 40q57 48 57 89q0 60 -48.5 97.5t-126.5 37.5q-40 0 -87 -17z" />
    <glyph glyph-name="F" unicode="F" horiz-adv-x="982" 
d="M432 68q125 262 197 521v0q-254 18 -440 52q119 69 204 129q23 -4 62 -12q113 -23 207 -36v0q10 33 16 50l22 66l40 122l31 94l12 42q76 37 155 83v0q-366 110 -456 110q-32 0 -77 -15q-25 -25 -35 -38q-41 -54 -73 -211h-94q45 110 72 155q42 69 155.5 178.5
t171.5 109.5q91 0 342 -83l124 -41l8 -2l134 -36q4 -1 43 -14q-129 -59 -220 -112q-67 -140 -105 -240l-44 -117q-2 -4 -43 -113v0q78 -8 153 -9q-108 -61 -199 -125q-25 -67 -37 -101l-50 -135q-37 -99 -67 -152q-56 -98 -197.5 -198.5t-241.5 -100.5q-58 0 -89.5 34
t-31.5 83q0 153 194 347l30 30h29q-72 -98 -72 -186q0 -127 170 -129z" />
    <glyph glyph-name="G" unicode="G" 
d="M303 -481q-45 76 -45 186q0 81 31 184q-257 58 -257 344q0 215 155 504.5t435.5 510t449.5 220.5q63 0 108 -39t45 -97q0 -82 -97 -213t-203 -228h-60q101 119 126 180t25 106q0 57 -34.5 92.5t-92.5 35.5q-127 0 -285.5 -153t-260.5 -380.5t-102 -404.5q0 -129 51 -214
t150 -85q27 0 69 16q178 203 323 516v0q-122 22 -263 23l196 114l108 -9q138 -12 267 -14q-81 -85 -122 -165t-113 -276q-88 -239 -150 -345q-156 -265 -454 -409zM341 -109q-9 -46 -9 -71q0 -94 69 -163q109 53 203 277q63 150 117 316q-31 -38 -61 -74
q-113 -139 -175 -194t-144 -91z" />
    <glyph glyph-name="H" unicode="H" horiz-adv-x="1586" 
d="M-304 24q25 -2 80 -8q103 -10 129 -12l66 -4q118 0 155 29.5t89 102.5q100 141 222 503v0l-164 24l218 148v0q109 321 109 396q0 40 -32 40q-31 0 -146 -56v46l310 189q75 46 102 46q52 0 52 -63q0 -79 -90 -315q-56 -146 -117 -325v0l215 -18l75 -6l125 -11v0
q38 96 51 129l25 64l100 254l19 49q15 37 68 163q136 38 269 79q-115 -228 -196 -427l-17 -42l-54 -133q-37 -93 -59 -146v0l175 4v-8l-228 -129v0q-96 -299 -96 -372q0 -84 46 -84q29 0 79 62q16 20 43 50l15 -54l-148 -157q-72 -77 -110 -110t-72 -33q-38 0 -62.5 39.5
t-24.5 103.5q0 129 96 428l44 137v0q-80 3 -163 7l-87 4q-73 4 -173 10v0q-90 -276 -145 -380q-56 -105 -217 -205t-349 -171q-124 80 -227 162z" />
    <glyph glyph-name="I" unicode="I" horiz-adv-x="755" 
d="M3 304l109 77q-67 -119 -67 -254q0 -79 57 -161v0q99 124 177 342q43 119 111 359q129 453 230 635v0q-44 3 -70 3q-65 0 -150 -20q-54 -79 -88 -174l-105 -54q26 69 47 112q35 71 109 140t144 114t187 45q60 0 133 -6q49 -4 73 -4q19 0 61 2q-124 -96 -169 -192
t-129 -374q-149 -492 -239 -653q-86 -155 -221.5 -287.5t-248.5 -162.5q-54 73 -54 153q0 139 103 360z" />
    <glyph glyph-name="J" unicode="J" horiz-adv-x="906" 
d="M94 188l62 23q-121 -207 -121 -391q0 -97 49 -156q117 83 255 451q80 214 93 256l135 440q102 332 191 492v0q-57 2 -98 2q-72 0 -152 -9q-66 -55 -116.5 -168t-50.5 -210q0 -28 9 -54q26 -75 98 -75q27 0 71 15l-234 -240q-118 24 -118 168q0 54 16 119q53 216 185 376
t320 239q34 2 55 2q24 0 95 -5t153 -5h36q10 0 48 1q-91 -82 -121 -134t-74 -169t-136 -411l-68 -218l-46 -148q-63 -201 -125 -334q-90 -192 -240.5 -344.5t-312.5 -188.5q-70 83 -70 178q0 100 56.5 239t155.5 259z" />
    <glyph glyph-name="K" unicode="K" horiz-adv-x="1360" 
d="M204 6q-89 -50 -175 -112q-27 -19 -67 -48q339 802 417 1134l33 141q10 43 10 62q0 43 -37 43q-34 0 -113 -58l-17 44l292 203q76 53 114 53q43 0 43 -51q0 -41 -64.5 -260t-176.5 -516v0q106 9 214 54v0q312 366 646 682l96 91l32 -23q-77 -354 -668 -760
q-10 -7 -77 -54v0q33 -81 36 -88l33 -78l1 -4l48 -121q53 -132 106 -192q31 -34 62 -34q42 0 134 113l17 -49q-99 -119 -158 -177l-66 -64q-49 -48 -77 -48q-36 0 -63 51q-47 89 -71 146l-50 117l-50 116q-27 63 -56 138v0q-203 -205 -348 -451v0zM328 280l69 79
q64 73 132 145v0q-23 84 -78 113v0z" />
    <glyph glyph-name="L" unicode="L" 
d="M155 133q-247 -244 -365 -244q-18 0 -18 18q0 70 114.5 195.5t248.5 165.5q58 128 147 401q73 224 122 334q68 152 199 244q127 89 273 155t227 66q60 0 95 -30t35 -73q0 -123 -369 -451l-46 18q184 150 184 253q0 57 -42 88.5t-101 31.5q-40 0 -98 -28
q-81 -92 -151 -261q-20 -47 -83 -220q-111 -301 -243 -512q66 -13 226 -151q152 -131 220 -151q16 -5 53 -12q111 85 205 268l110 29q-75 -142 -235 -293q-137 -129 -249 -183q-113 27 -272 184l-98 97q-35 35 -89 61z" />
    <glyph glyph-name="M" unicode="M" horiz-adv-x="1964" 
d="M13 281l52 8q-154 -188 -154 -299q0 -78 66 -78q81 0 186 117q156 173 380 607.5t224 594.5v0q0 74 -61 74q-45 0 -147 -45l8 42q295 166 367 166q41 0 56.5 -47.5t15.5 -185.5q0 -72 -2 -120l-27 -645l-4 -96v-20l1 -46q1 -31 10 -45v0q3 -5 10 -5q35 0 294 427
q184 303 225.5 398t51.5 184q1 13 3 42q149 77 293 159q-78 -198 -151 -588l-68 -362l-27 -179q-15 -99 -15 -142q0 -66 39 -66q30 0 129 115l17 -44q-80 -97 -114 -130l-98 -95q-90 -88 -141 -88q-70 0 -70 106q0 28 13 118l28 193l119 650v0l-274 -442
q-250 -404 -380 -547q-25 -28 -51 -28q-53 0 -53 88v14l15 520l8 192q4 101 7 267v0q-292 -641 -606 -1097q-175 -254 -303 -254q-55 0 -89.5 37.5t-34.5 99.5q0 105 75.5 238t176.5 237z" />
    <glyph glyph-name="N" unicode="N" horiz-adv-x="1435" 
d="M26 288l79 24q-170 -185 -170 -313q0 -49 41 -49q55 0 139 123q155 226 309 583t154 473q0 114 -102 114q-80 0 -206 -106l-10 55q250 200 439 276q72 -126 156 -391.5t120 -454.5l45 -239q5 -29 9 -46l27 -130v0q68 121 191 406.5t123 470.5q0 159 -99 159
q-63 0 -133 -82q-12 -14 -30 -33l-21 42q179 210 243.5 254t109.5 44q80 0 80 -134q0 -237 -172.5 -663.5t-443.5 -845.5q-18 113 -22 142q-27 183 -28 187l-5 29q-81 476 -213 865v0q-184 -546 -388 -922q-248 -457 -379 -457q-84 0 -84 130q0 91 45 196.5t196 292.5z" />
    <glyph glyph-name="O" unicode="O" horiz-adv-x="1435" 
d="M608 1065l14 17l149 185q33 41 40 50l96 124q98 27 166 27q177 0 281.5 -122t104.5 -324q0 -260 -160.5 -515t-413 -436.5t-427.5 -181.5q-161 0 -284 125t-123 311q0 265 163 534.5t492 496.5l52 -8q-254 -210 -368 -449t-114 -455q0 -170 106 -273t263 -103
q231 0 410 272.5t179 547.5q0 157 -71.5 256t-183.5 99q-93 0 -174.5 -51t-194.5 -196l-63 -12z" />
    <glyph glyph-name="P" unicode="P" horiz-adv-x="1058" 
d="M39 14l155 388l-79 82l138 92v0l34 90q151 400 151 512q0 48 -40 48q-37 0 -136 -61l7 50l319 205l55 33q25 15 38 15q34 0 34 -53q0 -74 -40 -198l-70 -217q191 234 310 337q151 131 223 131q62 0 99 -64.5t37 -164.5q0 -130 -63 -288t-163 -276q-106 -126 -264 -205
t-374 -98q-12 -1 -40 -4v0q-107 -286 -107 -357q0 -41 36 -41q39 0 141 74l2 -50l-65 -40q-178 -110 -232.5 -136.5t-90.5 -26.5q-57 0 -57 55q0 28 13 71zM410 487v0q55 -27 137 -27q217 0 359.5 227t142.5 437q0 119 -77 119q-93 0 -226 -158.5t-247 -404.5z" />
    <glyph glyph-name="Q" unicode="Q" horiz-adv-x="1360" 
d="M-55 0q91 91 206 196q20 -8 26 -11l55 -24q89 -39 131 -39v0q51 0 193.5 78t274.5 200q142 132 221 295t79 306t-73.5 223.5t-199.5 80.5q-203 0 -338.5 -204.5t-135.5 -415.5q0 -117 50 -178.5t134 -61.5q50 0 95 26t122 108h64q-263 -297 -459 -297q-110 0 -170.5 83
t-60.5 206q0 304 314.5 600.5t592.5 296.5q132 0 222 -97t90 -247q0 -171 -91 -348.5t-262.5 -332.5t-565.5 -361q239 -128 405 -128q153 0 287 162h64q-134 -157 -249.5 -241t-251.5 -84q-152 0 -394 115l-82 39q-18 9 -56 25q-47 -11 -91 -11q-77 0 -146 41z" />
    <glyph glyph-name="R" unicode="R" horiz-adv-x="1360" 
d="M261 1216q97 63 143 91q190 116 212 131q43 30 67 30q43 0 43 -54q0 -32 -23 -127l-24 -99l-1 -3l-80 -286q250 319 476 496q93 73 158 73q48 0 78 -42t30 -109q0 -126 -81 -282t-237 -267q-139 -99 -331 -151v0l79 -129q6 -10 76 -139q81 -150 132 -194q28 -24 49 -24
q35 0 131 103l18 -51q-170 -202 -257 -275q-23 -19 -44 -19q-40 0 -79 66q-30 51 -84 163q-127 266 -243 447v0q-112 -266 -193 -503q-117 -98 -288 -217q31 78 54 134q114 275 121 296l72 202l90 251q109 327 109 440q0 58 -42 58q-35 0 -128 -60zM496 627v0l152 67
q41 -8 73 -8q56 0 103 31t118 127q122 164 122 283q0 70 -54 70q-72 0 -244 -191.5t-270 -378.5z" />
    <glyph glyph-name="S" unicode="S" horiz-adv-x="982" 
d="M-70 55q29 112 69 189t146 228h84q-127 -95 -127 -193q0 -71 87.5 -118t198.5 -47q161 0 268 100q29 73 29 118q0 48 -20 86t-55 65q-40 31 -141 83q-96 49 -160 96q-44 32 -71 81t-27 110q0 186 206.5 400.5t428.5 214.5q166 0 258 -194q-78 -192 -231 -335h-61
q99 85 99 158q0 63 -63 104.5t-159 41.5q-118 0 -262 -77q-50 -93 -50 -156q0 -38 16 -72q18 -38 48 -61q45 -34 113 -67q130 -63 190 -110q53 -42 78 -85q29 -49 29 -119q0 -179 -209.5 -393t-439.5 -214q-91 0 -167 45.5t-105 120.5z" />
    <glyph glyph-name="T" unicode="T" horiz-adv-x="1435" 
d="M269 1211q157 118 311 257q133 -29 356 -94q141 -41 263 -62l70 33q114 54 215 88.5t117 34.5q26 0 26 -25q0 -35 -58 -111.5t-167.5 -137.5t-213.5 -61q-42 0 -108 12q-196 -104 -356 -276t-160 -390q0 -145 86.5 -260t255.5 -151q119 102 271 367l106 15
q-119 -212 -281 -357q-181 -162 -332 -204q-145 67 -238 218.5t-93 298.5q0 182 184 381t473 366q-37 8 -47 11l-131 35l-153 38q-121 30 -174 30q-84 0 -189 -74z" />
    <glyph glyph-name="U" unicode="U" horiz-adv-x="1360" 
d="M814 519q-82 -94 -96 -110q-290 -336 -416.5 -428t-192.5 -92q-48 0 -48 63q0 42 25 114l207 597q72 207 97 303l21 80q20 76 20 106q0 74 -47 74q-31 0 -121 -57l-16 45l361 235q29 19 46 19q53 0 53 -89q0 -59 -64 -245l-60 -174l-181 -486q-74 -199 -74 -257
q0 -57 38 -57q65 0 232.5 189t296 433.5t244.5 583.5q138 48 269 102q-67 -142 -133 -296q-34 -80 -62 -143q-149 -340 -193.5 -503t-44.5 -291q0 -121 67 -121q56 0 144 101l16 -45q-117 -140 -220 -210.5t-160 -70.5q-86 0 -86 162q0 160 78 468v0z" />
    <glyph glyph-name="V" unicode="V" 
d="M245 1174l3 50l303 187l56 36q33 21 52 21q47 0 53 -81v-20q0 -204 -128 -788q-18 -84 -20 -92l-5 -25q-33 -163 -33 -225q0 -77 54 -77t178 202q228 370 305 635q-17 46 -17 81q0 94 94 242t145 148q38 0 38 -51q0 -82 -63 -250q36 -85 116 -135q-123 -56 -233 -120v0
q-29 -54 -39 -74l-103 -198q-52 -101 -146 -249q-145 -229 -265.5 -365.5t-161.5 -136.5q-42 0 -76.5 43t-34.5 104q0 56 20 151q49 232 87.5 507.5t38.5 391.5q0 140 -79 140q-48 0 -139 -52z" />
    <glyph glyph-name="W" unicode="W" horiz-adv-x="1737" 
d="M192 1220q85 54 130 82q117 73 148 94q106 72 142 72q48 0 48 -87q0 -61 -15 -151l-17 -95l-17 -96l-90 -441q-10 -49 -30 -149l-4 -20q-27 -147 -27 -207q0 -62 50 -62q31 0 61 34q52 58 140 208l67 114l19 32q63 109 147 284v0q39 165 39 294q0 66 -14.5 109t-63.5 72
q230 161 271 161q53 0 53 -83q0 -89 -36 -267l-58 -287l-62 -309q-48 -239 -48 -293q0 -69 42 -69q61 0 196 210q171 266 298 567v0q-55 77 -55 157q0 117 89.5 245.5t146.5 128.5q46 0 46 -87q0 -91 -50 -230q15 -51 36 -74t76 -61q-109 -59 -208 -127v0q-62 -120 -75 -146
q-112 -221 -217 -381q-308 -473 -454 -473q-90 0 -90 105q0 40 13 106l103 524v0l-298 -456q-98 -150 -157 -214.5t-114 -64.5q-99 0 -99 145q0 87 54 333q108 493 108 723q0 136 -89 136q-38 0 -124 -50z" />
    <glyph glyph-name="X" unicode="X" horiz-adv-x="1511" 
d="M119 429q-162 -186 -162 -345q0 -107 53 -107q42 0 124 73q200 177 488 507v0q-4 102 -6 178l-3 134q0 127 -26 253q-25 121 -96 121q-72 0 -211 -109l-16 46q98 82 146 123q194 165 262 165q116 0 130 -286q3 -61 3 -146v-274v0q134 159 307 386q56 142 138.5 231
t137.5 89q34 0 34 -40q0 -45 -49 -104q-37 -44 -59 -85q0 -123 87 -214q-136 -67 -273 -130q-6 25 -7 30l-7 42q-2 11 -9 46v0l-70 -77q-47 -52 -75 -82q-78 -84 -144 -173v0q9 -318 67 -461q43 -107 159 -152q64 40 132.5 142t94.5 178l114 35q-106 -235 -254 -370
q-80 -73 -165.5 -118.5t-131.5 -45.5q-104 0 -151 158q-36 119 -54 419v0q-247 -286 -418 -450q-204 -195 -281 -195q-95 0 -95 152q0 118 69 247t190 233z" />
    <glyph glyph-name="Y" unicode="Y" horiz-adv-x="1284" 
d="M208 1226l327 222q29 20 47 20q68 0 68 -160q0 -167 -100 -616q-71 -319 -71 -419q0 -105 71 -105t211 208t274 542l70 175l67 162q11 30 32 90q160 53 335 123q-134 -190 -249 -418.5t-265 -580.5l-104 -244q-107 -250 -178.5 -350t-194.5 -217q-154 -146 -226 -146
q-48 0 -48 101q0 129 107 296v0q-114 46 -114 164q0 55 19 146l40 191q100 477 100 680q0 136 -84 136q-46 0 -128 -49zM417 -103v0q-29 -77 -29 -133q0 -53 28 -113q57 30 112 107q141 197 245 547v0q-189 -261 -356 -408z" />
    <glyph glyph-name="Z" unicode="Z" 
d="M128 42q-23 -23 -31 -32l-31 -34q-79 -87 -120 -87q-40 0 -40 47q0 58 62 133t140 119q9 5 36 19v0l812 982v0l-31 5q-38 6 -89 15q-196 34 -288 34q-50 0 -98 -16q-42 -44 -79 -114l-113 -15q51 65 113 127q241 243 310 243q35 0 77 -12l63 -18l163 -46q74 -21 133 -31
q127 107 193 107q42 0 42 -44q0 -99 -177 -206q-45 -27 -125 -65v0l-826 -959v0q32 4 49 4q59 0 193 -72q204 -110 309 -110q34 0 92 11q26 33 39 54q30 48 48 117l92 12q-65 -131 -133 -218q-157 -201 -301 -201q-94 0 -265 136q-146 116 -199 116q-6 0 -20 -1z" />
    <glyph glyph-name="bracketleft" unicode="[" horiz-adv-x="604" 
d="M-204 -490l99 243q238 585 346 896l153 442l44 126l87 253q93 -2 151 -2q59 0 153 2l-29 -78l-71 1l-66 1l-88 -261q-220 -657 -367 -1026l-123 -309l-28 -71l-56 -141l60 1l70 1l-34 -78q-77 2 -137 2q-47 0 -164 -2z" />
    <glyph glyph-name="backslash" unicode="\" horiz-adv-x="604" 
d="M161 1468h99l166 -1770h-99z" />
    <glyph glyph-name="bracketright" unicode="]" horiz-adv-x="604" 
d="M785 1470l-100 -244q-262 -639 -505 -1337l-132 -379q-93 2 -151 2q-59 0 -153 -2l27 78l72 -1l66 -1l89 261q226 665 383 1053q97 241 114 283l28 70l57 141l-60 -1l-70 -1l34 78q77 -2 138 -2q72 0 163 2z" />
    <glyph glyph-name="asciicircum" unicode="^" horiz-adv-x="1020" 
d="M510 1256q-166 -173 -411 -267v93q259 199 359 447h104q97 -246 359 -447v-93q-245 94 -411 267v0z" />
    <glyph glyph-name="underscore" unicode="_" horiz-adv-x="1020" 
d="M0 -406h1020v-104h-1020v104z" />
    <glyph glyph-name="grave" unicode="`" 
d="M487 1385l223 -21l224 -263l-137 19z" />
    <glyph glyph-name="a" unicode="a" horiz-adv-x="831" 
d="M404 295l-126 -149q-68 -80 -158.5 -151.5t-133.5 -71.5q-67 0 -67 94q0 103 63 293t169 345q101 148 243.5 243.5t219.5 95.5q39 0 112 -85l90 53l14 -16l-84 -201q-193 -462 -193 -567q0 -47 30 -47q27 0 88 56l5 -58q-94 -100 -175.5 -153t-119.5 -53q-53 0 -53 73
q0 71 52 227zM449 859q-107 -55 -206 -284t-99 -376q0 -60 33 -60t136 119t196 333l82 188l-26 -10q-44 90 -116 90z" />
    <glyph glyph-name="b" unicode="b" horiz-adv-x="755" 
d="M-4 275l103 278l181 504q51 136 100 295q124 52 243 116q-138 -308 -205 -485l-82 -217l153 125q126 103 195 103q76 0 76 -119q0 -176 -102.5 -411t-260.5 -388t-260 -153q-72 0 -122.5 58t-50.5 135q0 73 32 159zM308 58q80 74 161.5 283t81.5 375q0 99 -58 99
q-46 0 -116 -78.5t-141.5 -260.5t-71.5 -273q0 -127 144 -145z" />
    <glyph glyph-name="c" unicode="c" horiz-adv-x="604" 
d="M253 68q63 54 114 169l98 28q-41 -79 -90 -134q-57 -64 -153.5 -136t-155.5 -72q-62 0 -95.5 54.5t-33.5 139.5q0 239 160.5 486.5t291.5 299.5l208 83q20 8 40 8q37 0 37 -49q0 -39 -50 -156l-41 -96l-183 -83q65 132 65 189q0 50 -38 50q-42 0 -109 -93.5t-119.5 -264
t-52.5 -289.5q0 -125 107 -134z" />
    <glyph glyph-name="d" unicode="d" horiz-adv-x="831" 
d="M444 354l-161 -194q-197 -237 -307 -237q-76 0 -76 104q0 163 109 413t291.5 402t281.5 152q33 0 74 -29l128 387q123 52 240 116q-58 -154 -116 -303l-108 -276q-64 -164 -139.5 -401t-75.5 -320q0 -36 26 -36q20 0 80 38l1 -50l-156 -136l-41 -28q-48 -33 -84 -33
q-57 0 -57 61q0 56 27 150zM547 748q-68 111 -112 111q-76 0 -193 -269.5t-117 -390.5v-19q3 -41 36 -41q48 0 180 173t241 453z" />
    <glyph glyph-name="e" unicode="e" horiz-adv-x="604" 
d="M186 518q-46 -142 -46 -251q0 -107 69 -149q26 -16 59 -16h18q64 77 101 211l93 4q-72 -165 -180 -267q-134 -127 -226 -127q-63 0 -103 61t-40 147q0 163 106 383.5t275.5 350t290.5 129.5q76 0 76 -77q0 -100 -158 -232t-335 -167zM216 636q54 -20 88 -20q68 0 109 65
t41 109q0 59 -52 59q-11 0 -25 -2q-64 -59 -138 -175z" />
    <glyph glyph-name="f" unicode="f" horiz-adv-x="529" 
d="M-203 -207l15 -8q-8 -28 -8 -46q0 -42 34 -99q50 74 86 175q56 158 118 386l61 224q0 1 6 20l29 96h-91l131 134l22 76q34 118 64 206q77 227 216 369t221 142q61 0 61 -77q0 -82 -99 -222l-18 6q-12 83 -93 113l6 -26q-89 -193 -212 -603h199l-102 -118h-131l-43 -155
q-17 -61 -22 -78l-18 -59l-47 -155q-38 -124 -75 -223q-58 -156 -160 -269t-156 -113q-27 0 -44 41.5t-17 80.5q0 106 67 182z" />
    <glyph glyph-name="g" unicode="g" horiz-adv-x="755" 
d="M10 -144l30 -14q-35 -63 -35 -102q0 -72 84 -100q71 46 121 170q41 101 80 229l50 164l-121 -122q-157 -158 -238 -158q-69 0 -69 117q0 101 59 275t176 342q92 132 230.5 234.5t204.5 102.5q33 0 68 -44q21 -26 45 -56l97 100l25 -9q-30 -79 -59 -151l-71 -179
q-29 -74 -73 -201l-153 -445q-30 -86 -44 -117q-54 -116 -197 -236l-106 -89q-93 -78 -154 -78q-47 0 -84.5 39t-37.5 84q0 95 172 244zM563 773l-35 -11q-34 97 -79 97q-39 0 -115 -112.5t-136.5 -285t-60.5 -264.5q0 -58 35 -58q30 0 98 66t151 251z" />
    <glyph glyph-name="h" unicode="h" horiz-adv-x="906" 
d="M90 7q-114 -46 -237 -109q302 769 428 1099l149 391q100 32 228 80l-69 -169l-17 -43l-147 -359q-47 -114 -241 -597q230 320 397 491l94 94l159 92q29 17 50 17q41 0 41 -52q0 -35 -29 -103l-213 -496l-38 -92q-19 -43 -19 -72q0 -57 57 -57q18 0 44 7l-22 -50
l-225 -128q-49 -28 -72 -28q-41 0 -41 51q0 61 73 219l172 373l25 66q12 32 12 48q0 27 -26 27q-37 0 -155 -139t-171 -217q-48 -70 -91 -144z" />
    <glyph glyph-name="i" unicode="i" horiz-adv-x="453" 
d="M224 858q130 68 256 136q-60 -113 -161 -357l-78 -188q-23 -55 -59 -169.5t-36 -145.5q0 -36 22 -36q45 0 104 118l16 32h13l-36 -152l-166 -124q-66 -49 -110 -49q-69 0 -69 71q0 70 115 361l92 233l50 140q25 71 47 130zM270 1170q87 77 154 162q108 -34 215 -39
q-119 -154 -245 -154q-59 0 -124 31z" />
    <glyph glyph-name="j" unicode="j" horiz-adv-x="453" 
d="M-259 -203l39 41q-3 -17 -7 -42q-6 -34 -6 -55q0 -40 34 -78q70 99 217 507t240 715q121 50 252 109q-82 -176 -163 -404l-12 -34l-151 -424l-65 -185l-8 -22q-30 -92 -51 -125q-19 -31 -73 -84q-63 -62 -99 -102q-93 -102 -141 -102q-51 0 -51 110q0 72 45 175z
M275 1170q87 77 154 162q108 -34 215 -39q-119 -154 -245 -154q-59 0 -124 31z" />
    <glyph glyph-name="k" unicode="k" horiz-adv-x="831" 
d="M-56 137l39 102l178 456l192 514l55 143q133 58 251 116l-118 -283q-59 -141 -146 -363l-44 -112l-89 -224v0q184 105 230 157.5t46 120.5q0 45 -21 121l220 109q26 -52 26 -104q0 -93 -48 -151.5t-247 -180.5l-78 -48v0q49 -163 64 -197l52 -121q23 -54 46 -77
q26 -26 68 -26q24 0 54 18l8 -28q-77 -75 -144.5 -115.5t-88.5 -40.5q-30 0 -59 43q-105 157 -168 424v0l-137 -342q-128 -80 -235 -156z" />
    <glyph glyph-name="l" unicode="l" horiz-adv-x="453" 
d="M-12 175l173 488l85 222q105 273 172 503q110 34 233 80q-221 -581 -321 -836q-146 -373 -146 -448q0 -53 44 -53q29 0 85 42l20 -29l-206 -186q-39 -35 -71 -35q-41 0 -71 32t-30 78q0 49 33 142z" />
    <glyph glyph-name="m" unicode="m" horiz-adv-x="1284" 
d="M124 3q-97 -32 -227 -80l43 108q3 7 13 35l37 101q197 538 197 703q0 17 -2 44l179 75q12 5 23 5q28 0 28 -33q0 -44 -53 -199l-54 -158l-67 -195l-7 -21l-29 -86l75 120q129 205 267 401q28 40 44 62l214 102q15 7 24 7q23 0 23 -27q0 -30 -28 -101l-128 -323l-53 -151
q-20 -58 -30 -85l-5 -14q-9 -28 -27 -93q37 53 44 63l23 35l87 130q131 197 272 388l65 88l169 86q8 4 16 4q32 0 32 -38q0 -43 -47 -163l-130 -331q-94 -239 -94 -302q0 -49 43 -49q23 0 53 18l3 -50l-223 -126q-53 -30 -77 -30q-47 0 -47 59q0 48 45 156l153 368
q17 41 29 75l19 54q11 31 11 49q0 23 -18 23q-17 0 -142.5 -178.5t-218.5 -333.5l-71 -118q-8 -14 -48 -74q-115 -37 -224 -80l170 470l59 171q9 27 25 69q13 35 13 57q0 17 -13 17q-22 0 -63 -58l-85 -120q-125 -177 -287 -526z" />
    <glyph glyph-name="n" unicode="n" horiz-adv-x="906" 
d="M-122 -77l127 326l44 110q145 364 154 503v52l198 75q13 5 24 5q19 0 19 -29q0 -43 -96 -269q-28 -66 -101 -255q-19 -49 -53 -135q30 41 78 106q167 229 325 395q28 29 94 97l201 85q12 5 23 5q24 0 24 -24q0 -37 -71 -188l-131 -279q-108 -230 -108 -343q0 -53 41 -53
q18 0 57 22l-6 -50l-253 -139q-31 -17 -48 -17q-49 0 -49 73q0 68 62 203l150 327l34 71q25 58 25 85q0 25 -23 25q-51 0 -227.5 -229t-293.5 -475q-112 -36 -220 -80z" />
    <glyph glyph-name="o" unicode="o" horiz-adv-x="755" 
d="M358 150q68 105 127.5 260t59.5 309q0 41 -17.5 70.5t-43.5 29.5q-13 0 -34 -10l-26 22q36 28 76 58l90 68l8 6q61 49 71 57q85 -34 85 -169q0 -193 -95.5 -389t-281.5 -367.5t-279 -171.5q-67 0 -107.5 55t-40.5 149q0 218 154.5 464t370.5 403l51 -4q-16 -17 -43 -45
q-324 -333 -324 -671q0 -150 117 -150q37 0 82 26z" />
    <glyph glyph-name="p" unicode="p" horiz-adv-x="831" 
d="M-23 -352q-119 -63 -250 -136q64 148 114 283l115 311l91 239l77 216q70 198 95 297q118 57 244 136l-95 -252q19 14 40 31l86 68l6 4q203 149 283 149q70 0 70 -108q0 -154 -111.5 -376.5t-295.5 -404.5t-236 -182q-28 0 -28 78v143l-1 49q-43 -106 -60 -153l-66 -181
l-26 -70q-33 -91 -52 -141zM249 363v-5q0 -80 28.5 -157t66.5 -77q65 0 174.5 239t109.5 395q0 57 -44 57q-63 0 -169 -125t-166 -327z" />
    <glyph glyph-name="q" unicode="q" horiz-adv-x="831" 
d="M288 -62l128 327q-299 -342 -413 -342q-68 0 -68 113q0 200 134.5 457t301.5 379t277 122q39 0 98 -79l112 79l17 -16l-180 -442q-31 -75 -168.5 -438.5t-137.5 -394.5q0 -27 27 -27q18 0 64 19l-9 -50l-175 -104q-88 -52 -138 -52q-30 0 -30 34q0 42 97 268zM631 768
l-39 -9q-35 100 -95 100q-14 0 -37 -6q-107 -76 -203.5 -301.5t-96.5 -348.5q0 -64 33 -64q38 0 132 103t149 202l72 149z" />
    <glyph glyph-name="r" unicode="r" horiz-adv-x="604" 
d="M-6 172l119 307q75 193 75 284q0 63 -50 72l1 50l162 92q30 17 55 17q34 0 34 -58q0 -49 -22 -159q-4 -20 -13 -71q28 43 37 57q96 152 138 191.5t83 39.5q73 0 73 -80q0 -121 -132 -313l-24 10q25 59 25 87q0 66 -50 66q-49 0 -112.5 -88t-137.5 -286.5t-74 -247.5
q0 -41 26 -41q13 0 33 11l31 17q8 5 27 16v-50l-159 -112l-32 -19q-69 -41 -109 -41q-57 0 -57 63q0 49 53 186z" />
    <glyph glyph-name="s" unicode="s" horiz-adv-x="680" 
d="M128 333l32 -12q-55 -76 -55 -112q0 -47 41.5 -77t99.5 -30q64 0 111 33.5t47 84.5q0 22 -9 40q-17 34 -44 57q-27 22 -64 47q-64 42 -109 83q-30 27 -48 63t-18 72q0 117 152 264.5t295 147.5q62 0 110.5 -34.5t48.5 -81.5q0 -10 -4 -26l-63 -94l-92 -137l-34 11
q31 62 31 93q0 55 -43 89.5t-105 34.5q-57 0 -104.5 -32.5t-47.5 -81.5q0 -26 12 -52q10 -21 19 -32q35 -41 111 -93q53 -36 92 -71q26 -23 40 -46q18 -29 18 -63q0 -104 -151 -279.5t-285 -175.5q-168 0 -196 141q70 109 212 269z" />
    <glyph glyph-name="t" unicode="t" horiz-adv-x="529" 
d="M5 234l182 487q18 48 20 53q7 17 7 24q0 31 -80 90q35 29 85 58h52l91 246q109 45 225 116l-136 -362h224l-140 -99h-120l-178 -493q-7 -19 -27 -84l-13 -42q-8 -26 -8 -44q0 -21 14 -37t24 -16q12 0 35 30l76 101q7 9 24 33l32 -53q-236 -319 -339 -319
q-44 0 -69.5 38.5t-25.5 90.5q0 62 45 182z" />
    <glyph glyph-name="u" unicode="u" horiz-adv-x="906" 
d="M-18 143l99 254l38 97l5 14q67 181 67 236q0 11 -1 15l-10 19l-24 8q-7 2 -20 13l-15 24l211 146q36 25 64 25q48 0 48 -53q0 -43 -24 -105l-101 -263l-38 -91q-97 -232 -97 -282q0 -29 21 -29q39 0 144 122q275 320 385 652q95 20 198 49l-116 -262l-40 -95
q-164 -389 -164 -473q0 -52 47 -52q33 0 85 17l-7 -50l-221 -128q-48 -28 -84 -28q-27 0 -45 24.5t-18 59.5q0 50 38 159l75 215l-150 -186q-219 -272 -336 -272q-54 0 -54 61q0 56 40 159z" />
    <glyph glyph-name="v" unicode="v" horiz-adv-x="755" 
d="M223 901q106 42 221 109l-32 -78q-104 -253 -138 -375.5t-34 -243.5t52 -121q58 0 131 119q189 307 189 439q0 65 -87 95q112 70 207 149q68 -44 132 -77q-91 -80 -137 -174l-71 -145q-60 -122 -121 -226q-107 -182 -223.5 -315.5t-170.5 -133.5q-57 0 -83.5 73.5
t-26.5 166.5q0 87 34.5 259t157.5 479z" />
    <glyph glyph-name="w" unicode="w" horiz-adv-x="1133" 
d="M31 83l63 329q59 308 73 487q124 43 258 109l-34 -96q-135 -381 -135 -599q0 -58 27 -58q23 0 69.5 52t86.5 124q86 155 122 367q11 62 17 97q102 47 216 109q-9 -38 -25 -108q-72 -308 -72 -546q0 -95 22 -95q31 0 112 127q177 277 177 368q0 38 -54 72q-3 2 -31 20
q95 70 201 152q77 -37 138 -83q-62 -48 -127 -158l-66 -112q-88 -149 -139 -221l-221 -311q-132 -186 -185 -186q-37 0 -37 61v1l3 52l29 371l-141 -183q-233 -302 -318 -302q-41 0 -41 57q0 22 4 49z" />
    <glyph glyph-name="x" unicode="x" horiz-adv-x="831" 
d="M-213 -77l64 47q6 5 19 15l137 112q124 102 174 155v0q-27 123 -27 227q0 219 84 435q112 31 227 80q-110 -250 -110 -478q0 -31 4 -79v0q144 158 389 501q146 39 215 56q-229 -278 -589 -645v0q51 -177 111 -235q43 -42 93 -42q29 0 78 18v-50q-92 -51 -180.5 -84
t-114.5 -33q-40 0 -69 45q-55 86 -92 216v0q-141 -135 -307 -261h-106z" />
    <glyph glyph-name="y" unicode="y" horiz-adv-x="906" 
d="M51 241l85 215q87 220 87 292q0 38 -27 38q-12 0 -34 -12l-14 33l175 138q62 49 97 49q58 0 58 -70q0 -41 -36 -134l-150 -388q-75 -194 -75 -231q0 -23 22 -23q50 0 160.5 125t176.5 263l166 349q101 48 232 109q-193 -389 -258 -580l-16 -47q-21 -59 -41 -122
q-99 -304 -187 -440q-92 -143 -230.5 -229.5t-237.5 -86.5q-40 0 -68 31.5t-28 85.5q0 124 185 261l23 -6q-31 -74 -31 -117q0 -102 80 -126q46 31 73.5 73t73.5 143q54 118 82 198l83 237v0l-182 -171q-103 -97 -191 -147q-33 -19 -63 -19q-49 0 -49 76q0 84 59 233z" />
    <glyph glyph-name="z" unicode="z" horiz-adv-x="755" 
d="M42 92l-30 -28q-92 -86 -130 -86q-21 0 -21 23q0 58 71 164.5t145 106.5q13 0 37 -5v0q192 194 444 503v0q-12 1 -27 2q-57 3 -120 21q-79 22 -120 22h-20q-28 -30 -55 -81q-6 -12 -16 -30l-104 -26q31 74 71 125q59 76 145.5 133.5t149.5 57.5q40 0 117 -30l126 -49v0
q15 11 19 14l40 33q39 32 75 32q35 0 35 -32q0 -75 -161 -163v0l-86 -93q-21 -23 -23 -25l-148 -168q-20 -22 -35 -39l-103 -112l-112 -121v0q27 -14 46 -29l63 -49q50 -39 94 -39q40 0 78.5 27t80.5 117l42 9q-61 -162 -142 -258t-147 -96q-61 0 -156 82l-60 52
q-27 24 -63 35v0z" />
    <glyph glyph-name="braceleft" unicode="{" horiz-adv-x="906" 
d="M233 510l10 51q61 29 106 54q144 79 175 192q19 70 21 195q2 131 28 218q78 257 492 323l-11 -51q-128 -44 -181.5 -102.5t-76.5 -125.5q-36 -104 -53 -246q-17 -145 -51 -218q-62 -134 -355 -261v0q233 -116 233 -272q0 -101 -66 -259q-61 -146 -61 -239
q0 -56 32 -108.5t133 -90.5l-11 -51q-158 18 -255 97t-97 181q0 112 88 291q69 141 69 234q0 89 -72 139q-35 25 -97 49z" />
    <glyph glyph-name="bar" unicode="|" horiz-adv-x="1020" 
d="M458 1529h104v-2039h-104v2039z" />
    <glyph glyph-name="braceright" unicode="}" horiz-adv-x="906" 
d="M761 549l-11 -51q-58 -29 -105 -55q-144 -80 -175 -192q-19 -70 -21 -193q-2 -130 -28 -216q-79 -257 -492 -323l11 51q128 44 181.5 102.5t76.5 126.5q36 104 53 243q18 145 51 217q60 131 356 261v0q-235 118 -235 273q0 100 67 260q61 145 61 240q0 56 -32 108.5
t-133 90.5l11 51q158 -18 255 -97.5t97 -180.5q0 -113 -88 -293q-69 -141 -69 -235q0 -89 72 -139q35 -25 97 -49z" />
    <glyph glyph-name="asciitilde" unicode="~" horiz-adv-x="2039" 
d="M1619 689l34 -36q-68 -139 -151 -191.5t-175 -52.5q-129 0 -324 61l-16 5l-127 36q-113 32 -184 32q-113 0 -258 -124l-31 33q99 149 182 195t167 46q89 0 219 -37l134 -38q208 -59 290 -59q125 0 240 130z" />
    <glyph glyph-name="Adieresis" unicode="&#xc4;" horiz-adv-x="1360" 
d="M42 349h41q-144 -174 -144 -296q0 -33 21 -58t52 -25q69 0 167 95q121 117 289 354v0q-68 4 -147 17q61 41 84 54l93 54q14 8 72 48q337 518 375 790q80 29 105 38l81 29l53 19q-70 -218 -98 -394.5t-61 -533.5v0q82 5 172 12q-66 -51 -172 -95v0q-13 -152 -13 -225
q0 -101 41 -101q39 0 139 116v-50q-105 -126 -143 -166l-71 -75q-63 -67 -103 -67q-79 0 -79 116q0 57 7 120l20 181l2 23l8 89v0q-73 -8 -119 -8q-55 0 -179 9v0q-79 -126 -144 -220q-313 -454 -474 -454q-55 0 -85 42t-30 99q0 106 78.5 246t161.5 217zM630 553v0
q124 -13 214 -13v0q9 70 9 71l18 174l18 169q4 39 11 111v0q-35 -63 -40 -74l-56 -113q-23 -47 -64 -122l-70 -129zM755 1602l151 159q89 -35 187 -43q-89 -139 -233 -139q-59 0 -105 23zM1104 1602l151 159q90 -36 187 -43q-92 -139 -234 -139q-53 0 -104 23z" />
    <glyph glyph-name="Aring" unicode="&#xc5;" horiz-adv-x="1360" 
d="M42 349h41q-144 -174 -144 -296q0 -33 21 -58t52 -25q69 0 167 95q121 117 289 354v0q-68 4 -147 17q61 41 84 54l93 54q14 8 72 48q337 518 375 790q80 29 105 38l81 29l53 19q-70 -218 -98 -394.5t-61 -533.5v0q82 5 172 12q-66 -51 -172 -95v0q-13 -152 -13 -225
q0 -101 41 -101q39 0 139 116v-50q-105 -126 -143 -166l-71 -75q-63 -67 -103 -67q-79 0 -79 116q0 57 7 120l20 181l2 23l8 89v0q-73 -8 -119 -8q-55 0 -179 9v0q-79 -126 -144 -220q-313 -454 -474 -454q-55 0 -85 42t-30 99q0 106 78.5 246t161.5 217zM630 553v0
q124 -13 214 -13v0q9 70 9 71l18 174l18 169q4 39 11 111v0q-35 -63 -40 -74l-56 -113q-23 -47 -64 -122l-70 -129zM1013 1898q76 35 145 35q94 0 152.5 -47t58.5 -118q0 -121 -157 -215l-31 -4q-39 -5 -65 -5q-89 0 -143 46.5t-54 119.5q0 88 94 188zM1037 1839
q-23 -53 -23 -91q0 -52 34.5 -87.5t96.5 -35.5q38 0 95 14q34 59 34 102q0 111 -140 111q-30 0 -97 -13z" />
    <glyph glyph-name="Ccedilla" unicode="&#xc7;" horiz-adv-x="1058" 
d="M554 723q162 37 325 173t163 274q0 66 -45.5 100.5t-101.5 34.5q-174 0 -424 -321t-250 -622q0 -136 74 -215t196 -79q58 0 138 26q121 109 240 316l106 17q-114 -172 -283 -340q-87 -87 -200 -142.5t-213 -55.5q-135 0 -209 97.5t-74 229.5q0 239 209 556t479 506.5
t428 189.5q61 0 100 -36t39 -90q0 -139 -195.5 -344.5t-477.5 -343.5zM-6 -419l41 60q73 -38 124 -38q90 0 134 74q-40 72 -132 72q-25 0 -59 -8l-24 18l173 240h47l-71 -152q26 3 39 3q54 0 98.5 -25t44.5 -63q0 -64 -97.5 -143t-186.5 -79q-57 0 -131 41z" />
    <glyph glyph-name="Eacute" unicode="&#xc9;" horiz-adv-x="982" 
d="M631 1272q-144 -113 -144 -250q0 -197 394 -226q-100 -60 -200 -136q-69 12 -112 12v0q-135 0 -267.5 -129.5t-132.5 -252.5q0 -80 61 -128t164 -48q111 0 236 64q85 104 125 210l109 13q-53 -103 -114 -173q-292 -339 -506 -339q-117 0 -200.5 74t-83.5 191
q0 123 112 267.5t364 285.5v0q-96 57 -127 102t-31 101q0 131 243.5 344.5t368.5 213.5q77 0 136.5 -44t59.5 -107q0 -110 -247 -309l-47 17q28 26 44 40q57 48 57 89q0 60 -48.5 97.5t-126.5 37.5q-40 0 -87 -17zM727 1579l223 263l224 21l-311 -265z" />
    <glyph glyph-name="Ntilde" unicode="&#xd1;" horiz-adv-x="1435" 
d="M26 288l79 24q-170 -185 -170 -313q0 -49 41 -49q55 0 139 123q155 226 309 583t154 473q0 114 -102 114q-80 0 -206 -106l-10 55q250 200 439 276q72 -126 156 -391.5t120 -454.5l45 -239q5 -29 9 -46l27 -130v0q68 121 191 406.5t123 470.5q0 159 -99 159
q-63 0 -133 -82q-12 -14 -30 -33l-21 42q179 210 243.5 254t109.5 44q80 0 80 -134q0 -237 -172.5 -663.5t-443.5 -845.5q-18 113 -22 142q-27 183 -28 187l-5 29q-81 476 -213 865v0q-184 -546 -388 -922q-248 -457 -379 -457q-84 0 -84 130q0 91 45 196.5t196 292.5z
M834 1613q99 191 212 191q37 0 66 -10l107 -37q35 -12 60 -12q48 0 92 62l42 -12q-99 -190 -199 -190q-24 0 -51 8l-37 11q-71 21 -102 30q-34 10 -56 10q-42 0 -93 -61z" />
    <glyph glyph-name="Odieresis" unicode="&#xd6;" horiz-adv-x="1435" 
d="M608 1065l14 17l149 185q33 41 40 50l96 124q98 27 166 27q177 0 281.5 -122t104.5 -324q0 -260 -160.5 -515t-413 -436.5t-427.5 -181.5q-161 0 -284 125t-123 311q0 265 163 534.5t492 496.5l52 -8q-254 -210 -368 -449t-114 -455q0 -170 106 -273t263 -103
q231 0 410 272.5t179 547.5q0 157 -71.5 256t-183.5 99q-93 0 -174.5 -51t-194.5 -196l-63 -12zM793 1602l151 159q89 -35 187 -43q-89 -139 -233 -139q-59 0 -105 23zM1142 1602l151 159q90 -36 187 -43q-92 -139 -234 -139q-53 0 -104 23z" />
    <glyph glyph-name="Udieresis" unicode="&#xdc;" horiz-adv-x="1360" 
d="M814 519q-82 -94 -96 -110q-290 -336 -416.5 -428t-192.5 -92q-48 0 -48 63q0 42 25 114l207 597q72 207 97 303l21 80q20 76 20 106q0 74 -47 74q-31 0 -121 -57l-16 45l361 235q29 19 46 19q53 0 53 -89q0 -59 -64 -245l-60 -174l-181 -486q-74 -199 -74 -257
q0 -57 38 -57q65 0 232.5 189t296 433.5t244.5 583.5q138 48 269 102q-67 -142 -133 -296q-34 -80 -62 -143q-149 -340 -193.5 -503t-44.5 -291q0 -121 67 -121q56 0 144 101l16 -45q-117 -140 -220 -210.5t-160 -70.5q-86 0 -86 162q0 160 78 468v0zM755 1602l151 159
q89 -35 187 -43q-89 -139 -233 -139q-59 0 -105 23zM1104 1602l151 159q90 -36 187 -43q-92 -139 -234 -139q-53 0 -104 23z" />
    <glyph glyph-name="aacute" unicode="&#xe1;" horiz-adv-x="831" 
d="M404 295l-126 -149q-68 -80 -158.5 -151.5t-133.5 -71.5q-67 0 -67 94q0 103 63 293t169 345q101 148 243.5 243.5t219.5 95.5q39 0 112 -85l90 53l14 -16l-84 -201q-193 -462 -193 -567q0 -47 30 -47q27 0 88 56l5 -58q-94 -100 -175.5 -153t-119.5 -53q-53 0 -53 73
q0 71 52 227zM449 859q-107 -55 -206 -284t-99 -376q0 -60 33 -60t136 119t196 333l82 188l-26 -10q-44 90 -116 90zM546 1101l223 263l224 21l-311 -265z" />
    <glyph glyph-name="agrave" unicode="&#xe0;" horiz-adv-x="831" 
d="M404 295l-126 -149q-68 -80 -158.5 -151.5t-133.5 -71.5q-67 0 -67 94q0 103 63 293t169 345q101 148 243.5 243.5t219.5 95.5q39 0 112 -85l90 53l14 -16l-84 -201q-193 -462 -193 -567q0 -47 30 -47q27 0 88 56l5 -58q-94 -100 -175.5 -153t-119.5 -53q-53 0 -53 73
q0 71 52 227zM449 859q-107 -55 -206 -284t-99 -376q0 -60 33 -60t136 119t196 333l82 188l-26 -10q-44 90 -116 90zM300 1385l223 -21l224 -263l-137 19z" />
    <glyph glyph-name="acircumflex" unicode="&#xe2;" horiz-adv-x="831" 
d="M404 295l-126 -149q-68 -80 -158.5 -151.5t-133.5 -71.5q-67 0 -67 94q0 103 63 293t169 345q101 148 243.5 243.5t219.5 95.5q39 0 112 -85l90 53l14 -16l-84 -201q-193 -462 -193 -567q0 -47 30 -47q27 0 88 56l5 -58q-94 -100 -175.5 -153t-119.5 -53q-53 0 -53 73
q0 71 52 227zM449 859q-107 -55 -206 -284t-99 -376q0 -60 33 -60t136 119t196 333l82 188l-26 -10q-44 90 -116 90zM380 1155l281 244h132l114 -251l-106 -44l-109 191v0l-207 -194z" />
    <glyph glyph-name="adieresis" unicode="&#xe4;" horiz-adv-x="831" 
d="M404 295l-126 -149q-68 -80 -158.5 -151.5t-133.5 -71.5q-67 0 -67 94q0 103 63 293t169 345q101 148 243.5 243.5t219.5 95.5q39 0 112 -85l90 53l14 -16l-84 -201q-193 -462 -193 -567q0 -47 30 -47q27 0 88 56l5 -58q-94 -100 -175.5 -153t-119.5 -53q-53 0 -53 73
q0 71 52 227zM449 859q-107 -55 -206 -284t-99 -376q0 -60 33 -60t136 119t196 333l82 188l-26 -10q-44 90 -116 90zM306 1124l151 159q89 -35 187 -43q-89 -139 -233 -139q-59 0 -105 23zM655 1124l151 159q90 -36 187 -43q-92 -139 -234 -139q-53 0 -104 23z" />
    <glyph glyph-name="atilde" unicode="&#xe3;" horiz-adv-x="831" 
d="M404 295l-126 -149q-68 -80 -158.5 -151.5t-133.5 -71.5q-67 0 -67 94q0 103 63 293t169 345q101 148 243.5 243.5t219.5 95.5q39 0 112 -85l90 53l14 -16l-84 -201q-193 -462 -193 -567q0 -47 30 -47q27 0 88 56l5 -58q-94 -100 -175.5 -153t-119.5 -53q-53 0 -53 73
q0 71 52 227zM449 859q-107 -55 -206 -284t-99 -376q0 -60 33 -60t136 119t196 333l82 188l-26 -10q-44 90 -116 90zM418 1150q99 191 212 191q37 0 66 -10l107 -37q35 -12 60 -12q48 0 92 62l42 -12q-99 -190 -199 -190q-24 0 -51 8l-37 11q-71 21 -102 30q-34 10 -56 10
q-42 0 -93 -61z" />
    <glyph glyph-name="aring" unicode="&#xe5;" horiz-adv-x="831" 
d="M404 295l-126 -149q-68 -80 -158.5 -151.5t-133.5 -71.5q-67 0 -67 94q0 103 63 293t169 345q101 148 243.5 243.5t219.5 95.5q39 0 112 -85l90 53l14 -16l-84 -201q-193 -462 -193 -567q0 -47 30 -47q27 0 88 56l5 -58q-94 -100 -175.5 -153t-119.5 -53q-53 0 -53 73
q0 71 52 227zM449 859q-107 -55 -206 -284t-99 -376q0 -60 33 -60t136 119t196 333l82 188l-26 -10q-44 90 -116 90zM512 1455q76 35 145 35q94 0 152.5 -47t58.5 -118q0 -121 -157 -215l-31 -4q-39 -5 -65 -5q-89 0 -143 46.5t-54 119.5q0 88 94 188zM536 1396
q-23 -53 -23 -91q0 -52 34.5 -87.5t96.5 -35.5q38 0 95 14q34 59 34 102q0 111 -140 111q-30 0 -97 -13z" />
    <glyph glyph-name="ccedilla" unicode="&#xe7;" horiz-adv-x="604" 
d="M253 68q63 54 114 169l98 28q-41 -79 -90 -134q-57 -64 -153.5 -136t-155.5 -72q-62 0 -95.5 54.5t-33.5 139.5q0 239 160.5 486.5t291.5 299.5l208 83q20 8 40 8q37 0 37 -49q0 -39 -50 -156l-41 -96l-183 -83q65 132 65 189q0 50 -38 50q-42 0 -109 -93.5t-119.5 -264
t-52.5 -289.5q0 -125 107 -134zM-201 -418l41 60q73 -38 124 -38q90 0 134 74q-40 72 -132 72q-25 0 -59 -8l-24 18l173 240h47l-71 -152q26 3 39 3q54 0 98.5 -25t44.5 -63q0 -64 -97.5 -143t-186.5 -79q-57 0 -131 41z" />
    <glyph glyph-name="eacute" unicode="&#xe9;" horiz-adv-x="604" 
d="M186 518q-46 -142 -46 -251q0 -107 69 -149q26 -16 59 -16h18q64 77 101 211l93 4q-72 -165 -180 -267q-134 -127 -226 -127q-63 0 -103 61t-40 147q0 163 106 383.5t275.5 350t290.5 129.5q76 0 76 -77q0 -100 -158 -232t-335 -167zM216 636q54 -20 88 -20q68 0 109 65
t41 109q0 59 -52 59q-11 0 -25 -2q-64 -59 -138 -175zM432 1101l223 263l224 21l-311 -265z" />
    <glyph glyph-name="egrave" unicode="&#xe8;" horiz-adv-x="604" 
d="M186 518q-46 -142 -46 -251q0 -107 69 -149q26 -16 59 -16h18q64 77 101 211l93 4q-72 -165 -180 -267q-134 -127 -226 -127q-63 0 -103 61t-40 147q0 163 106 383.5t275.5 350t290.5 129.5q76 0 76 -77q0 -100 -158 -232t-335 -167zM216 636q54 -20 88 -20q68 0 109 65
t41 109q0 59 -52 59q-11 0 -25 -2q-64 -59 -138 -175zM88 1385l223 -21l224 -263l-137 19z" />
    <glyph glyph-name="ecircumflex" unicode="&#xea;" horiz-adv-x="604" 
d="M186 518q-46 -142 -46 -251q0 -107 69 -149q26 -16 59 -16h18q64 77 101 211l93 4q-72 -165 -180 -267q-134 -127 -226 -127q-63 0 -103 61t-40 147q0 163 106 383.5t275.5 350t290.5 129.5q76 0 76 -77q0 -100 -158 -232t-335 -167zM216 636q54 -20 88 -20q68 0 109 65
t41 109q0 59 -52 59q-11 0 -25 -2q-64 -59 -138 -175zM266 1155l281 244h132l114 -251l-106 -44l-109 191v0l-207 -194z" />
    <glyph glyph-name="edieresis" unicode="&#xeb;" horiz-adv-x="604" 
d="M186 518q-46 -142 -46 -251q0 -107 69 -149q26 -16 59 -16h18q64 77 101 211l93 4q-72 -165 -180 -267q-134 -127 -226 -127q-63 0 -103 61t-40 147q0 163 106 383.5t275.5 350t290.5 129.5q76 0 76 -77q0 -100 -158 -232t-335 -167zM216 636q54 -20 88 -20q68 0 109 65
t41 109q0 59 -52 59q-11 0 -25 -2q-64 -59 -138 -175zM192 1124l151 159q89 -35 187 -43q-89 -139 -233 -139q-59 0 -105 23zM541 1124l151 159q90 -36 187 -43q-92 -139 -234 -139q-53 0 -104 23z" />
    <glyph glyph-name="iacute" unicode="&#xed;" horiz-adv-x="453" 
d="M224 858q130 68 256 136q-60 -113 -161 -357l-78 -188q-23 -55 -59 -169.5t-36 -145.5q0 -36 22 -36q45 0 104 118l16 32h13l-36 -152l-166 -124q-66 -49 -110 -49q-69 0 -69 71q0 70 115 361l92 233l50 140q25 71 47 130zM357 1101l223 263l224 21l-311 -265z" />
    <glyph glyph-name="igrave" unicode="&#xec;" horiz-adv-x="453" 
d="M224 858q130 68 256 136q-60 -113 -161 -357l-78 -188q-23 -55 -59 -169.5t-36 -145.5q0 -36 22 -36q45 0 104 118l16 32h13l-36 -152l-166 -124q-66 -49 -110 -49q-69 0 -69 71q0 70 115 361l92 233l50 140q25 71 47 130zM111 1385l223 -21l224 -263l-137 19z" />
    <glyph glyph-name="icircumflex" unicode="&#xee;" horiz-adv-x="453" 
d="M224 858q130 68 256 136q-60 -113 -161 -357l-78 -188q-23 -55 -59 -169.5t-36 -145.5q0 -36 22 -36q45 0 104 118l16 32h13l-36 -152l-166 -124q-66 -49 -110 -49q-69 0 -69 71q0 70 115 361l92 233l50 140q25 71 47 130zM191 1155l281 244h132l114 -251l-106 -44
l-109 191v0l-207 -194z" />
    <glyph glyph-name="idieresis" unicode="&#xef;" horiz-adv-x="453" 
d="M224 858q130 68 256 136q-60 -113 -161 -357l-78 -188q-23 -55 -59 -169.5t-36 -145.5q0 -36 22 -36q45 0 104 118l16 32h13l-36 -152l-166 -124q-66 -49 -110 -49q-69 0 -69 71q0 70 115 361l92 233l50 140q25 71 47 130zM117 1124l151 159q89 -35 187 -43
q-89 -139 -233 -139q-59 0 -105 23zM466 1124l151 159q90 -36 187 -43q-92 -139 -234 -139q-53 0 -104 23z" />
    <glyph glyph-name="ntilde" unicode="&#xf1;" horiz-adv-x="906" 
d="M-122 -77l127 326l44 110q145 364 154 503v52l198 75q13 5 24 5q19 0 19 -29q0 -43 -96 -269q-28 -66 -101 -255q-19 -49 -53 -135q30 41 78 106q167 229 325 395q28 29 94 97l201 85q12 5 23 5q24 0 24 -24q0 -37 -71 -188l-131 -279q-108 -230 -108 -343q0 -53 41 -53
q18 0 57 22l-6 -50l-253 -139q-31 -17 -48 -17q-49 0 -49 73q0 68 62 203l150 327l34 71q25 58 25 85q0 25 -23 25q-51 0 -227.5 -229t-293.5 -475q-112 -36 -220 -80zM455 1150q99 191 212 191q37 0 66 -10l107 -37q35 -12 60 -12q48 0 92 62l42 -12q-99 -190 -199 -190
q-24 0 -51 8l-37 11q-71 21 -102 30q-34 10 -56 10q-42 0 -93 -61z" />
    <glyph glyph-name="oacute" unicode="&#xf3;" horiz-adv-x="755" 
d="M358 150q68 105 127.5 260t59.5 309q0 41 -17.5 70.5t-43.5 29.5q-13 0 -34 -10l-26 22q36 28 76 58l90 68l8 6q61 49 71 57q85 -34 85 -169q0 -193 -95.5 -389t-281.5 -367.5t-279 -171.5q-67 0 -107.5 55t-40.5 149q0 218 154.5 464t370.5 403l51 -4q-16 -17 -43 -45
q-324 -333 -324 -671q0 -150 117 -150q37 0 82 26zM508 1101l223 263l224 21l-311 -265z" />
    <glyph glyph-name="ograve" unicode="&#xf2;" horiz-adv-x="755" 
d="M358 150q68 105 127.5 260t59.5 309q0 41 -17.5 70.5t-43.5 29.5q-13 0 -34 -10l-26 22q36 28 76 58l90 68l8 6q61 49 71 57q85 -34 85 -169q0 -193 -95.5 -389t-281.5 -367.5t-279 -171.5q-67 0 -107.5 55t-40.5 149q0 218 154.5 464t370.5 403l51 -4q-16 -17 -43 -45
q-324 -333 -324 -671q0 -150 117 -150q37 0 82 26zM262 1385l223 -21l224 -263l-137 19z" />
    <glyph glyph-name="ocircumflex" unicode="&#xf4;" horiz-adv-x="755" 
d="M358 150q68 105 127.5 260t59.5 309q0 41 -17.5 70.5t-43.5 29.5q-13 0 -34 -10l-26 22q36 28 76 58l90 68l8 6q61 49 71 57q85 -34 85 -169q0 -193 -95.5 -389t-281.5 -367.5t-279 -171.5q-67 0 -107.5 55t-40.5 149q0 218 154.5 464t370.5 403l51 -4q-16 -17 -43 -45
q-324 -333 -324 -671q0 -150 117 -150q37 0 82 26zM342 1155l281 244h132l114 -251l-106 -44l-109 191v0l-207 -194z" />
    <glyph glyph-name="odieresis" unicode="&#xf6;" horiz-adv-x="755" 
d="M358 150q68 105 127.5 260t59.5 309q0 41 -17.5 70.5t-43.5 29.5q-13 0 -34 -10l-26 22q36 28 76 58l90 68l8 6q61 49 71 57q85 -34 85 -169q0 -193 -95.5 -389t-281.5 -367.5t-279 -171.5q-67 0 -107.5 55t-40.5 149q0 218 154.5 464t370.5 403l51 -4q-16 -17 -43 -45
q-324 -333 -324 -671q0 -150 117 -150q37 0 82 26zM268 1124l151 159q89 -35 187 -43q-89 -139 -233 -139q-59 0 -105 23zM617 1124l151 159q90 -36 187 -43q-92 -139 -234 -139q-53 0 -104 23z" />
    <glyph glyph-name="otilde" unicode="&#xf5;" horiz-adv-x="755" 
d="M358 150q68 105 127.5 260t59.5 309q0 41 -17.5 70.5t-43.5 29.5q-13 0 -34 -10l-26 22q36 28 76 58l90 68l8 6q61 49 71 57q85 -34 85 -169q0 -193 -95.5 -389t-281.5 -367.5t-279 -171.5q-67 0 -107.5 55t-40.5 149q0 218 154.5 464t370.5 403l51 -4q-16 -17 -43 -45
q-324 -333 -324 -671q0 -150 117 -150q37 0 82 26zM380 1150q99 191 212 191q37 0 66 -10l107 -37q35 -12 60 -12q48 0 92 62l42 -12q-99 -190 -199 -190q-24 0 -51 8l-37 11q-71 21 -102 30q-34 10 -56 10q-42 0 -93 -61z" />
    <glyph glyph-name="uacute" unicode="&#xfa;" horiz-adv-x="906" 
d="M-18 143l99 254l38 97l5 14q67 181 67 236q0 11 -1 15l-10 19l-24 8q-7 2 -20 13l-15 24l211 146q36 25 64 25q48 0 48 -53q0 -43 -24 -105l-101 -263l-38 -91q-97 -232 -97 -282q0 -29 21 -29q39 0 144 122q275 320 385 652q95 20 198 49l-116 -262l-40 -95
q-164 -389 -164 -473q0 -52 47 -52q33 0 85 17l-7 -50l-221 -128q-48 -28 -84 -28q-27 0 -45 24.5t-18 59.5q0 50 38 159l75 215l-150 -186q-219 -272 -336 -272q-54 0 -54 61q0 56 40 159zM583 1101l223 263l224 21l-311 -265z" />
    <glyph glyph-name="ugrave" unicode="&#xf9;" horiz-adv-x="906" 
d="M-18 143l99 254l38 97l5 14q67 181 67 236q0 11 -1 15l-10 19l-24 8q-7 2 -20 13l-15 24l211 146q36 25 64 25q48 0 48 -53q0 -43 -24 -105l-101 -263l-38 -91q-97 -232 -97 -282q0 -29 21 -29q39 0 144 122q275 320 385 652q95 20 198 49l-116 -262l-40 -95
q-164 -389 -164 -473q0 -52 47 -52q33 0 85 17l-7 -50l-221 -128q-48 -28 -84 -28q-27 0 -45 24.5t-18 59.5q0 50 38 159l75 215l-150 -186q-219 -272 -336 -272q-54 0 -54 61q0 56 40 159zM337 1385l223 -21l224 -263l-137 19z" />
    <glyph glyph-name="ucircumflex" unicode="&#xfb;" horiz-adv-x="906" 
d="M-18 143l99 254l38 97l5 14q67 181 67 236q0 11 -1 15l-10 19l-24 8q-7 2 -20 13l-15 24l211 146q36 25 64 25q48 0 48 -53q0 -43 -24 -105l-101 -263l-38 -91q-97 -232 -97 -282q0 -29 21 -29q39 0 144 122q275 320 385 652q95 20 198 49l-116 -262l-40 -95
q-164 -389 -164 -473q0 -52 47 -52q33 0 85 17l-7 -50l-221 -128q-48 -28 -84 -28q-27 0 -45 24.5t-18 59.5q0 50 38 159l75 215l-150 -186q-219 -272 -336 -272q-54 0 -54 61q0 56 40 159zM417 1155l281 244h132l114 -251l-106 -44l-109 191v0l-207 -194z" />
    <glyph glyph-name="udieresis" unicode="&#xfc;" horiz-adv-x="906" 
d="M-18 143l99 254l38 97l5 14q67 181 67 236q0 11 -1 15l-10 19l-24 8q-7 2 -20 13l-15 24l211 146q36 25 64 25q48 0 48 -53q0 -43 -24 -105l-101 -263l-38 -91q-97 -232 -97 -282q0 -29 21 -29q39 0 144 122q275 320 385 652q95 20 198 49l-116 -262l-40 -95
q-164 -389 -164 -473q0 -52 47 -52q33 0 85 17l-7 -50l-221 -128q-48 -28 -84 -28q-27 0 -45 24.5t-18 59.5q0 50 38 159l75 215l-150 -186q-219 -272 -336 -272q-54 0 -54 61q0 56 40 159zM343 1124l151 159q89 -35 187 -43q-89 -139 -233 -139q-59 0 -105 23zM692 1124
l151 159q90 -36 187 -43q-92 -139 -234 -139q-53 0 -104 23z" />
    <glyph glyph-name="dagger" unicode="&#x2020;" 
d="M419 1034v188l203 -58l-58 276h166l-58 -276l203 58v-188l-203 58q15 -95 58 -171l-69 -1080h-28l-69 1080q39 66 58 171z" />
    <glyph glyph-name="degree" unicode="&#xb0;" 
d="M381 925q0 129 89.5 216t214.5 87q127 0 215 -89t88 -214q0 -126 -89.5 -215t-213.5 -89q-123 0 -213.5 87t-90.5 217zM499 924q0 -78 55 -131.5t130 -53.5q76 0 131 53.5t55 132.5q0 78 -55 131.5t-131 53.5q-75 0 -130 -53.5t-55 -132.5z" />
    <glyph glyph-name="cent" unicode="&#xa2;" 
d="M402 68l74 188v0q-171 97 -171 284q0 169 149.5 308t312.5 146v0l56 141l94 17l-64 -167v0q92 -20 178 -72l-39 -108q-14 -38 -47 -127l-30 3v14q0 43 -32 81t-94 50v0l-164 -418v0q74 -25 138 -25q48 0 97 18q-48 -101 -86 -176q-65 -10 -117 -10q-46 0 -104 10v0
l-55 -140zM706 844v0q-43 10 -75 10q-46 0 -110 -25q-62 -70 -62 -168q0 -141 92 -211v0z" />
    <glyph glyph-name="sterling" unicode="&#xa3;" 
d="M1038 830l-37 12q16 48 16 73q0 65 -66.5 111.5t-155.5 46.5q-18 0 -43 -5q-35 -45 -61 -129q-42 -135 -52 -162l-26 -73q-2 -5 -8 -23h61q48 0 227 5q-41 -44 -91 -103l-98 2l-133 3q-56 -121 -92 -170t-108 -114q107 -26 265 -136q63 -44 98 -62q14 -7 51 -22
q79 36 153 206q44 -5 72 -5h33q-134 -176 -273 -296q-76 -66 -120 -66q-51 0 -171 96q-68 54 -136 102.5t-113 53.5l-26 -26l-75 -77q-70 -72 -109 -72q-30 0 -30 37q0 57 71.5 136.5t202.5 134.5q30 68 83 231q8 24 16 49q-24 -1 -49 -2q-65 -3 -95 -3h-45q13 18 35 49
l38 54q83 -4 145 -5q22 77 35 115q53 155 110 224t194 128t228 59q117 0 197 -125q-72 -137 -118 -252z" />
    <glyph glyph-name="section" unicode="&#xa7;" 
d="M301 34q68 93 126 183l29 -19q-19 -36 -19 -59q0 -42 56 -84.5t119 -42.5q51 0 106 28q28 41 28 82q0 74 -43 130q-28 37 -131 103q-193 124 -238 203q-28 49 -28 101q0 57 36.5 113t159.5 135q-98 78 -126 139q-20 43 -20 91q0 105 116 218t207 113q123 0 215 -135
q-64 -78 -127 -172l-31 20l16 24q13 20 13 34q0 34 -51.5 70t-114.5 36q-53 0 -101 -30q-24 -44 -24 -82q0 -88 74 -159q39 -38 162 -117q65 -42 112 -84q86 -77 86 -169q0 -116 -161 -237l-24 -18q47 -39 78 -73q63 -69 63 -155q0 -100 -111 -216t-202 -116
q-112 0 -250 145zM450 815q-26 -45 -26 -78q0 -36 21 -68q28 -42 78 -84t87 -53v0q19 -6 53 -6q56 0 99 23q28 46 28 80q0 40 -46 92q-72 82 -139 105v0q-32 11 -73 11t-82 -22z" />
    <glyph glyph-name="bullet" unicode="&#x2022;" horiz-adv-x="1473" 
d="M229 732q0 213 149.5 360t358.5 147q212 0 359.5 -150.5t147.5 -356.5q0 -207 -147.5 -357.5t-359.5 -150.5q-209 0 -358.5 147t-149.5 361z" />
    <glyph glyph-name="paragraph" unicode="&#xb6;" 
d="M1118 1520v-84h-138v-1761h-79v1761h-98v-1761h-79v893q-184 39 -268 100t-132 158.5t-48 208.5q0 220 164.5 352.5t490.5 132.5h187z" />
    <glyph glyph-name="germandbls" unicode="&#xdf;" horiz-adv-x="1058" 
d="M-230 -230l39 20q-10 -36 -10 -58q0 -43 35 -92l11 16q27 39 53 106l39 100q27 69 97 325l66 241q91 333 150 499q72 203 171 330.5t268 210.5q87 -53 142.5 -140.5t55.5 -157.5q0 -126 -173 -296q-37 -36 -37 -68q0 -17 6 -31q8 -18 19 -31q38 -44 109 -103
q106 -87 120 -136q5 -17 5 -32q0 -77 -161 -313.5t-305 -236.5q-64 0 -115.5 27.5t-103.5 119.5l107 141l99 131l48 -13l-15 -21q-32 -44 -32 -93q0 -57 40.5 -85t83.5 -28q66 0 126.5 55t60.5 141q0 50 -34 94q-23 30 -49 51l-59 48q-61 49 -92 99q-25 40 -25 71
q0 48 55 136q113 180 113 317q0 58 -30 116.5t-69 58.5q-11 0 -27 -4q-49 -138 -80 -228q-91 -268 -294 -963q-43 -148 -80 -236q-64 -152 -159 -260.5t-153 -108.5q-56 0 -56 119q0 81 40 162z" />
    <glyph glyph-name="registered" unicode="&#xae;" horiz-adv-x="1020" 
d="M323 1041q0 202 140.5 340.5t336.5 138.5q198 0 338 -140t140 -338q0 -199 -140 -339t-337 -140q-196 0 -337 138.5t-141 339.5zM394 1041q0 -171 119 -289t288 -118t287.5 118.5t118.5 288.5q0 171 -120 289.5t-286 118.5t-286.5 -118.5t-120.5 -289.5zM641 805v500h169
q160 0 160 -146q0 -89 -84 -132l90 -222h-96l-80 206h-85v-206h-74zM715 1231v-146h99q82 0 82 71q0 75 -82 75h-99z" />
    <glyph glyph-name="copyright" unicode="&#xa9;" horiz-adv-x="1020" 
d="M323 1041q0 202 140.5 340.5t336.5 138.5q198 0 338 -140t140 -338q0 -199 -140 -339t-337 -140q-196 0 -337 138.5t-141 339.5zM394 1041q0 -171 119 -289t288 -118t287.5 118.5t118.5 288.5q0 171 -120 289.5t-286 118.5t-286.5 -118.5t-120.5 -289.5zM960 925l60 -63
q-90 -81 -198 -81q-111 0 -187 81t-76 194q0 111 76 191.5t185 80.5q102 0 193 -75l-60 -63q-60 64 -131 64q-78 0 -133.5 -59t-55.5 -141q0 -81 55 -140t130 -59t142 70z" />
    <glyph glyph-name="trademark" unicode="&#x2122;" horiz-adv-x="1246" 
d="M313 1382h390v-88h-151v-516h-88v516h-151v88zM771 778v604h163l110 -475v0l106 475h163v-604h-88v545h-8l-121 -545h-108l-121 545h-8v-545h-88z" />
    <glyph glyph-name="acute" unicode="&#xb4;" 
d="M733 1101l223 263l224 21l-311 -265z" />
    <glyph glyph-name="dieresis" unicode="&#xa8;" 
d="M493 1124l151 159q89 -35 187 -43q-89 -139 -233 -139q-59 0 -105 23zM842 1124l151 159q90 -36 187 -43q-92 -139 -234 -139q-53 0 -104 23z" />
    <glyph glyph-name="notequal" unicode="&#x2260;" horiz-adv-x="2039" 
d="M407 825h788v0l317 367h164l-315 -367v0h312v-135h-427v0l-236 -276v0h663v-135h-779v0l-318 -372h-166l318 372v0h-321v135h437v0l236 276v0h-673v135z" />
    <glyph glyph-name="AE" unicode="&#xc6;" horiz-adv-x="1888" 
d="M1537 1272q-145 -113 -145 -249q0 -198 394 -227q-99 -59 -201 -136q-72 12 -113 12v0q-140 0 -290.5 -130t-150.5 -256q0 -172 239 -172q141 0 266 64q83 98 126 210l108 13q-55 -105 -113 -173q-115 -134 -248 -236.5t-267 -102.5q-136 0 -228 90t-92 239q0 76 24 196
v0q-52 -1 -73 -2q-56 -2 -67 -2q-45 0 -171 9v0q-157 -252 -305 -437q-190 -237 -311 -237q-56 0 -86 42t-30 99q0 106 78.5 246t161.5 217h41q-144 -174 -144 -296q0 -33 21 -58t50 -25q71 0 169 95q113 110 243 291l45 63v0q-66 4 -146 16q63 38 84 49l93 50q10 5 56 34v0
q353 544 391 814q80 29 105 38l81 29l53 19q-133 -414 -150 -923v0q187 115 312 158v0q-94 56 -129 100.5t-35 106.5q0 86 81.5 184t255 236t279.5 138q76 0 136.5 -44.5t60.5 -105.5q0 -114 -247 -310l-47 17q26 26 43 40q58 48 58 89q0 59 -49 97t-128 38q-40 0 -89 -17z
M631 553v0q124 -13 214 -13v0l9 72l18 177l18 171q2 15 10 104v0q-30 -53 -39 -72l-56 -113q-23 -47 -64 -122l-70 -129q-14 -26 -40 -75z" />
    <glyph glyph-name="Oslash" unicode="&#xd8;" horiz-adv-x="1435" 
d="M1443 1150q13 -60 13 -124q0 -260 -157.5 -514.5t-412.5 -438.5t-431 -184q-204 0 -337 187v0l-231 -187h-147l335 272v0q-27 73 -27 151q0 284 172.5 559t488.5 485l52 -8q-257 -216 -372.5 -456.5t-115.5 -461.5q0 -50 12 -100v0l912 740v0q-62 173 -217 173
q-86 0 -167.5 -47t-199.5 -200l-63 -13l62 82q9 12 13 17l149 185q52 64 136 173q92 28 163 28q232 0 341 -223v0l275 223h147l-393 -318v0zM1224 972v0l-907 -734v0q115 -186 325 -186q231 0 410 277t179 571q0 35 -7 72z" />
    <glyph glyph-name="infinity" unicode="&#x221e;" horiz-adv-x="2039" 
d="M1072 731q144 217 335 217q146 0 247 -104.5t101 -272.5q0 -162 -100.5 -269t-239.5 -107q-87 0 -169 44.5t-155 173.5q-104 -158 -196.5 -211t-196.5 -53q-171 0 -292.5 117.5t-121.5 302.5q0 182 116.5 303.5t285.5 121.5q107 0 200 -54.5t186 -208.5zM986 619
q-117 212 -318 212q-121 0 -197 -76t-76 -188q0 -109 65.5 -182t172.5 -73q209 0 353 307zM1159 566q42 -101 118 -154.5t153 -53.5q90 0 152 57t62 154t-64 156.5t-153 59.5q-164 0 -268 -219z" />
    <glyph glyph-name="plusminus" unicode="&#xb1;" horiz-adv-x="1737" 
d="M348 -72v125h1025v-125h-1025zM798 953h125v-340h450v-125h-450v-340h-125v340h-450v125h450v340z" />
    <glyph glyph-name="lessequal" unicode="&#x2264;" horiz-adv-x="2039" 
d="M417 135h1266v-135h-1266v135zM417 758l1266 477v-135l-1063 -410v0l1063 -309v-135l-1266 377v135z" />
    <glyph glyph-name="greaterequal" unicode="&#x2265;" horiz-adv-x="2039" 
d="M1683 135v-135h-1266v135h1266zM1683 758v-135l-1266 -377v135l1063 309v0l-1063 410v135z" />
    <glyph glyph-name="yen" unicode="&#xa5;" 
d="M52 467l14 93h190l9 33q12 44 22 99h-195l14 93h193q8 70 8 113q0 133 -85 133q-24 0 -89 -22q-14 -5 -40 -12l-9 33l174 98l149 86q33 14 58 14q58 0 58 -123q0 -114 -46 -320h433l22 44l66 126l61 121q7 13 28 54q170 48 316 98q-117 -147 -151 -201l-102 -163
q-16 -26 -51 -79h124l-20 -93h-158q-11 -21 -17 -32l-26 -47q-7 -12 -27 -53h199l-20 -93h-223q-43 -79 -47 -88l-87 -168q-46 -90 -81 -144q-96 -151 -261 -274.5t-220 -123.5q-53 0 -53 75q0 97 77 218l21 33q-113 35 -113 131q0 72 70 341h-185zM322 -218q103 42 211 238
q61 111 148 312q-203 -241 -362 -344q-27 -54 -27 -94q0 -62 30 -112zM399 467q-27 -105 -27 -170q0 -93 74 -93q95 0 276 263h-323zM421 560h357q30 43 60 96l20 36h-401q-19 -77 -36 -132z" />
    <glyph glyph-name="mu" unicode="&#xb5;" horiz-adv-x="1133" 
d="M277 69l-55 -388q-16 -114 -95 -114q-70 0 -70 74q0 27 11 79l234 1116h171l-110 -529q-16 -77 -16 -122q0 -46 28 -77t68 -31q74 0 139 81.5t99 201.5q11 38 20 83l80 393h166l-105 -499q-18 -86 -18 -132q0 -43 18.5 -76t42.5 -33q66 0 132 170l62 -26q-1 -3 -7 -20
q-55 -159 -105.5 -205t-106.5 -46t-91 54t-35 141q0 30 4 78q-92 -158 -163 -215.5t-145 -57.5q-104 0 -153 100z" />
    <glyph glyph-name="partialdiff" unicode="&#x2202;" horiz-adv-x="1020" 
d="M744 801q7 64 7 117q0 409 -148 409q-66 0 -110 -98q-18 -40 -32 -61q-28 -42 -78 -42q-36 0 -68.5 26t-32.5 62q0 79 79.5 146.5t182.5 67.5q168 0 274.5 -165.5t106.5 -452.5q0 -357 -141 -599t-371 -242q-140 0 -232.5 102t-92.5 263q0 208 137.5 370.5t314.5 162.5
q94 0 204 -66zM262 287q0 -103 44.5 -168.5t114.5 -65.5q124 0 196 167.5t72 327.5q0 97 -43 166t-120 69q-117 0 -190.5 -157.5t-73.5 -338.5z" />
    <glyph glyph-name="summation" unicode="&#x2211;" horiz-adv-x="2039" 
d="M416 -399l491 838l-482 948h1119l46 -366l-70 -14q-70 164 -144 231t-266 67h-403v0l370 -740l-451 -756v0h524q118 0 173.5 25.5t105 77t111.5 169.5l70 -21l-117 -459h-1077z" />
    <glyph glyph-name="product" unicode="&#x220f;" horiz-adv-x="1473" 
d="M35 79q123 0 162 36t39 156v847q0 104 -14.5 135t-50.5 45.5t-102 17.5q-20 1 -34 2v79h1401v-79q-74 -3 -117 -16t-63.5 -45t-20.5 -139v-847q0 -121 40.5 -155t160.5 -37v-79h-617v79q133 4 167 43.5t34 148.5v847q0 125 -29.5 162.5t-116.5 37.5h-281
q-73 0 -107.5 -35t-34.5 -165v-847q0 -119 42.5 -155t158.5 -37v-79h-617v79z" />
    <glyph glyph-name="pi" unicode="&#x3c0;" horiz-adv-x="1246" 
d="M112 598q95 166 170.5 217.5t238.5 51.5h3l210 -2q105 -1 179 -1q149 0 305 10l-31 -160h-310q-31 -136 -31 -242q0 -179 46 -351q14 -52 14 -86q0 -66 -89 -66q-132 0 -132 208q0 169 102 537h-151l-120 -586q-12 -59 -30 -99q-27 -60 -104 -60q-84 0 -84 63
q0 34 35 125l215 557h-96q-75 0 -121.5 -20.5t-114.5 -92.5q-15 -16 -42 -44z" />
    <glyph glyph-name="integral" unicode="&#x222b;" horiz-adv-x="2039" 
d="M752 -318q0 40 26.5 71t65.5 31q86 0 86 -88q0 -16 -4 -30q-5 -18 -5 -26q0 -25 27 -25q72 0 72 148q0 87 -12 162l-87 546q-39 245 -39 576q0 522 241 522q62 0 110 -40.5t48 -103.5q0 -48 -28 -76t-66 -28q-84 0 -84 78q0 12 3 22q14 46 14 50q0 19 -25 19
q-82 0 -82 -145q0 -74 6 -136.5t60 -340.5q72 -373 72 -760q0 -310 -57 -441t-173 -131q-68 0 -118.5 41t-50.5 105z" />
    <glyph glyph-name="ordfeminine" unicode="&#xaa;" horiz-adv-x="718" 
d="M481 802q-189 -212 -258 -212q-42 0 -42 63q0 101 78 254.5t186.5 237t179.5 83.5q26 0 53 -27l20 -20l58 29l9 -9q-29 -61 -41 -88l-39 -86q-101 -223 -101 -284q0 -26 16 -26q17 0 56 29l5 -29q-121 -127 -189 -127q-36 0 -36 43q0 56 45 169zM515 1151
q-65 -38 -130 -175t-65 -226q0 -33 22 -33q35 0 113 106q71 96 150 273l-11 -4q-33 56 -79 59z" />
    <glyph glyph-name="ordmasculine" unicode="&#xba;" horiz-adv-x="718" 
d="M474 729q55 70 83 167.5t28 161.5t-36 64q-9 0 -23 -5l-15 15q76 59 146 117q67 0 67 -111q0 -188 -154.5 -368t-253.5 -180q-97 0 -97 120q0 256 310 518l44 -1q-215 -218 -215 -419q0 -91 72 -91q17 0 44 12z" />
    <glyph glyph-name="Omega" unicode="&#x2126;" horiz-adv-x="1246" 
d="M113 409l73 12q10 -41 16 -65q19 -83 49.5 -112t107.5 -29h77q-63 120 -82 153l-19 33q-35 62 -94 162q-139 237 -139 395q0 205 154 337.5t393 132.5q238 0 392.5 -131.5t154.5 -329.5q0 -95 -28 -180t-110 -224q-27 -46 -100 -171l-14 -24q-25 -44 -83 -153h77
q76 0 107 28t51 113q5 21 16 65l73 -12l-73 -409h-408q50 134 82 224q172 489 172 739q0 173 -90.5 277t-219.5 104q-128 0 -218 -104.5t-90 -273.5q0 -253 171 -742q29 -82 83 -224h-408z" />
    <glyph glyph-name="ae" unicode="&#xe6;" horiz-adv-x="1058" 
d="M393 247l-114 -125q-181 -199 -276 -199q-76 0 -76 94q0 109 64 300t171 343q113 161 250 247.5t207 86.5q80 0 137 -136q55 52 149 94t146 42q80 0 80 -75q0 -101 -159.5 -234t-334.5 -167q-45 -134 -45 -253q0 -105 68 -147q26 -16 59 -16h19q56 71 92 183l9 28l92 4
q-73 -168 -179 -267q-136 -127 -226 -127q-63 0 -103 59t-40 145q0 44 10 120zM573 759q-42 100 -114 100q-106 -57 -206.5 -283.5t-100.5 -377.5q0 -59 35 -59q40 0 138 117t201 350l71 161zM667 636q55 -20 92 -20q61 0 104 62t43 113q0 58 -52 58q-10 0 -25 -2
q-68 -64 -139 -175z" />
    <glyph glyph-name="oslash" unicode="&#xf8;" horiz-adv-x="755" 
d="M-50 106q-1 24 -1 34q0 207 155.5 453.5t367.5 400.5l51 -4q-16 -17 -43 -45q-287 -296 -323 -633v0l383 379v0v14q0 114 -60 114q-13 0 -33 -10l-26 22q36 28 76 58l90 68l8 6q61 49 71 57q70 -27 82 -121v0l127 127h105l-231 -224v0q0 -150 -98 -347.5t-281 -364.5
t-273 -167q-82 0 -123 82l-7 14v0l-99 -97h-104l186 184v0zM523 571v0l-360 -357v0q27 -90 110 -90q35 0 81 26q121 183 166 406z" />
    <glyph glyph-name="questiondown" unicode="&#xbf;" horiz-adv-x="982" 
d="M648 446q-222 -115 -391.5 -247t-169.5 -246q0 -62 48.5 -104.5t129.5 -42.5q84 0 185 64l4 1q0 142 50 244q50 101 74 101h5q37 -8 37 -119q0 -125 -88.5 -224.5t-223 -160t-234.5 -60.5q-90 0 -148 55.5t-58 139.5q0 274 545 518q-48 81 -82 133l198 115
q64 -78 119 -167zM804 856q-96 -69 -201 -133q-72 84 -142 152q115 71 194 119q80 -67 149 -138z" />
    <glyph glyph-name="exclamdown" unicode="&#xa1;" horiz-adv-x="604" 
d="M386 613l-304 -923l-227 -55l415 937zM576 855q-89 -63 -201 -132q-75 88 -142 151q74 46 108 67l86 53q76 -64 149 -139z" />
    <glyph glyph-name="logicalnot" unicode="&#xac;" horiz-adv-x="1737" 
d="M344 604v125h1032v-575h-125v450h-907z" />
    <glyph glyph-name="radical" unicode="&#x221a;" horiz-adv-x="1473" 
d="M860 -104l480 1647h382v-86h-281v0l-553 -1817h-74l-570 821l-145 -105l-43 96l298 194l506 -750v0z" />
    <glyph glyph-name="florin" unicode="&#x192;" 
d="M144 -207l15 -8q-10 -26 -10 -45q0 -41 35 -100q54 80 87 175q54 155 117 386l61 224q0 1 6 20l29 96h-91l131 134q48 176 86 282q83 235 220 373t216 138q62 0 62 -77t-99 -222l-18 6q-12 83 -93 113l5 -26q-82 -187 -166 -458l-45 -145h198l-101 -118h-132
q-32 -121 -42 -156l-22 -77q-5 -19 -9 -31l-56 -183q-40 -131 -74 -223q-56 -153 -158.5 -267.5t-157.5 -114.5q-27 0 -44 39t-17 81q0 107 67 184z" />
    <glyph glyph-name="approxequal" unicode="&#x2248;" horiz-adv-x="2039" 
d="M414 276q61 103 158.5 170.5t183.5 67.5q84 0 192 -31l177 -51q180 -52 274 -52q117 0 244 122l37 -22q-63 -127 -150 -188.5t-173 -61.5q-65 0 -258 50l-54 14l-133 36q-126 34 -204 34q-135 0 -263 -120zM1646 861l34 -35q-115 -245 -325 -245q-120 0 -469 101
q-114 33 -182 33q-114 0 -259 -124l-31 33q99 148 180 194.5t166 46.5q92 0 222 -37l134 -38q208 -59 290 -59q125 0 240 130z" />
    <glyph glyph-name="Delta" unicode="&#x2206;" horiz-adv-x="1360" 
d="M37 0l699 1397l581 -1397h-1280zM218 194v0h798v0l-353 888z" />
    <glyph glyph-name="guillemotleft" unicode="&#xab;" horiz-adv-x="831" 
d="M83 528l264 250h170l-280 -266l183 -297h-145zM356 528l264 250h170l-279 -266l182 -297h-145z" />
    <glyph glyph-name="guillemotright" unicode="&#xbb;" horiz-adv-x="831" 
d="M482 464l-264 -249h-170l279 266l-182 297h145zM755 464l-264 -249h-170l280 266l-183 297h145z" />
    <glyph glyph-name="ellipsis" unicode="&#x2026;" horiz-adv-x="1737" 
d="M-27 132q41 25 92 57l97 61q62 -77 126 -142q-99 -61 -178 -108q-26 24 -76 73zM552 132q41 25 92 57l97 61q62 -77 126 -142q-102 -63 -179 -108q-70 67 -136 132zM1131 132l92 57l98 61q59 -75 125 -142q-102 -63 -179 -108q-70 67 -136 132z" />
    <glyph glyph-name="nonbreakingspace" unicode="&#xa0;" horiz-adv-x="604" 
 />
    <glyph glyph-name="Agrave" unicode="&#xc0;" horiz-adv-x="1360" 
d="M42 349h41q-144 -174 -144 -296q0 -33 21 -58t52 -25q69 0 167 95q121 117 289 354v0q-68 4 -147 17q61 41 84 54l93 54q14 8 72 48q337 518 375 790q80 29 105 38l81 29l53 19q-70 -218 -98 -394.5t-61 -533.5v0q82 5 172 12q-66 -51 -172 -95v0q-13 -152 -13 -225
q0 -101 41 -101q39 0 139 116v-50q-105 -126 -143 -166l-71 -75q-63 -67 -103 -67q-79 0 -79 116q0 57 7 120l20 181l2 23l8 89v0q-73 -8 -119 -8q-55 0 -179 9v0q-79 -126 -144 -220q-313 -454 -474 -454q-55 0 -85 42t-30 99q0 106 78.5 246t161.5 217zM630 553v0
q124 -13 214 -13v0q9 70 9 71l18 174l18 169q4 39 11 111v0q-35 -63 -40 -74l-56 -113q-23 -47 -64 -122l-70 -129zM768 1863l223 -21l224 -263l-137 19z" />
    <glyph glyph-name="Atilde" unicode="&#xc3;" horiz-adv-x="1360" 
d="M42 349h41q-144 -174 -144 -296q0 -33 21 -58t52 -25q69 0 167 95q121 117 289 354v0q-68 4 -147 17q61 41 84 54l93 54q14 8 72 48q337 518 375 790q80 29 105 38l81 29l53 19q-70 -218 -98 -394.5t-61 -533.5v0q82 5 172 12q-66 -51 -172 -95v0q-13 -152 -13 -225
q0 -101 41 -101q39 0 139 116v-50q-105 -126 -143 -166l-71 -75q-63 -67 -103 -67q-79 0 -79 116q0 57 7 120l20 181l2 23l8 89v0q-73 -8 -119 -8q-55 0 -179 9v0q-79 -126 -144 -220q-313 -454 -474 -454q-55 0 -85 42t-30 99q0 106 78.5 246t161.5 217zM630 553v0
q124 -13 214 -13v0q9 70 9 71l18 174l18 169q4 39 11 111v0q-35 -63 -40 -74l-56 -113q-23 -47 -64 -122l-70 -129zM831 1613q99 191 212 191q37 0 66 -10l107 -37q35 -12 60 -12q48 0 92 62l42 -12q-99 -190 -199 -190q-24 0 -51 8l-37 11q-71 21 -102 30q-34 10 -56 10
q-42 0 -93 -61z" />
    <glyph glyph-name="Otilde" unicode="&#xd5;" horiz-adv-x="1435" 
d="M608 1065l14 17l149 185q33 41 40 50l96 124q98 27 166 27q177 0 281.5 -122t104.5 -324q0 -260 -160.5 -515t-413 -436.5t-427.5 -181.5q-161 0 -284 125t-123 311q0 265 163 534.5t492 496.5l52 -8q-254 -210 -368 -449t-114 -455q0 -170 106 -273t263 -103
q231 0 410 272.5t179 547.5q0 157 -71.5 256t-183.5 99q-93 0 -174.5 -51t-194.5 -196l-63 -12zM834 1613q99 191 212 191q37 0 66 -10l107 -37q35 -12 60 -12q48 0 92 62l42 -12q-99 -190 -199 -190q-24 0 -51 8l-37 11q-71 21 -102 30q-34 10 -56 10q-42 0 -93 -61z" />
    <glyph glyph-name="OE" unicode="&#x152;" horiz-adv-x="2153" 
d="M706 1339l52 -8q-255 -210 -368.5 -444.5t-113.5 -453.5q0 -160 106.5 -262.5t262.5 -102.5q229 0 409.5 271.5t180.5 549.5q0 156 -72.5 255t-179.5 99q-91 0 -173 -48t-200 -199l-63 -13l62 82q9 12 13 17l149 185q52 64 136 173q94 28 164 28q184 0 286.5 -126
t102.5 -310q0 -11 -1 -38q79 133 228.5 261t229 170.5t144.5 42.5q75 0 136 -43.5t61 -107.5q0 -113 -247 -309l-47 17q28 26 44 40q57 48 57 89q0 60 -49 97.5t-128 37.5q-40 0 -89 -17q-145 -113 -145 -254q0 -85 92 -146t299 -76q-100 -60 -200 -136q-69 12 -113 12v0
q-133 0 -266 -129t-133 -254q0 -82 61.5 -128.5t163.5 -46.5q111 0 236 64q85 104 125 210l108 13q-49 -99 -113 -173q-294 -339 -506 -339q-119 0 -201.5 76.5t-82.5 196.5q0 75 50 175v0q-216 -233 -402 -340.5t-315 -107.5q-161 0 -283.5 123.5t-122.5 304.5
q0 273 171.5 545t483.5 477zM1599 707v0q-78 49 -110.5 84t-43.5 87v0q-42 -204 -159 -390v0q118 119 313 219z" />
    <glyph glyph-name="oe" unicode="&#x153;" horiz-adv-x="1133" 
d="M754 795q218 199 375 199q77 0 77 -75q0 -103 -158 -234.5t-335 -166.5q-46 -129 -46 -254q0 -103 68 -146q25 -16 60 -16h18q56 69 101 211l93 4q-80 -173 -180 -267q-135 -127 -227 -127q-60 0 -101 60t-41 155v26v0q-167 -155 -235.5 -198t-126.5 -43q-67 0 -106.5 55
t-39.5 146q0 198 137 433.5t386 436.5l55 -2l-66 -69q-156 -165 -229.5 -336t-73.5 -312q0 -151 110 -151q31 0 85 20q89 132 140.5 296t51.5 283q0 98 -67 98q-15 0 -35 -7l-17 23q28 21 65 50l103 80l5 4q23 17 70 51q85 -22 85 -186q0 -13 -1 -41v0zM743 636
q54 -20 88 -20q68 0 109 65t41 109q0 59 -53 59q-11 0 -25 -2q-66 -63 -137 -175z" />
    <glyph glyph-name="endash" unicode="&#x2013;" 
d="M129 492q102 66 133 87l102 69q75 -1 105 -2l164 -6l27 -1h127q196 0 304 15l10 -22q-137 -94 -227 -158l-136 4l-130 3l-38 1l-180 1h-11q-137 0 -233 -15z" />
    <glyph glyph-name="emdash" unicode="&#x2014;" horiz-adv-x="1737" 
d="M68 468l-16 24q133 86 234 156l104 -1l534 -4q297 -4 476 -4q168 0 296 15l9 -22q-137 -94 -227 -158q-237 7 -576 8l-622 1h-6q-107 0 -206 -15z" />
    <glyph glyph-name="quotedblleft" unicode="&#x201c;" horiz-adv-x="831" 
d="M375 858q-45 86 -45 160q0 123 98 250.5t236 199.5l18 -29q-186 -151 -186 -288q0 -64 60 -153q-86 -69 -181 -140zM699 858q-45 80 -45 158q0 127 100 254.5t234 197.5l19 -29q-187 -146 -187 -289q0 -57 60 -152q-86 -69 -181 -140z" />
    <glyph glyph-name="quotedblright" unicode="&#x201d;" horiz-adv-x="831" 
d="M309 858l-19 29q187 146 187 289q0 57 -60 152q86 69 181 140q45 -80 45 -158q0 -124 -95.5 -248t-238.5 -204zM633 858l-18 29q186 151 186 288q0 64 -60 153q86 69 181 140q45 -86 45 -160q0 -119 -92.5 -243t-241.5 -207z" />
    <glyph glyph-name="quoteleft" unicode="&#x2018;" horiz-adv-x="529" 
d="M644 1468l18 -29q-186 -151 -186 -288q0 -64 60 -153q-86 -69 -181 -140q-45 86 -45 160q0 123 98 250.5t236 199.5z" />
    <glyph glyph-name="quoteright" unicode="&#x2019;" horiz-adv-x="529" 
d="M262 858l-19 29q187 146 187 287q0 63 -61 154q96 76 182 140q45 -86 45 -157q0 -123 -92.5 -245t-241.5 -208z" />
    <glyph glyph-name="divide" unicode="&#xf7;" horiz-adv-x="1737" 
d="M784 175q0 31 23 55t55 24q34 0 56.5 -24t22.5 -56q0 -31 -22 -54t-56 -23q-35 0 -57 23t-22 55zM344 374v125h1032v-125h-1032zM781 698q0 35 24 56.5t55 21.5q32 0 55 -23t23 -55q0 -31 -21.5 -55t-56.5 -24q-79 0 -79 79z" />
    <glyph glyph-name="lozenge" unicode="&#x25ca;" horiz-adv-x="2039" 
d="M390 679l630 702l630 -702l-630 -702zM478 679l542 -592l542 592l-542 593z" />
    <glyph glyph-name="ydieresis" unicode="&#xff;" horiz-adv-x="906" 
d="M51 241l85 215q87 220 87 292q0 38 -27 38q-12 0 -34 -12l-14 33l175 138q62 49 97 49q58 0 58 -70q0 -41 -36 -134l-150 -388q-75 -194 -75 -231q0 -23 22 -23q50 0 160.5 125t176.5 263l166 349q101 48 232 109q-193 -389 -258 -580l-16 -47q-21 -59 -41 -122
q-99 -304 -187 -440q-92 -143 -230.5 -229.5t-237.5 -86.5q-40 0 -68 31.5t-28 85.5q0 124 185 261l23 -6q-31 -74 -31 -117q0 -102 80 -126q46 31 73.5 73t73.5 143q54 118 82 198l83 237v0l-182 -171q-103 -97 -191 -147q-33 -19 -63 -19q-49 0 -49 76q0 84 59 233z
M343 1124l151 159q89 -35 187 -43q-89 -139 -233 -139q-59 0 -105 23zM692 1124l151 159q90 -36 187 -43q-92 -139 -234 -139q-53 0 -104 23z" />
    <glyph glyph-name="Ydieresis" unicode="&#x178;" horiz-adv-x="1284" 
d="M208 1226l327 222q29 20 47 20q68 0 68 -160q0 -167 -100 -616q-71 -319 -71 -419q0 -105 71 -105t211 208t274 542l70 175l67 162q11 30 32 90q160 53 335 123q-134 -190 -249 -418.5t-265 -580.5l-104 -244q-107 -250 -178.5 -350t-194.5 -217q-154 -146 -226 -146
q-48 0 -48 101q0 129 107 296v0q-114 46 -114 164q0 55 19 146l40 191q100 477 100 680q0 136 -84 136q-46 0 -128 -49zM417 -103v0q-29 -77 -29 -133q0 -53 28 -113q57 30 112 107q141 197 245 547v0q-189 -261 -356 -408zM717 1602l151 159q89 -35 187 -43
q-89 -139 -233 -139q-59 0 -105 23zM1066 1602l151 159q90 -36 187 -43q-92 -139 -234 -139q-53 0 -104 23z" />
    <glyph glyph-name="fraction" unicode="&#x2215;" horiz-adv-x="189" 
d="M-341 -77l799 1305h73l-800 -1305h-72z" />
    <glyph glyph-name="currency" unicode="&#xa4;" 
d="M134 1149l64 65l136 -136v0q133 96 285 96q150 0 286 -96v0l135 136l65 -65l-138 -136v0q96 -125 96 -280q0 -164 -96 -285v0l137 -137l-63 -63l-136 137v0q-142 -98 -286 -98q-146 0 -285 98v0l-137 -137l-62 63l136 137v0q-95 127 -95 285q0 147 95 280v0zM275 731
q0 -146 101 -245.5t244 -99.5q145 0 244.5 102.5t99.5 242.5q0 141 -101.5 242.5t-242.5 101.5q-140 0 -242.5 -99t-102.5 -245z" />
    <glyph glyph-name="guilsinglleft" unicode="&#x2039;" horiz-adv-x="566" 
d="M71 528l264 250h170l-279 -266l182 -297h-145z" />
    <glyph glyph-name="guilsinglright" unicode="&#x203a;" horiz-adv-x="566" 
d="M494 464l-264 -249h-170l280 266l-183 297h144z" />
    <glyph glyph-name="fi" unicode="&#xf001;" horiz-adv-x="944" 
d="M-205 -207l15 -8q-8 -28 -8 -46q0 -42 34 -99q50 74 86 175q56 158 118 386l61 224q0 1 6 20l29 96h-90l130 134q46 164 87 282q80 233 217.5 372t218.5 139q61 0 61 -78t-98 -221l-19 6q-13 87 -93 113l6 -26q-77 -176 -143 -385l-23 -73l-46 -145h199l-101 -118h-132
l-43 -155q-17 -61 -22 -78l-18 -59l-47 -155q-38 -124 -75 -223q-58 -156 -160 -269t-156 -113q-27 0 -44 41.5t-17 80.5q0 106 67 182zM720 858q104 54 255 136q-60 -113 -161 -357l-78 -188q-23 -55 -59 -169.5t-36 -145.5q0 -36 22 -36q45 0 104 118l16 32h13l-36 -152
l-166 -124q-66 -49 -110 -49q-69 0 -69 71q0 59 59 214l56 147l92 233l4 12l47 128zM765 1170q88 78 153 162q109 -34 216 -39q-119 -154 -246 -154q-60 0 -123 31z" />
    <glyph glyph-name="fl" unicode="&#xf002;" horiz-adv-x="944" 
d="M-203 -207l15 -8q-8 -28 -8 -46q0 -42 34 -99q50 74 86 175q56 158 118 386l61 224q0 1 6 20l29 96h-90l130 134q46 164 87 282q80 233 217.5 372t218.5 139q61 0 61 -78t-98 -221l-19 6q-13 87 -93 113l6 -26q-77 -176 -143 -385l-23 -73l-46 -145h199l-101 -118h-132
l-43 -155q-17 -61 -22 -78l-18 -59l-47 -155q-38 -124 -75 -223q-58 -156 -160 -269t-156 -113q-27 0 -44 41.5t-17 80.5q0 106 67 182zM451 175l173 488l84 222q114 301 172 503q113 34 234 80q-170 -447 -237 -618l-85 -218q-145 -372 -145 -447q0 -54 43 -54q30 0 86 42
l19 -29l-205 -186q-39 -35 -71 -35q-42 0 -72 33t-30 79q0 44 34 140z" />
    <glyph glyph-name="daggerdbl" unicode="&#x2021;" 
d="M538 648l57 444l-202 -58v188l203 -58l-58 276h166l-58 -276l203 58v-188l-203 58l58 -444l-58 -459l203 58v-188l-203 58l58 -276h-166l58 276l-203 -58v188l202 -58z" />
    <glyph glyph-name="periodcentered" unicode="&#xb7;" horiz-adv-x="604" 
d="M118 517q100 63 207 129q60 -77 136 -154q-121 -74 -194 -118q-61 58 -149 143z" />
    <glyph glyph-name="periodcentered" unicode="&#x2219;" horiz-adv-x="604" 
d="M118 517q100 63 207 129q60 -77 136 -154q-121 -74 -194 -118q-61 58 -149 143z" />
    <glyph glyph-name="quotesinglbase" unicode="&#x201a;" horiz-adv-x="529" 
d="M-124 -361q190 127 190 232q0 60 -90 168q103 69 192 136q64 -90 64 -178q0 -115 -94 -219.5t-247 -167.5z" />
    <glyph glyph-name="quotedblbase" unicode="&#x201e;" horiz-adv-x="831" 
d="M-169 -361q189 131 189 235q0 53 -66 136l-23 29q103 70 191 136q64 -86 64 -176q0 -117 -93 -221.5t-248 -167.5zM171 -361q189 126 189 232q0 56 -66 139l-23 29q107 72 190 136q65 -87 65 -178q0 -115 -94 -219.5t-247 -167.5z" />
    <glyph glyph-name="perthousand" unicode="&#x2030;" horiz-adv-x="2341" 
d="M268 -77l974 1305h78l-974 -1305h-78zM804 176q0 179 146.5 344.5t301.5 165.5q96 0 158.5 -66.5t62.5 -172.5q0 -188 -138.5 -356t-292.5 -168q-105 0 -171.5 71.5t-66.5 181.5zM1102 594q-174 -154 -174 -341q0 -100 62.5 -167.5t193.5 -70.5q165 135 165 331
q0 101 -62 172.5t-185 75.5zM1557 176q0 179 146.5 344.5t301.5 165.5q97 0 159 -66t62 -173q0 -188 -138.5 -356t-292.5 -168q-105 0 -171.5 71.5t-66.5 181.5zM1855 594q-174 -154 -174 -341q0 -100 62.5 -167.5t193.5 -70.5q165 135 165 334q0 100 -63 170.5t-184 74.5z
M139 718q0 179 146.5 344.5t301.5 165.5q96 0 158.5 -66.5t62.5 -171.5q0 -186 -138.5 -355.5t-292.5 -169.5q-102 0 -170 71t-68 182zM437 1136q-174 -149 -174 -340q0 -105 65 -172t191 -67q165 135 165 331q0 101 -62.5 173t-184.5 75z" />
    <glyph glyph-name="Acircumflex" unicode="&#xc2;" horiz-adv-x="1360" 
d="M42 349h41q-144 -174 -144 -296q0 -33 21 -58t52 -25q69 0 167 95q121 117 289 354v0q-68 4 -147 17q61 41 84 54l93 54q14 8 72 48q337 518 375 790q80 29 105 38l81 29l53 19q-70 -218 -98 -394.5t-61 -533.5v0q82 5 172 12q-66 -51 -172 -95v0q-13 -152 -13 -225
q0 -101 41 -101q39 0 139 116v-50q-105 -126 -143 -166l-71 -75q-63 -67 -103 -67q-79 0 -79 116q0 57 7 120l20 181l2 23l8 89v0q-73 -8 -119 -8q-55 0 -179 9v0q-79 -126 -144 -220q-313 -454 -474 -454q-55 0 -85 42t-30 99q0 106 78.5 246t161.5 217zM630 553v0
q124 -13 214 -13v0q9 70 9 71l18 174l18 169q4 39 11 111v0q-35 -63 -40 -74l-56 -113q-23 -47 -64 -122l-70 -129zM811 1633l281 244h132l114 -251l-106 -44l-109 191v0l-207 -194z" />
    <glyph glyph-name="Ecircumflex" unicode="&#xca;" horiz-adv-x="982" 
d="M631 1272q-144 -113 -144 -250q0 -197 394 -226q-100 -60 -200 -136q-69 12 -112 12v0q-135 0 -267.5 -129.5t-132.5 -252.5q0 -80 61 -128t164 -48q111 0 236 64q85 104 125 210l109 13q-53 -103 -114 -173q-292 -339 -506 -339q-117 0 -200.5 74t-83.5 191
q0 123 112 267.5t364 285.5v0q-96 57 -127 102t-31 101q0 131 243.5 344.5t368.5 213.5q77 0 136.5 -44t59.5 -107q0 -110 -247 -309l-47 17q28 26 44 40q57 48 57 89q0 60 -48.5 97.5t-126.5 37.5q-40 0 -87 -17zM587 1633l281 244h132l114 -251l-106 -44l-109 191v0
l-207 -194z" />
    <glyph glyph-name="Aacute" unicode="&#xc1;" horiz-adv-x="1360" 
d="M42 349h41q-144 -174 -144 -296q0 -33 21 -58t52 -25q69 0 167 95q121 117 289 354v0q-68 4 -147 17q61 41 84 54l93 54q14 8 72 48q337 518 375 790q80 29 105 38l81 29l53 19q-70 -218 -98 -394.5t-61 -533.5v0q82 5 172 12q-66 -51 -172 -95v0q-13 -152 -13 -225
q0 -101 41 -101q39 0 139 116v-50q-105 -126 -143 -166l-71 -75q-63 -67 -103 -67q-79 0 -79 116q0 57 7 120l20 181l2 23l8 89v0q-73 -8 -119 -8q-55 0 -179 9v0q-79 -126 -144 -220q-313 -454 -474 -454q-55 0 -85 42t-30 99q0 106 78.5 246t161.5 217zM630 553v0
q124 -13 214 -13v0q9 70 9 71l18 174l18 169q4 39 11 111v0q-35 -63 -40 -74l-56 -113q-23 -47 -64 -122l-70 -129zM1032 1579l223 263l224 21l-311 -265z" />
    <glyph glyph-name="Edieresis" unicode="&#xcb;" horiz-adv-x="982" 
d="M631 1272q-144 -113 -144 -250q0 -197 394 -226q-100 -60 -200 -136q-69 12 -112 12v0q-135 0 -267.5 -129.5t-132.5 -252.5q0 -80 61 -128t164 -48q111 0 236 64q85 104 125 210l109 13q-53 -103 -114 -173q-292 -339 -506 -339q-117 0 -200.5 74t-83.5 191
q0 123 112 267.5t364 285.5v0q-96 57 -127 102t-31 101q0 131 243.5 344.5t368.5 213.5q77 0 136.5 -44t59.5 -107q0 -110 -247 -309l-47 17q28 26 44 40q57 48 57 89q0 60 -48.5 97.5t-126.5 37.5q-40 0 -87 -17zM566 1602l151 159q89 -35 187 -43q-89 -139 -233 -139
q-59 0 -105 23zM915 1602l151 159q90 -36 187 -43q-92 -139 -234 -139q-53 0 -104 23z" />
    <glyph glyph-name="Egrave" unicode="&#xc8;" horiz-adv-x="982" 
d="M631 1272q-144 -113 -144 -250q0 -197 394 -226q-100 -60 -200 -136q-69 12 -112 12v0q-135 0 -267.5 -129.5t-132.5 -252.5q0 -80 61 -128t164 -48q111 0 236 64q85 104 125 210l109 13q-53 -103 -114 -173q-292 -339 -506 -339q-117 0 -200.5 74t-83.5 191
q0 123 112 267.5t364 285.5v0q-96 57 -127 102t-31 101q0 131 243.5 344.5t368.5 213.5q77 0 136.5 -44t59.5 -107q0 -110 -247 -309l-47 17q28 26 44 40q57 48 57 89q0 60 -48.5 97.5t-126.5 37.5q-40 0 -87 -17zM544 1863l223 -21l224 -263l-137 19z" />
    <glyph glyph-name="Iacute" unicode="&#xcd;" horiz-adv-x="755" 
d="M3 304l109 77q-67 -119 -67 -254q0 -79 57 -161v0q99 124 177 342q43 119 111 359q129 453 230 635v0q-44 3 -70 3q-65 0 -150 -20q-54 -79 -88 -174l-105 -54q26 69 47 112q35 71 109 140t144 114t187 45q60 0 133 -6q49 -4 73 -4q19 0 61 2q-124 -96 -169 -192
t-129 -374q-149 -492 -239 -653q-86 -155 -221.5 -287.5t-248.5 -162.5q-54 73 -54 153q0 139 103 360zM614 1579l223 263l224 21l-311 -265z" />
    <glyph glyph-name="Icircumflex" unicode="&#xce;" horiz-adv-x="755" 
d="M3 304l109 77q-67 -119 -67 -254q0 -79 57 -161v0q99 124 177 342q43 119 111 359q129 453 230 635v0q-44 3 -70 3q-65 0 -150 -20q-54 -79 -88 -174l-105 -54q26 69 47 112q35 71 109 140t144 114t187 45q60 0 133 -6q49 -4 73 -4q19 0 61 2q-124 -96 -169 -192
t-129 -374q-149 -492 -239 -653q-86 -155 -221.5 -287.5t-248.5 -162.5q-54 73 -54 153q0 139 103 360zM474 1633l281 244h132l114 -251l-106 -44l-109 191v0l-207 -194z" />
    <glyph glyph-name="Idieresis" unicode="&#xcf;" horiz-adv-x="755" 
d="M3 304l109 77q-67 -119 -67 -254q0 -79 57 -161v0q99 124 177 342q43 119 111 359q129 453 230 635v0q-44 3 -70 3q-65 0 -150 -20q-54 -79 -88 -174l-105 -54q26 69 47 112q35 71 109 140t144 114t187 45q60 0 133 -6q49 -4 73 -4q19 0 61 2q-124 -96 -169 -192
t-129 -374q-149 -492 -239 -653q-86 -155 -221.5 -287.5t-248.5 -162.5q-54 73 -54 153q0 139 103 360zM453 1602l151 159q89 -35 187 -43q-89 -139 -233 -139q-59 0 -105 23zM802 1602l151 159q90 -36 187 -43q-92 -139 -234 -139q-53 0 -104 23z" />
    <glyph glyph-name="Igrave" unicode="&#xcc;" horiz-adv-x="755" 
d="M3 304l109 77q-67 -119 -67 -254q0 -79 57 -161v0q99 124 177 342q43 119 111 359q129 453 230 635v0q-44 3 -70 3q-65 0 -150 -20q-54 -79 -88 -174l-105 -54q26 69 47 112q35 71 109 140t144 114t187 45q60 0 133 -6q49 -4 73 -4q19 0 61 2q-124 -96 -169 -192
t-129 -374q-149 -492 -239 -653q-86 -155 -221.5 -287.5t-248.5 -162.5q-54 73 -54 153q0 139 103 360zM431 1863l223 -21l224 -263l-137 19z" />
    <glyph glyph-name="Oacute" unicode="&#xd3;" horiz-adv-x="1435" 
d="M608 1065l14 17l149 185q33 41 40 50l96 124q98 27 166 27q177 0 281.5 -122t104.5 -324q0 -260 -160.5 -515t-413 -436.5t-427.5 -181.5q-161 0 -284 125t-123 311q0 265 163 534.5t492 496.5l52 -8q-254 -210 -368 -449t-114 -455q0 -170 106 -273t263 -103
q231 0 410 272.5t179 547.5q0 157 -71.5 256t-183.5 99q-93 0 -174.5 -51t-194.5 -196l-63 -12zM954 1579l223 263l224 21l-311 -265z" />
    <glyph glyph-name="Ocircumflex" unicode="&#xd4;" horiz-adv-x="1435" 
d="M608 1065l14 17l149 185q33 41 40 50l96 124q98 27 166 27q177 0 281.5 -122t104.5 -324q0 -260 -160.5 -515t-413 -436.5t-427.5 -181.5q-161 0 -284 125t-123 311q0 265 163 534.5t492 496.5l52 -8q-254 -210 -368 -449t-114 -455q0 -170 106 -273t263 -103
q231 0 410 272.5t179 547.5q0 157 -71.5 256t-183.5 99q-93 0 -174.5 -51t-194.5 -196l-63 -12zM814 1633l281 244h132l114 -251l-106 -44l-109 191v0l-207 -194z" />
    <glyph glyph-name="apple" unicode="&#xf000;" horiz-adv-x="1022" 
d="M76 0v1449h870v-1449h-870zM332 256h358v937h-358v-937z" />
    <glyph glyph-name="Ograve" unicode="&#xd2;" horiz-adv-x="1435" 
d="M608 1065l14 17l149 185q33 41 40 50l96 124q98 27 166 27q177 0 281.5 -122t104.5 -324q0 -260 -160.5 -515t-413 -436.5t-427.5 -181.5q-161 0 -284 125t-123 311q0 265 163 534.5t492 496.5l52 -8q-254 -210 -368 -449t-114 -455q0 -170 106 -273t263 -103
q231 0 410 272.5t179 547.5q0 157 -71.5 256t-183.5 99q-93 0 -174.5 -51t-194.5 -196l-63 -12zM771 1863l223 -21l224 -263l-137 19z" />
    <glyph glyph-name="Uacute" unicode="&#xda;" horiz-adv-x="1360" 
d="M814 519q-82 -94 -96 -110q-290 -336 -416.5 -428t-192.5 -92q-48 0 -48 63q0 42 25 114l207 597q72 207 97 303l21 80q20 76 20 106q0 74 -47 74q-31 0 -121 -57l-16 45l361 235q29 19 46 19q53 0 53 -89q0 -59 -64 -245l-60 -174l-181 -486q-74 -199 -74 -257
q0 -57 38 -57q65 0 232.5 189t296 433.5t244.5 583.5q138 48 269 102q-67 -142 -133 -296q-34 -80 -62 -143q-149 -340 -193.5 -503t-44.5 -291q0 -121 67 -121q56 0 144 101l16 -45q-117 -140 -220 -210.5t-160 -70.5q-86 0 -86 162q0 160 78 468v0zM916 1579l223 263
l224 21l-311 -265z" />
    <glyph glyph-name="Ucircumflex" unicode="&#xdb;" horiz-adv-x="1360" 
d="M814 519q-82 -94 -96 -110q-290 -336 -416.5 -428t-192.5 -92q-48 0 -48 63q0 42 25 114l207 597q72 207 97 303l21 80q20 76 20 106q0 74 -47 74q-31 0 -121 -57l-16 45l361 235q29 19 46 19q53 0 53 -89q0 -59 -64 -245l-60 -174l-181 -486q-74 -199 -74 -257
q0 -57 38 -57q65 0 232.5 189t296 433.5t244.5 583.5q138 48 269 102q-67 -142 -133 -296q-34 -80 -62 -143q-149 -340 -193.5 -503t-44.5 -291q0 -121 67 -121q56 0 144 101l16 -45q-117 -140 -220 -210.5t-160 -70.5q-86 0 -86 162q0 160 78 468v0zM776 1633l281 244h132
l114 -251l-106 -44l-109 191v0l-207 -194z" />
    <glyph glyph-name="Ugrave" unicode="&#xd9;" horiz-adv-x="1360" 
d="M814 519q-82 -94 -96 -110q-290 -336 -416.5 -428t-192.5 -92q-48 0 -48 63q0 42 25 114l207 597q72 207 97 303l21 80q20 76 20 106q0 74 -47 74q-31 0 -121 -57l-16 45l361 235q29 19 46 19q53 0 53 -89q0 -59 -64 -245l-60 -174l-181 -486q-74 -199 -74 -257
q0 -57 38 -57q65 0 232.5 189t296 433.5t244.5 583.5q138 48 269 102q-67 -142 -133 -296q-34 -80 -62 -143q-149 -340 -193.5 -503t-44.5 -291q0 -121 67 -121q56 0 144 101l16 -45q-117 -140 -220 -210.5t-160 -70.5q-86 0 -86 162q0 160 78 468v0zM733 1863l223 -21
l224 -263l-137 19z" />
    <glyph glyph-name="dotlessi" unicode="&#x131;" horiz-adv-x="453" 
d="M224 858q130 68 256 136q-60 -113 -161 -357l-78 -188q-23 -55 -59 -169.5t-36 -145.5q0 -36 22 -36q45 0 104 118l16 32h13l-36 -152l-166 -124q-66 -49 -110 -49q-69 0 -69 71q0 70 115 361l92 233l50 140q25 71 47 130z" />
    <glyph glyph-name="circumflex" unicode="&#x2c6;" 
d="M567 1155l281 244h132l114 -251l-106 -44l-109 191v0l-207 -194z" />
    <glyph glyph-name="tilde" unicode="&#x2dc;" 
d="M605 1150q99 191 212 191q37 0 66 -10l107 -37q35 -12 60 -12q48 0 92 62l42 -12q-99 -190 -199 -190q-24 0 -51 8l-37 11q-71 21 -102 30q-34 10 -56 10q-42 0 -93 -61z" />
    <glyph glyph-name="macron" unicode="&#x2c9;" 
d="M554 1142l49 125h531l-49 -125h-531z" />
    <glyph glyph-name="breve" unicode="&#x2d8;" 
d="M598 1440l133 12v-25q0 -200 172 -218q45 80 69 185l9 39l134 12q-23 -129 -124 -254l-132 -66q-48 -24 -82 -24q-60 0 -120 71.5t-60 216.5q0 21 1 51z" />
    <glyph glyph-name="dotaccent" unicode="&#x2d9;" 
d="M689 1124l151 159q89 -35 187 -43q-89 -139 -234 -139q-53 0 -104 23z" />
    <glyph glyph-name="ring" unicode="&#x2da;" 
d="M699 1455q76 35 145 35q94 0 152.5 -47t58.5 -118q0 -121 -157 -215l-31 -4q-39 -5 -65 -5q-89 0 -143 46.5t-54 119.5q0 88 94 188zM723 1396q-23 -53 -23 -91q0 -52 34.5 -87.5t96.5 -35.5q38 0 95 14q34 59 34 102q0 111 -140 111q-30 0 -97 -13z" />
    <glyph glyph-name="cedilla" unicode="&#xb8;" 
d="M100 -418l41 60q73 -38 124 -38q90 0 134 74q-40 72 -132 72q-25 0 -59 -8l-24 18l173 240h47l-71 -152q26 3 39 3q54 0 98.5 -25t44.5 -63q0 -64 -97.5 -143t-186.5 -79q-57 0 -131 41z" />
    <glyph glyph-name="hungarumlaut" unicode="&#x2dd;" 
d="M486 1101l224 263l223 21l-310 -265zM789 1101l223 263l224 21l-311 -265z" />
    <glyph glyph-name="ogonek" unicode="&#x2db;" 
d="M408 0l10 -26q-115 -163 -115 -267q0 -50 26 -80t63 -30q20 0 38 9q47 23 83 101l100 22q-69 -134 -199 -181q-47 -17 -94 -17q-144 0 -144 131q0 166 232 338z" />
    <glyph glyph-name="caron" unicode="&#x2c7;" 
d="M1094 1345l-281 -244h-132l-114 250l107 44l108 -191v0l208 195z" />
    <glyph glyph-name="Lslash" unicode="&#x141;" 
d="M268 623q66 223 134 374q69 154 199 247q125 89 272 156.5t229 67.5q61 0 96 -30t35 -73q0 -123 -369 -451l-46 18q184 150 184 253q0 57 -42 88.5t-102 31.5q-41 0 -97 -29q-84 -98 -152 -263q-28 -66 -84 -222l-29 -80v0l293 113l-55 -128l-290 -112v0
q-63 -147 -134 -258l-27 -42q66 -13 226 -151q152 -131 220 -151q16 -5 53 -12q111 85 205 268l110 29q-69 -130 -202 -261t-239 -193q-9 -5 -44 -22q-112 27 -271 184l-98 97q-35 35 -89 61q-247 -244 -365 -244q-18 0 -18 18q0 70 114.5 195.5t248.5 165.5q55 121 92 231
v0l-218 -84l54 130l206 78v0z" />
    <glyph glyph-name="lslash" unicode="&#x142;" horiz-adv-x="566" 
d="M223 704l35 92q146 385 206 592q109 33 234 80q-159 -410 -235 -614l-10 -27v0l190 103l-50 -136l-195 -105v0q-44 -105 -105.5 -281.5t-61.5 -221.5q0 -55 42 -55q27 0 87 42l19 -29l-205 -186q-39 -35 -72 -35q-42 0 -71.5 33t-29.5 79t33 139l140 394v0l-164 -89
l50 136l163 89v0z" />
    <glyph glyph-name="Scaron" unicode="&#x160;" horiz-adv-x="982" 
d="M-70 55q29 112 69 189t146 228h84q-127 -95 -127 -193q0 -71 87.5 -118t198.5 -47q161 0 268 100q29 73 29 118q0 48 -20 86t-55 65q-40 31 -141 83q-96 49 -160 96q-44 32 -71 81t-27 110q0 186 206.5 400.5t428.5 214.5q166 0 258 -194q-78 -192 -231 -335h-61
q99 85 99 158q0 63 -63 104.5t-159 41.5q-118 0 -262 -77q-50 -93 -50 -156q0 -38 16 -72q18 -38 48 -61q45 -34 113 -67q130 -63 190 -110q53 -42 78 -85q29 -49 29 -119q0 -179 -209.5 -393t-439.5 -214q-91 0 -167 45.5t-105 120.5zM1254 1823l-281 -244h-132l-114 250
l107 44l108 -191v0l208 195z" />
    <glyph glyph-name="scaron" unicode="&#x161;" horiz-adv-x="680" 
d="M128 333l32 -12q-55 -76 -55 -112q0 -47 41.5 -77t99.5 -30q64 0 111 33.5t47 84.5q0 22 -9 40q-17 34 -44 57q-27 22 -64 47q-64 42 -109 83q-30 27 -48 63t-18 72q0 117 152 264.5t295 147.5q62 0 110.5 -34.5t48.5 -81.5q0 -10 -4 -26l-63 -94l-92 -137l-34 11
q31 62 31 93q0 55 -43 89.5t-105 34.5q-57 0 -104.5 -32.5t-47.5 -81.5q0 -26 12 -52q10 -21 19 -32q35 -41 111 -93q53 -36 92 -71q26 -23 40 -46q18 -29 18 -63q0 -104 -151 -279.5t-285 -175.5q-168 0 -196 141q70 109 212 269zM831 1345l-281 -244h-132l-114 250l107 44
l108 -191v0l208 195z" />
    <glyph glyph-name="Zcaron" unicode="&#x17d;" 
d="M128 42q-23 -23 -31 -32l-31 -34q-79 -87 -120 -87q-40 0 -40 47q0 58 62 133t140 119q9 5 36 19v0l812 982v0l-31 5q-38 6 -89 15q-196 34 -288 34q-50 0 -98 -16q-42 -44 -79 -114l-113 -15q51 65 113 127q241 243 310 243q35 0 77 -12l63 -18l163 -46q74 -21 133 -31
q127 107 193 107q42 0 42 -44q0 -99 -177 -206q-45 -27 -125 -65v0l-826 -959v0q32 4 49 4q59 0 193 -72q204 -110 309 -110q34 0 92 11q26 33 39 54q30 48 48 117l92 12q-65 -131 -133 -218q-157 -201 -301 -201q-94 0 -265 136q-146 116 -199 116q-6 0 -20 -1zM1368 1823
l-281 -244h-132l-114 250l107 44l108 -191v0l208 195z" />
    <glyph glyph-name="zcaron" unicode="&#x17e;" horiz-adv-x="755" 
d="M42 92l-30 -28q-92 -86 -130 -86q-21 0 -21 23q0 58 71 164.5t145 106.5q13 0 37 -5v0q192 194 444 503v0q-12 1 -27 2q-57 3 -120 21q-79 22 -120 22h-20q-28 -30 -55 -81q-6 -12 -16 -30l-104 -26q31 74 71 125q59 76 145.5 133.5t149.5 57.5q40 0 117 -30l126 -49v0
q15 11 19 14l40 33q39 32 75 32q35 0 35 -32q0 -75 -161 -163v0l-86 -93q-21 -23 -23 -25l-148 -168q-20 -22 -35 -39l-103 -112l-112 -121v0q27 -14 46 -29l63 -49q50 -39 94 -39q40 0 78.5 27t80.5 117l42 9q-61 -162 -142 -258t-147 -96q-61 0 -156 82l-60 52
q-27 24 -63 35v0zM915 1345l-281 -244h-132l-114 250l107 44l108 -191v0l208 195z" />
    <glyph glyph-name="brokenbar" unicode="&#xa6;" horiz-adv-x="1020" 
d="M562 -458h-104v915h104v-915zM458 1476h104v-915h-104v915z" />
    <glyph glyph-name="Eth" unicode="&#xd0;" horiz-adv-x="1586" 
d="M583 782l148 349l215 172v0q-48 2 -83 2q-245 0 -407 -104q-78 -111 -127 -223l-70 -161q0 -1 -37 -83q-19 74 -19 138q0 131 62 220t192 186q113 84 265.5 137t276.5 53q240 0 400.5 -172t160.5 -437q0 -371 -306 -670.5t-555 -299.5q-108 0 -388 80l-14 4q-11 3 -21 6
q-156 -126 -209 -147q-12 -5 -25 -5q-28 0 -28 23q0 68 171 347q33 7 61 7q43 0 86 -12v0l198 462v0h-215l126 127l142 1v0zM728 782v0h382l-128 -127l-317 -1v0l-243 -482v0q265 -104 469 -104q216 0 346 237.5t130 452.5q0 403 -386 531z" />
    <glyph glyph-name="eth" unicode="&#xf0;" horiz-adv-x="755" 
d="M484 994l51 -4l-44 -44q-331 -329 -331 -661q0 -146 119 -146q37 0 82 26q94 136 160.5 382t66.5 397q0 118 -60 235v0l-274 -161l50 136l178 104v0q-55 87 -130 150q40 61 73 115q113 -92 178 -194v0l235 139l-50 -136l-135 -80v0q102 -199 102 -382q0 -196 -94 -394.5
t-280.5 -375.5t-281.5 -177q-67 0 -107.5 55t-40.5 149q0 215 153 459t380 408z" />
    <glyph glyph-name="Yacute" unicode="&#xdd;" horiz-adv-x="1284" 
d="M208 1226l327 222q29 20 47 20q68 0 68 -160q0 -167 -100 -616q-71 -319 -71 -419q0 -105 71 -105t211 208t274 542l70 175l67 162q11 30 32 90q160 53 335 123q-134 -190 -249 -418.5t-265 -580.5l-104 -244q-107 -250 -178.5 -350t-194.5 -217q-154 -146 -226 -146
q-48 0 -48 101q0 129 107 296v0q-114 46 -114 164q0 55 19 146l40 191q100 477 100 680q0 136 -84 136q-46 0 -128 -49zM417 -103v0q-29 -77 -29 -133q0 -53 28 -113q57 30 112 107q141 197 245 547v0q-189 -261 -356 -408zM878 1579l223 263l224 21l-311 -265z" />
    <glyph glyph-name="yacute" unicode="&#xfd;" horiz-adv-x="906" 
d="M51 241l85 215q87 220 87 292q0 38 -27 38q-12 0 -34 -12l-14 33l175 138q62 49 97 49q58 0 58 -70q0 -41 -36 -134l-150 -388q-75 -194 -75 -231q0 -23 22 -23q50 0 160.5 125t176.5 263l166 349q101 48 232 109q-193 -389 -258 -580l-16 -47q-21 -59 -41 -122
q-99 -304 -187 -440q-92 -143 -230.5 -229.5t-237.5 -86.5q-40 0 -68 31.5t-28 85.5q0 124 185 261l23 -6q-31 -74 -31 -117q0 -102 80 -126q46 31 73.5 73t73.5 143q54 118 82 198l83 237v0l-182 -171q-103 -97 -191 -147q-33 -19 -63 -19q-49 0 -49 76q0 84 59 233z
M583 1101l223 263l224 21l-311 -265z" />
    <glyph glyph-name="Thorn" unicode="&#xde;" horiz-adv-x="1058" 
d="M34 15l87 209l-79 83l139 93v0q256 622 256 780q0 46 -39 46q-30 0 -74 -25l-63 -36l7 50l320 205l53 33q24 15 40 15q33 0 33 -64q0 -27 -12 -74l-29 -113l-70 -219l-76 -231q211 225 383 328q75 45 124 45q61 0 98.5 -54.5t37.5 -142.5q0 -161 -121.5 -351t-334 -289.5
t-399.5 -99.5h-5v0l-51 -177q-3 -10 -3 -20q0 -40 37 -40q36 0 140 74l3 -50q-211 -129 -280 -164t-110 -35q-49 0 -49 66q0 69 37 158zM444 545l-79 -195l-14 -38v0q35 -16 88 -16q133 0 241.5 71t186.5 223.5t78 264.5q0 106 -77 106q-86 0 -202.5 -117.5t-170.5 -210.5
l-45 -78z" />
    <glyph glyph-name="thorn" unicode="&#xfe;" horiz-adv-x="831" 
d="M-158 -197l119 320l31 82l62 166l95 254q13 35 28 78l113 322q78 221 98 307q112 65 244 136q-33 -84 -41 -104l-106 -286l-62 -167l-59 -173q35 25 48 35l92 72q52 41 144.5 95t138.5 54q70 0 70 -108q0 -154 -112 -377t-295.5 -404.5t-235.5 -181.5h-5q-17 5 -20 40
l-3 38q-4 49 -20 165q-27 -65 -30 -75l-4 -12l-77 -214l-26 -73q-24 -64 -55 -144q-119 -63 -250 -136q64 147 118 291zM253 363q0 -104 31 -171.5t64 -67.5q65 0 174.5 239t109.5 395q0 57 -44 57q-63 0 -169 -125t-166 -327z" />
    <glyph glyph-name="minus" unicode="&#x2212;" horiz-adv-x="1737" 
d="M344 374v125h1032v-125h-1032z" />
    <glyph glyph-name="multiply" unicode="&#xd7;" horiz-adv-x="1737" 
d="M451 0l-87 87l421 421v0l-422 422l87 87l422 -421v0l422 421l87 -87l-422 -422v0l422 -421l-87 -87l-422 421v0z" />
    <glyph glyph-name="onesuperior" unicode="&#xb9;" horiz-adv-x="755" 
d="M348 1044l20 63q178 54 320 139l-36 -97l-108 -290q-55 -147 -138 -398q-68 -15 -139 -38l49 125l12 30l87 231q64 170 100 282q-38 -14 -45 -16l-70 -16q-14 -3 -52 -15z" />
    <glyph glyph-name="twosuperior" unicode="&#xb2;" horiz-adv-x="755" 
d="M88 442l-23 5q64 77 109 143h24q14 0 50 5v0q165 97 267 218q42 50 63 111q12 35 12 70q0 54 -39.5 88t-108.5 34q-32 0 -72 -10q-22 -73 -59 -143q-17 -33 -36 -54l-17 -9l-9 12q-4 13 -4 29q0 63 25 116q32 68 108 107t164 39q86 0 135 -43t49 -102q0 -69 -48 -141
q-36 -54 -81 -103q-115 -125 -292 -230v0q66 -5 98 -9q81 -10 116 -10q50 0 126 45l19 -6q-54 -71 -123 -155q-72 5 -105 7l-114 7l-12 1l-76 6q-13 1 -63 4l-45 -18q-6 -2 -38 -14z" />
    <glyph glyph-name="threesuperior" unicode="&#xb3;" horiz-adv-x="755" 
d="M235 800q58 39 144 87q45 0 89 -9v0q136 73 136 144q0 44 -40 69t-94 25q-28 0 -70 -9q-15 -41 -32 -69l-33 -55q-11 -18 -22 -30l-13 -8l-8 19q0 48 14 84q60 155 263 155q77 0 124 -33t47 -85q0 -100 -170 -202l-45 -27v0q102 -60 102 -150q0 -73 -60 -146.5
t-149 -110.5q-62 -26 -121 -26q-74 0 -136.5 31t-62.5 62q0 21 28 21q16 0 39 -8q120 -42 188 -42q56 0 112 43q67 52 67 103q0 123 -297 167z" />
    <glyph glyph-name="onehalf" unicode="&#xbd;" horiz-adv-x="1737" 
d="M344 -77l799 1305h73l-800 -1305h-72zM807 -32l-24 5q64 76 110 143l23 1q10 0 51 5v0q163 94 267 217q40 47 62 111q13 38 13 72q0 51 -41.5 85.5t-108.5 34.5q-33 0 -70 -11q-29 -86 -59 -142q-16 -30 -37 -53l-16 -10l-9 12q-4 13 -4 29q0 65 24 116q31 65 107 105.5
t165 40.5q86 0 135.5 -42t49.5 -102q0 -70 -48 -142q-35 -52 -81 -102q-119 -128 -292 -231v0q66 -4 98 -8q92 -11 120 -11q39 0 93 29q21 11 28 15l20 -6q-49 -63 -123 -154q-47 3 -105 7l-126 9q-22 2 -76 5l-63 4q-55 -20 -83 -32zM383 1025l20 64q176 53 320 139
l-36 -94l-109 -284q-64 -170 -138 -389q-68 -15 -139 -38l61 151l16 39l72 185q60 155 100 275q-37 -14 -45 -16l-71 -17q-14 -3 -51 -15z" />
    <glyph glyph-name="onequarter" unicode="&#xbc;" horiz-adv-x="1737" 
d="M389 -77l801 1305h71l-799 -1305h-73zM1033 -51q29 69 41 96l36 80q10 22 41 105l-55 -1l-36 -1l-179 -5l-68 -2q88 83 136 128q107 102 156 146q124 113 191 200q78 15 154 34q-44 -101 -52 -121l-11 -29l-71 -186q-13 -35 -29 -76h50q42 1 126 9q-56 -46 -94 -105
l-82 6l-40 3l-52 -164l-29 -92q-50 -11 -133 -25zM1180 317q61 165 103 285v0q-71 -66 -154 -147l-92 -90q-10 -10 -50 -48v0h193zM351 1026l21 63q176 53 320 139q-29 -79 -35 -94l-107 -284q-45 -120 -134 -389q-68 -16 -138 -38q164 416 241 650q-38 -14 -45 -16l-71 -16
q-12 -3 -52 -15z" />
    <glyph glyph-name="threequarters" unicode="&#xbe;" horiz-adv-x="1737" 
d="M479 -77l801 1305h71l-799 -1305h-73zM1089 -51q29 69 41 96l36 80q10 22 41 105l-55 -1l-36 -1l-179 -5l-68 -2q88 83 136 128q107 102 156 146q124 113 191 200q78 15 154 34q-68 -159 -134 -336q-13 -35 -29 -76h50q42 1 126 9q-56 -46 -94 -105l-82 6l-40 3l-52 -164
l-29 -92q-50 -11 -133 -25zM1236 317q57 148 103 285v0q-71 -66 -154 -147l-92 -90q-10 -10 -50 -48v0h193zM318 800q48 33 144 87q34 0 70 -6l18 -3v0q139 71 139 147q0 43 -41.5 66.5t-94.5 23.5q-28 0 -70 -9q-16 -44 -32 -69l-34 -54q-13 -21 -21 -30l-14 -8l-8 19
q0 47 15 84q62 155 264 155q77 0 124.5 -33t47.5 -86q0 -97 -173 -201l-45 -27v0q101 -59 101 -152q0 -69 -61 -143t-152 -112q-63 -26 -122 -26q-70 0 -134 31t-64 62q0 21 28 21q17 0 39 -8q117 -42 189 -42q56 0 112 43q70 54 70 104q0 114 -295 166z" />
    <glyph glyph-name="franc" unicode="&#x20a3;" horiz-adv-x="1586" 
d="M397 68q125 262 197 521v0q-254 18 -440 52q119 69 204 129q23 -4 62 -12q113 -23 207 -36v0q10 33 16 50l22 66l40 122l31 94l12 42q76 37 155 83v0q-366 110 -456 110q-32 0 -77 -15q-25 -25 -35 -38q-41 -54 -73 -211h-94q45 110 72 155q42 69 155.5 178.5
t171.5 109.5q91 0 342 -83l124 -41l8 -2l134 -36q4 -1 43 -14q-129 -59 -220 -112q-67 -140 -105 -240l-44 -117q-2 -4 -43 -113v0q78 -8 153 -9q-108 -61 -199 -125q-25 -67 -37 -101l-50 -135q-37 -99 -67 -152q-56 -98 -197.5 -198.5t-241.5 -100.5q-58 0 -89.5 34
t-31.5 83q0 153 194 347l30 30h29q-72 -98 -72 -186q0 -127 170 -129zM941 172l119 307q75 193 75 284q0 63 -50 72l1 50l162 92q30 17 55 17q34 0 34 -58q0 -49 -22 -159q-4 -20 -13 -71q28 43 37 57q96 152 138 191.5t83 39.5q73 0 73 -80q0 -121 -132 -313l-24 10
q25 59 25 87q0 66 -50 66q-49 0 -112.5 -88t-137.5 -286.5t-74 -247.5q0 -41 26 -41q13 0 33 11l31 17q8 5 27 16v-50l-159 -112l-32 -19q-69 -41 -109 -41q-57 0 -57 63q0 49 53 186z" />
    <glyph glyph-name="Gbreve" unicode="&#x11e;" 
d="M303 -481q-45 76 -45 186q0 81 31 184q-257 58 -257 344q0 215 155 504.5t435.5 510t449.5 220.5q63 0 108 -39t45 -97q0 -82 -97 -213t-203 -228h-60q101 119 126 180t25 106q0 57 -34.5 92.5t-92.5 35.5q-127 0 -285.5 -153t-260.5 -380.5t-102 -404.5q0 -129 51 -214
t150 -85q27 0 69 16q178 203 323 516v0q-122 22 -263 23l196 114l108 -9q138 -12 267 -14q-81 -85 -122 -165t-113 -276q-88 -239 -150 -345q-156 -265 -454 -409zM341 -109q-9 -46 -9 -71q0 -94 69 -163q109 53 203 277q63 150 117 316q-31 -38 -61 -74
q-113 -139 -175 -194t-144 -91zM903 1918l133 12v-25q0 -200 172 -218q45 80 69 185l9 39l134 12q-23 -129 -124 -254l-132 -66q-48 -24 -82 -24q-60 0 -120 71.5t-60 216.5q0 21 1 51z" />
    <glyph glyph-name="gbreve" unicode="&#x11f;" horiz-adv-x="755" 
d="M10 -144l30 -14q-35 -63 -35 -102q0 -72 84 -100q71 46 121 170q41 101 80 229l50 164l-121 -122q-157 -158 -238 -158q-69 0 -69 117q0 101 59 275t176 342q92 132 230.5 234.5t204.5 102.5q33 0 68 -44q21 -26 45 -56l97 100l25 -9q-30 -79 -59 -151l-71 -179
q-29 -74 -73 -201l-153 -445q-30 -86 -44 -117q-54 -116 -197 -236l-106 -89q-93 -78 -154 -78q-47 0 -84.5 39t-37.5 84q0 95 172 244zM563 773l-35 -11q-34 97 -79 97q-39 0 -115 -112.5t-136.5 -285t-60.5 -264.5q0 -58 35 -58q30 0 98 66t151 251zM373 1440l133 12v-25
q0 -200 172 -218q45 80 69 185l9 39l134 12q-23 -129 -124 -254l-132 -66q-48 -24 -82 -24q-60 0 -120 71.5t-60 216.5q0 21 1 51z" />
    <glyph glyph-name="Idotaccent" unicode="&#x130;" horiz-adv-x="755" 
d="M3 304l109 77q-67 -119 -67 -254q0 -79 57 -161v0q99 124 177 342q43 119 111 359q129 453 230 635v0q-44 3 -70 3q-65 0 -150 -20q-54 -79 -88 -174l-105 -54q26 69 47 112q35 71 109 140t144 114t187 45q60 0 133 -6q49 -4 73 -4q19 0 61 2q-124 -96 -169 -192
t-129 -374q-149 -492 -239 -653q-86 -155 -221.5 -287.5t-248.5 -162.5q-54 73 -54 153q0 139 103 360zM622 1602l151 159q89 -35 187 -43q-89 -139 -234 -139q-53 0 -104 23z" />
    <glyph glyph-name="Scedilla" unicode="&#x15e;" horiz-adv-x="982" 
d="M-70 55q29 112 69 189t146 228h84q-127 -95 -127 -193q0 -71 87.5 -118t198.5 -47q161 0 268 100q29 73 29 118q0 48 -20 86t-55 65q-40 31 -141 83q-96 49 -160 96q-44 32 -71 81t-27 110q0 186 206.5 400.5t428.5 214.5q166 0 258 -194q-78 -192 -231 -335h-61
q99 85 99 158q0 63 -63 104.5t-159 41.5q-118 0 -262 -77q-50 -93 -50 -156q0 -38 16 -72q18 -38 48 -61q45 -34 113 -67q130 -63 190 -110q53 -42 78 -85q29 -49 29 -119q0 -179 -209.5 -393t-439.5 -214q-91 0 -167 45.5t-105 120.5zM-44 -419l41 60q73 -38 124 -38
q90 0 134 74q-40 72 -132 72q-25 0 -59 -8l-24 18l173 240h47l-71 -152q26 3 39 3q54 0 98.5 -25t44.5 -63q0 -64 -97.5 -143t-186.5 -79q-57 0 -131 41z" />
    <glyph glyph-name="scedilla" unicode="&#x15f;" horiz-adv-x="680" 
d="M128 333l32 -12q-55 -76 -55 -112q0 -47 41.5 -77t99.5 -30q64 0 111 33.5t47 84.5q0 22 -9 40q-17 34 -44 57q-27 22 -64 47q-64 42 -109 83q-30 27 -48 63t-18 72q0 117 152 264.5t295 147.5q62 0 110.5 -34.5t48.5 -81.5q0 -10 -4 -26l-63 -94l-92 -137l-34 11
q31 62 31 93q0 55 -43 89.5t-105 34.5q-57 0 -104.5 -32.5t-47.5 -81.5q0 -26 12 -52q10 -21 19 -32q35 -41 111 -93q53 -36 92 -71q26 -23 40 -46q18 -29 18 -63q0 -104 -151 -279.5t-285 -175.5q-168 0 -196 141q70 109 212 269zM-163 -418l41 60q73 -38 124 -38
q90 0 134 74q-40 72 -132 72q-25 0 -59 -8l-24 18l173 240h47l-71 -152q26 3 39 3q54 0 98.5 -25t44.5 -63q0 -64 -97.5 -143t-186.5 -79q-57 0 -131 41z" />
    <glyph glyph-name="Cacute" unicode="&#x106;" horiz-adv-x="1058" 
d="M554 723q162 37 325 173t163 274q0 66 -45.5 100.5t-101.5 34.5q-174 0 -424 -321t-250 -622q0 -136 74 -215t196 -79q58 0 138 26q121 109 240 316l106 17q-114 -172 -283 -340q-87 -87 -200 -142.5t-213 -55.5q-135 0 -209 97.5t-74 229.5q0 239 209 556t479 506.5
t428 189.5q61 0 100 -36t39 -90q0 -139 -195.5 -344.5t-477.5 -343.5zM997 1579l223 263l224 21l-311 -265z" />
    <glyph glyph-name="cacute" unicode="&#x107;" horiz-adv-x="604" 
d="M253 68q63 54 114 169l98 28q-41 -79 -90 -134q-57 -64 -153.5 -136t-155.5 -72q-62 0 -95.5 54.5t-33.5 139.5q0 239 160.5 486.5t291.5 299.5l208 83q20 8 40 8q37 0 37 -49q0 -39 -50 -156l-41 -96l-183 -83q65 132 65 189q0 50 -38 50q-42 0 -109 -93.5t-119.5 -264
t-52.5 -289.5q0 -125 107 -134zM432 1101l223 263l224 21l-311 -265z" />
    <glyph glyph-name="Ccaron" unicode="&#x10c;" horiz-adv-x="1058" 
d="M554 723q162 37 325 173t163 274q0 66 -45.5 100.5t-101.5 34.5q-174 0 -424 -321t-250 -622q0 -136 74 -215t196 -79q58 0 138 26q121 109 240 316l106 17q-114 -172 -283 -340q-87 -87 -200 -142.5t-213 -55.5q-135 0 -209 97.5t-74 229.5q0 239 209 556t479 506.5
t428 189.5q61 0 100 -36t39 -90q0 -139 -195.5 -344.5t-477.5 -343.5zM1501 1823l-281 -244h-132l-114 250l107 44l108 -191v0l208 195z" />
    <glyph glyph-name="ccaron" unicode="&#x10d;" horiz-adv-x="604" 
d="M253 68q63 54 114 169l98 28q-41 -79 -90 -134q-57 -64 -153.5 -136t-155.5 -72q-62 0 -95.5 54.5t-33.5 139.5q0 239 160.5 486.5t291.5 299.5l208 83q20 8 40 8q37 0 37 -49q0 -39 -50 -156l-41 -96l-183 -83q65 132 65 189q0 50 -38 50q-42 0 -109 -93.5t-119.5 -264
t-52.5 -289.5q0 -125 107 -134zM910 1345l-281 -244h-132l-114 250l107 44l108 -191v0l208 195z" />
    <glyph glyph-name="dcroat" unicode="&#x111;" horiz-adv-x="831" 
d="M701 1100q-43 50 -98 91q43 30 85 59h63v0l33 102q123 52 240 116l-38 -101q-28 -76 -45 -117v0h204l-140 -99h-102v0l-103 -262q-68 -173 -141.5 -406.5t-73.5 -314.5q0 -36 26 -36q20 0 80 38l1 -50l-156 -136l-41 -28q-48 -33 -84 -33q-57 0 -57 61q0 56 27 150
l63 220l-162 -194q-198 -237 -308 -237q-75 0 -75 104q0 164 110 415t292.5 401.5t280.5 150.5q33 0 74 -29l45 135v0zM547 748q-68 111 -112 111q-77 0 -194 -269t-117 -391v-19q3 -41 36 -41q46 0 177.5 169t245.5 457v0z" />
    <glyph glyph-name="sfthyphen" unicode="&#xad;" horiz-adv-x="604" 
d="M357 474l-45 4q-56 5 -88 5q-54 0 -157 -15l-19 22q105 74 231 158q27 -2 53 -4q59 -5 95 -5q45 0 124 15l17 -14q-95 -79 -211 -166z" />
    <glyph glyph-name="overscore" unicode="&#xaf;" horiz-adv-x="1020" 
d="M0 1642h1020v-104h-1020v104z" />
    </font>
</defs>
</svg>
