<?xml version="1.0" standalone="no"?>
<!DOCTYPE svg PUBLIC "-//W3C//DTD SVG 1.1//EN" "http://www.w3.org/Graphics/SVG/1.1/DTD/svg11.dtd" >
<svg xmlns="http://www.w3.org/2000/svg" xmlns:xlink="http://www.w3.org/1999/xlink" version="1.1">
<metadata>
Created by FontForge 20170924 at Mon Dec 31 11:58:21 2001
 By www-data
(c)2002 | www.miniml.com | design by craig kroeger
</metadata>
<defs>
<font id="Hooge0553" horiz-adv-x="750" >
  <font-face 
    font-family="hooge 05_53"
    font-weight="400"
    font-stretch="normal"
    units-per-em="1000"
    panose-1="0 0 4 0 0 0 0 0 0 0"
    ascent="800"
    descent="-200"
    x-height="500"
    cap-height="625"
    bbox="-125 -250 2875 1001"
    underline-thickness="20"
    underline-position="-143"
    unicode-range="U+0020-F002"
  />
<missing-glyph horiz-adv-x="500" 
d="M63 0v875h375v-875h-375zM125 63h250v750h-250v-750z" />
    <glyph glyph-name=".notdef" horiz-adv-x="500" 
d="M63 0v875h375v-875h-375zM125 63h250v750h-250v-750z" />
    <glyph glyph-name=".null" horiz-adv-x="0" 
 />
    <glyph glyph-name="nonmarkingreturn" horiz-adv-x="375" 
 />
    <glyph glyph-name="space" unicode=" " horiz-adv-x="375" 
 />
    <glyph glyph-name="exclam" unicode="!" horiz-adv-x="375" 
d="M125 125h125v-125h-125v125zM250 625v-375h-125v375h125z" />
    <glyph glyph-name="quotedbl" unicode="&#x22;" horiz-adv-x="500" 
d="M375 625v-250h-125v250h125zM125 375h-125v250h125v-250z" />
    <glyph glyph-name="numbersign" unicode="#" 
d="M625 375h-125v-125h125v-125h-125v-125h-125v125h-125v-125h-125v125h-125v125h125v125h-125v125h125v125h125v-125h125v125h125v-125h125v-125zM250 375v-125h125v125h-125z" />
    <glyph glyph-name="dollar" unicode="$" 
d="M250 0h-250v125h500v125h-500v375h250v125h125v-125h250v-125h-500v-125h500v-375h-250v-125h-125v125z" />
    <glyph glyph-name="percent" unicode="%" 
d="M500 625h125v-125h-125v-125h-125v-125h-125v-125h-125v-125h-125v125h125v125h125v125h125v125h125v125zM125 625v-125h-125v125h125zM500 0v125h125v-125h-125z" />
    <glyph glyph-name="ampersand" unicode="&#x26;" horiz-adv-x="875" 
d="M625 250h125v-125h-125v-125h-625v375h125v250h500v-375zM620 250h-495v-125h495v125zM500 500h-250v-125h250v125z" />
    <glyph glyph-name="quotesingle" unicode="'" horiz-adv-x="250" 
d="M125 625v-250h-125v250h125z" />
    <glyph glyph-name="parenleft" unicode="(" horiz-adv-x="375" 
d="M250 750v-125h-125v-625h125v-125h-125v125h-125v625h125v125h125z" />
    <glyph glyph-name="parenright" unicode=")" horiz-adv-x="375" 
d="M0 750h125v-125h125v-625h-125v-125h-125v125h125v625h-125v125z" />
    <glyph glyph-name="asterisk" unicode="*" 
d="M125 625h125v-125h125v125h125v-125h-125v-125h250v-125h-250v-125h125v-125h-125v125h-125v-125h-125v125h125v125h-250v125h250v125h-125v125z" />
    <glyph glyph-name="plus" unicode="+" 
d="M625 375v-125h-250v-250h-125v250h-250v125h250v250h125v-250h250z" />
    <glyph glyph-name="comma" unicode="," horiz-adv-x="375" 
d="M0 -125h125v250h125v-250h-125v-125h-125v125z" />
    <glyph glyph-name="hyphen" unicode="-" horiz-adv-x="500" 
d="M0 250v125h375v-125h-375z" />
    <glyph glyph-name="hyphen" unicode="&#x2010;" horiz-adv-x="500" 
d="M0 250v125h375v-125h-375z" />
    <glyph glyph-name="period" unicode="." horiz-adv-x="250" 
d="M0 125h125v-125h-125v125z" />
    <glyph glyph-name="slash" unicode="/" 
d="M500 625h125v-125h-125v-125h-125v-125h-125v-125h-125v-125h-125v125h125v125h125v125h125v125h125v125z" />
    <glyph glyph-name="zero" unicode="0" 
d="M625 625v-625h-625v625h625zM500 125v375h-375v-375h375z" />
    <glyph glyph-name="one" unicode="1" horiz-adv-x="375" 
d="M0 625h250v-625h-125v500h-125v125z" />
    <glyph glyph-name="two" unicode="2" 
d="M500 500h-500v125h625v-375h-500v-125h500v-125h-625v375h500v125z" />
    <glyph glyph-name="three" unicode="3" 
d="M0 625h625v-625h-625v125h500v125h-375v125h375v125h-500v125z" />
    <glyph glyph-name="four" unicode="4" 
d="M625 625v-625h-125v250h-500v375h125v-250h375v250h125z" />
    <glyph glyph-name="five" unicode="5" 
d="M125 500v-125h500v-375h-625v125h500v125h-500v375h625v-125h-500z" />
    <glyph glyph-name="six" unicode="6" 
d="M125 375h500v-375h-625v625h625v-125h-500v-125zM500 125v125h-375v-125h375z" />
    <glyph glyph-name="seven" unicode="7" horiz-adv-x="625" 
d="M0 625h500v-625h-125v500h-375v125z" />
    <glyph glyph-name="eight" unicode="8" 
d="M0 625h625v-625h-625v625zM125 500v-125h375v125h-375zM500 125v125h-381v-125h381z" />
    <glyph glyph-name="nine" unicode="9" 
d="M500 250h-500v375h625v-625h-625v125h500v125zM125 500v-125h375v125h-375z" />
    <glyph glyph-name="colon" unicode=":" horiz-adv-x="500" 
d="M125 250h125v-125h-125v125zM125 500h125v-125h-125v125z" />
    <glyph glyph-name="semicolon" unicode=";" horiz-adv-x="500" 
d="M125 500h125v-125h-125v125zM0 -125h125v250h125v-250h-125v-125h-125v125z" />
    <glyph glyph-name="less" unicode="&#x3c;" horiz-adv-x="500" 
d="M375 625v-125h-125v-125h-125v-125h125v-125h125v-125h-125v125h-125v125h-125v125h125v125h125v125h125z" />
    <glyph glyph-name="equal" unicode="=" 
d="M0 500h625v-125h-625v125zM0 125v125h625v-125h-625z" />
    <glyph glyph-name="greater" unicode="&#x3e;" horiz-adv-x="500" 
d="M0 625h125v-125h125v-125h125v-125h-125v-125h-125v-125h-125v125h125v125h125v125h-125v125h-125v125z" />
    <glyph glyph-name="question" unicode="?" horiz-adv-x="625" 
d="M125 250v125h250v125h-375v125h500v-375h-375zM125 0v125h125v-125h-125z" />
    <glyph glyph-name="at" unicode="@" 
d="M250 375h250v125h-375v-375h500v-125h-625v625h625v-375h-375v125z" />
    <glyph glyph-name="A" unicode="A" 
d="M0 625h625v-625h-125v250h-375v-250h-125v625zM500 375v125h-375v-125h375z" />
    <glyph glyph-name="B" unicode="B" 
d="M0 625h625v-250h-125v-125h125v-250h-625v625zM495 250h-370v-125h370v125zM495 500h-370v-125h370v125z" />
    <glyph glyph-name="C" unicode="C" 
d="M625 500h-500v-375h500v-125h-625v625h625v-125z" />
    <glyph glyph-name="D" unicode="D" 
d="M500 500h125v-375h-125v-125h-500v625h500v-125zM495 500h-370v-375h370v375z" />
    <glyph glyph-name="E" unicode="E" 
d="M625 500h-500v-125h375v-125h-375v-125h500v-125h-625v625h625v-125z" />
    <glyph glyph-name="F" unicode="F" 
d="M625 500h-500v-125h375v-125h-375v-250h-125v625h625v-125z" />
    <glyph glyph-name="G" unicode="G" 
d="M125 125h375v125h-250v125h375v-375h-625v625h625v-125h-500v-375z" />
    <glyph glyph-name="H" unicode="H" 
d="M500 625h125v-625h-125v250h-375v-250h-125v625h125v-250h375v250z" />
    <glyph glyph-name="I" unicode="I" horiz-adv-x="250" 
d="M0 625h125v-625h-125v625z" />
    <glyph glyph-name="J" unicode="J" horiz-adv-x="625" 
d="M375 625h125v-625h-500v125h375v500z" />
    <glyph glyph-name="K" unicode="K" 
d="M625 0h-125v250h125v-250zM625 625v-250h-125v250h125zM0 0h125v250h375v125h-375v250h-125v-625z" />
    <glyph glyph-name="L" unicode="L" horiz-adv-x="625" 
d="M125 125h375v-125h-500v625h125v-500z" />
    <glyph glyph-name="M" unicode="M" horiz-adv-x="1000" 
d="M0 625h875v-625h-125v500h-250v-500h-125v500h-250v-500h-125v625z" />
    <glyph glyph-name="N" unicode="N" 
d="M0 625h625v-625h-125v500h-375v-500h-125v625z" />
    <glyph glyph-name="O" unicode="O" 
d="M625 625v-625h-625v625h625zM500 125v375h-375v-375h375z" />
    <glyph glyph-name="P" unicode="P" 
d="M0 625h625v-375h-500v-250h-125v625zM500 375v125h-375v-125h375z" />
    <glyph glyph-name="Q" unicode="Q" 
d="M500 125v375h-375v-375h375zM375 -125h-125v125h-250v625h625v-625h-250v-125z" />
    <glyph glyph-name="R" unicode="R" 
d="M495 375v125h-370v-125h370zM625 0h-125v250h-375v-250h-125v625h625v-250h-125v-125h125v-250z" />
    <glyph glyph-name="S" unicode="S" 
d="M125 500v-125h500v-375h-625v125h500v125h-500v375h625v-125h-500z" />
    <glyph glyph-name="T" unicode="T" 
d="M625 625v-125h-250v-500h-125v500h-250v125h625z" />
    <glyph glyph-name="U" unicode="U" 
d="M500 625h125v-625h-625v625h125v-500h375v500z" />
    <glyph glyph-name="V" unicode="V" 
d="M125 625v-500h-125v500h125zM500 625h125v-500h-125v500zM125 0v125h375v-125h-375z" />
    <glyph glyph-name="W" unicode="W" horiz-adv-x="1000" 
d="M875 0h-875v625h125v-500h250v500h125v-500h250v500h125v-625z" />
    <glyph glyph-name="X" unicode="X" 
d="M625 0h-125v250h-375v-250h-125v250h125v125h-125v250h125v-250h375v250h125v-250h-125v-125h125v-250z" />
    <glyph glyph-name="Y" unicode="Y" 
d="M500 625h125v-375h-250v-250h-125v250h-250v375h125v-250h375v250z" />
    <glyph glyph-name="Z" unicode="Z" 
d="M125 250v-125h500v-125h-625v250h125v125h375v125h-500v125h625v-250h-125v-125h-375z" />
    <glyph glyph-name="bracketleft" unicode="[" horiz-adv-x="375" 
d="M250 625h-125v-625h125v-125h-250v875h250v-125z" />
    <glyph glyph-name="backslash" unicode="\" 
d="M125 625v-125h125v-125h125v-125h125v-125h125v-125h-125v125h-125v125h-125v125h-125v125h-125v125h125z" />
    <glyph glyph-name="bracketright" unicode="]" horiz-adv-x="375" 
d="M0 625v125h250v-875h-250v125h125v625h-125z" />
    <glyph glyph-name="asciicircum" unicode="^" horiz-adv-x="500" 
d="M247 500h-125v-125h-125v125h125v125h125v-125h125v-125h-125v125z" />
    <glyph glyph-name="underscore" unicode="_" 
d="M0 0h625v-125h-625v125z" />
    <glyph glyph-name="grave" unicode="`" horiz-adv-x="375" 
d="M125 500h125v-125h-125v125h-125v125h125v-125z" />
    <glyph glyph-name="a" unicode="a" horiz-adv-x="625" 
d="M0 0v375h125v125h375v-500h-500zM375 370h-250v-240h250v240z" />
    <glyph glyph-name="b" unicode="b" horiz-adv-x="625" 
d="M500 0h-500v625h125v-125h375v-500zM375 375h-250v-250h250v250z" />
    <glyph glyph-name="c" unicode="c" horiz-adv-x="625" 
d="M500 0h-500v500h500v-125h-375v-250h375v-125z" />
    <glyph glyph-name="d" unicode="d" horiz-adv-x="625" 
d="M0 500h375v125h125v-625h-500v500zM125 375v-250h250v250h-250z" />
    <glyph glyph-name="e" unicode="e" horiz-adv-x="625" 
d="M0 500h500v-250h-125v-125h125v-125h-500v500zM250 130v125h125v115h-250v-240h125z" />
    <glyph glyph-name="f" unicode="f" horiz-adv-x="375" 
d="M250 625v-125h-125v-125h125v-125h-125v-250h-125v625h250z" />
    <glyph glyph-name="g" unicode="g" horiz-adv-x="625" 
d="M125 130h250v240h-250v-240zM0 -250v125h375v125h-375v500h500v-750h-500z" />
    <glyph glyph-name="h" unicode="h" horiz-adv-x="625" 
d="M375 375h-250v-375h-125v625h125v-125h375v-500h-125v375z" />
    <glyph glyph-name="i" unicode="i" horiz-adv-x="250" 
d="M0 0v375h125v-375h-125zM0 625h125v-125h-125v125z" />
    <glyph glyph-name="j" unicode="j" horiz-adv-x="375" 
d="M125 625h125v-125h-125v125zM250 -250h-250v125h125v500h125v-625z" />
    <glyph glyph-name="k" unicode="k" horiz-adv-x="625" 
d="M375 0v250h-250v-250h-125v625h125v-250h250v125h125v-125h-125v-125h125v-250h-125z" />
    <glyph glyph-name="l" unicode="l" horiz-adv-x="250" 
d="M0 625h125v-625h-125v625z" />
    <glyph glyph-name="m" unicode="m" horiz-adv-x="1000" 
d="M875 0h-125v375h-250v-375h-125v375h-250v-375h-125v500h875v-500z" />
    <glyph glyph-name="n" unicode="n" horiz-adv-x="625" 
d="M0 500h500v-500h-125v375h-250v-375h-125v500z" />
    <glyph glyph-name="o" unicode="o" horiz-adv-x="625" 
d="M0 0v500h500v-500h-500zM375 375h-250v-250h250v250z" />
    <glyph glyph-name="p" unicode="p" horiz-adv-x="625" 
d="M500 500v-500h-375v-250h-125v750h500zM375 125v250h-250v-250h250z" />
    <glyph glyph-name="q" unicode="q" horiz-adv-x="625" 
d="M0 500v-500h375v-250h125v750h-500zM125 125v250h250v-250h-250z" />
    <glyph glyph-name="r" unicode="r" horiz-adv-x="500" 
d="M375 500v-125h-250v-375h-125v500h375z" />
    <glyph glyph-name="s" unicode="s" horiz-adv-x="625" 
d="M500 375h-250v-125h250v-125h-125v-125h-375v125h250v125h-250v125h125v125h375v-125z" />
    <glyph glyph-name="t" unicode="t" horiz-adv-x="500" 
d="M375 500v-125h-125v-375h-125v375h-125v125h125v125h125v-125h125z" />
    <glyph glyph-name="u" unicode="u" horiz-adv-x="625" 
d="M375 500h125v-500h-500v500h125v-375h250v375z" />
    <glyph glyph-name="v" unicode="v" horiz-adv-x="625" 
d="M125 0v125h-125v375h125v-375h250v375h125v-375h-125v-125h-250z" />
    <glyph glyph-name="w" unicode="w" horiz-adv-x="1000" 
d="M875 500v-500h-875v500h125v-375h250v375h125v-375h250v375h125z" />
    <glyph glyph-name="x" unicode="x" horiz-adv-x="625" 
d="M500 500v-125h-125v-250h125v-125h-125v125h-250v-125h-125v125h125v250h-125v125h125v-125h250v125h125z" />
    <glyph glyph-name="y" unicode="y" horiz-adv-x="625" 
d="M0 -250v125h375v125h-375v500h125v-375h250v375h125v-750h-500z" />
    <glyph glyph-name="z" unicode="z" horiz-adv-x="625" 
d="M250 250v125h-250v125h500v-125h-125v-125h-125v-125h250v-125h-500v125h125v125h125z" />
    <glyph glyph-name="braceleft" unicode="{" horiz-adv-x="500" 
d="M250 0h-125v250h-125v125h125v250h125v125h125v-125h-125v-250h-125v-125h125v-250h125v-125h-125v125z" />
    <glyph glyph-name="bar" unicode="|" horiz-adv-x="500" 
d="M125 750h125v-875h-125v875z" />
    <glyph glyph-name="braceright" unicode="}" horiz-adv-x="500" 
d="M0 0h125v250h125v125h-125v250h-125v125h125v-125h125v-250h125v-125h-125v-250h-125v-125h-125v125z" />
    <glyph glyph-name="asciitilde" unicode="~" horiz-adv-x="625" 
d="M375 500h125v-125h-125v-125h-125v125h-125v-125h-125v125h125v125h125v-125h125v125z" />
    <glyph glyph-name="Adieresis" unicode="&#xc4;" 
d="M125 875h125v-125h-125v125zM375 875h125v-125h-125v125zM0 625h625v-625h-125v250h-375v-250h-125v625zM500 375v125h-375v-125h375z" />
    <glyph glyph-name="Aring" unicode="&#xc5;" 
d="M500 498h-375v-123h375v123zM375 750v-125h250v-625h-125v250h-375v-250h-125v625h250v125h-125v125h125v125h125v-125h125v-125h-125zM250 755h125v115h-125v-115z" />
    <glyph glyph-name="Ccedilla" unicode="&#xc7;" 
d="M125 -250v125h125v125h-250v625h625v-125h-500v-375h500v-125h-250v-250h-250z" />
    <glyph glyph-name="Eacute" unicode="&#xc9;" 
d="M375 875v125h125v-125h-125v-125h-125v125h125zM625 500h-500v-125h375v-125h-375v-125h500v-125h-625v625h625v-125z" />
    <glyph glyph-name="Ntilde" unicode="&#xd1;" 
d="M500 1001h125v-125h-125v-125h-125v125h-125v-125h-125v125h125v125h125v-125h125v125zM0 625h625v-625h-125v500h-375v-500h-125v625z" />
    <glyph glyph-name="Odieresis" unicode="&#xd6;" 
d="M125 875h125v-125h-125v125zM375 875h125v-125h-125v125zM625 625v-625h-625v625h625zM500 125v375h-375v-375h375z" />
    <glyph glyph-name="Udieresis" unicode="&#xdc;" 
d="M125 875h125v-125h-125v125zM375 875h125v-125h-125v125zM500 625h125v-625h-625v625h125v-500h375v500z" />
    <glyph glyph-name="aacute" unicode="&#xe1;" horiz-adv-x="625" 
d="M250 750v125h125v-125h-125v-125h-125v125h125zM0 0v375h125v125h375v-500h-500zM375 370h-250v-240h250v240z" />
    <glyph glyph-name="agrave" unicode="&#xe0;" horiz-adv-x="625" 
d="M250 750h-125v125h125v-125h125v-125h-125v125zM0 0v375h125v125h375v-500h-500zM375 370h-250v-240h250v240z" />
    <glyph glyph-name="acircumflex" unicode="&#xe2;" horiz-adv-x="625" 
d="M375 750h-250v-125h-125v125h125v125h250v-125h125v-125h-125v125zM0 0v375h125v125h375v-500h-500zM375 370h-250v-240h250v240z" />
    <glyph glyph-name="adieresis" unicode="&#xe4;" horiz-adv-x="625" 
d="M0 750h125v-125h-125v125zM375 750h125v-125h-125v125zM0 0v375h125v125h375v-500h-500zM375 370h-250v-240h250v240z" />
    <glyph glyph-name="atilde" unicode="&#xe3;" horiz-adv-x="625" 
d="M375 875h125v-125h-125v-125h-125v125h-125v-125h-125v125h125v125h125v-125h125v125zM0 0v375h125v125h375v-500h-500zM375 370h-250v-240h250v240z" />
    <glyph glyph-name="aring" unicode="&#xe5;" horiz-adv-x="625" 
d="M375 370h-250v-240h250v240zM125 505h250v115h-250v-115zM375 500v-125h125v-375h-500v375h125v125h-125v125h125v125h250v-125h125v-125h-125z" />
    <glyph glyph-name="ccedilla" unicode="&#xe7;" horiz-adv-x="625" 
d="M125 -250v125h125v125h-250v500h500v-125h-375v-250h375v-125h-125v-250h-250z" />
    <glyph glyph-name="eacute" unicode="&#xe9;" horiz-adv-x="625" 
d="M250 750v125h125v-125h-125v-125h-125v125h125zM0 500h500v-250h-125v-125h125v-125h-500v500zM250 130v125h125v115h-250v-240h125z" />
    <glyph glyph-name="egrave" unicode="&#xe8;" horiz-adv-x="625" 
d="M250 750h-125v125h125v-125h125v-125h-125v125zM0 500h500v-250h-125v-125h125v-125h-500v500zM250 130v125h125v115h-250v-240h125z" />
    <glyph glyph-name="ecircumflex" unicode="&#xea;" horiz-adv-x="625" 
d="M375 750h-250v-125h-125v125h125v125h250v-125h125v-125h-125v125zM0 500h500v-250h-125v-125h125v-125h-500v500zM250 130v125h125v115h-250v-240h125z" />
    <glyph glyph-name="edieresis" unicode="&#xeb;" horiz-adv-x="625" 
d="M0 751h125v-125h-125v125zM375 750h125v-125h-125v125zM0 500h500v-250h-125v-125h125v-125h-500v500zM250 130v125h125v115h-250v-240h125z" />
    <glyph glyph-name="iacute" unicode="&#xed;" horiz-adv-x="250" 
d="M125 625v125h125v-125h-125v-125h-125v125h125zM0 0v375h125v-375h-125z" />
    <glyph glyph-name="igrave" unicode="&#xec;" horiz-adv-x="250" 
d="M0 625h-125v125h125v-125h125v-125h-125v125zM0 0v375h125v-375h-125z" />
    <glyph glyph-name="icircumflex" unicode="&#xee;" horiz-adv-x="250" 
d="M125 625h-125v-125h-125v125h125v125h125v-125h125v-125h-125v125zM0 0v375h125v-375h-125z" />
    <glyph glyph-name="idieresis" unicode="&#xef;" horiz-adv-x="250" 
d="M-125 625h125v-125h-125v125zM125 625h125v-125h-125v125zM0 0v375h125v-375h-125z" />
    <glyph glyph-name="ntilde" unicode="&#xf1;" horiz-adv-x="625" 
d="M375 875h125v-125h-125v-125h-125v125h-125v-125h-125v125h125v125h125v-125h125v125zM0 500h500v-500h-125v375h-250v-375h-125v500z" />
    <glyph glyph-name="oacute" unicode="&#xf3;" horiz-adv-x="625" 
d="M250 750v125h125v-125h-125v-125h-125v125h125zM0 0v500h500v-500h-500zM375 375h-250v-250h250v250z" />
    <glyph glyph-name="ograve" unicode="&#xf2;" horiz-adv-x="625" 
d="M250 750h-125v125h125v-125h125v-125h-125v125zM0 0v500h500v-500h-500zM375 375h-250v-250h250v250z" />
    <glyph glyph-name="ocircumflex" unicode="&#xf4;" horiz-adv-x="625" 
d="M375 750h-250v-125h-125v125h125v125h250v-125h125v-125h-125v125zM0 0v500h500v-500h-500zM375 375h-250v-250h250v250z" />
    <glyph glyph-name="odieresis" unicode="&#xf6;" horiz-adv-x="625" 
d="M0 750h125v-125h-125v125zM375 750h125v-125h-125v125zM0 0v500h500v-500h-500zM375 375h-250v-250h250v250z" />
    <glyph glyph-name="otilde" unicode="&#xf5;" horiz-adv-x="625" 
d="M375 875h125v-125h-125v-125h-125v125h-125v-125h-125v125h125v125h125v-125h125v125zM0 0v500h500v-500h-500zM375 375h-250v-250h250v250z" />
    <glyph glyph-name="uacute" unicode="&#xfa;" horiz-adv-x="625" 
d="M250 750v125h125v-125h-125v-125h-125v125h125zM375 500h125v-500h-500v500h125v-375h250v375z" />
    <glyph glyph-name="ugrave" unicode="&#xf9;" horiz-adv-x="625" 
d="M250 750h-125v125h125v-125h125v-125h-125v125zM375 500h125v-500h-500v500h125v-375h250v375z" />
    <glyph glyph-name="ucircumflex" unicode="&#xfb;" horiz-adv-x="625" 
d="M375 750h-250v-125h-125v125h125v125h250v-125h125v-125h-125v125zM375 500h125v-500h-500v500h125v-375h250v375z" />
    <glyph glyph-name="udieresis" unicode="&#xfc;" horiz-adv-x="625" 
d="M0 750h125v-125h-125v125zM375 750h125v-125h-125v125zM375 500h125v-500h-500v500h125v-375h250v375z" />
    <glyph glyph-name="dagger" unicode="&#x2020;" horiz-adv-x="500" 
d="M250 375h125v-125h-125v-250h-125v250h-125v125h125v125h125v-125z" />
    <glyph glyph-name="degree" unicode="&#xb0;" horiz-adv-x="500" 
d="M0 625h375v-375h-375v375zM125 500v-125h125v125h-125z" />
    <glyph glyph-name="cent" unicode="&#xa2;" 
d="M375 0v-125h-125v125h-250v500h250v125h125v-125h250v-125h-500v-250h500v-125h-250z" />
    <glyph glyph-name="sterling" unicode="&#xa3;" 
d="M0 375h125v375h375v-250h-125v125h-125v-250h125v-125h-125v-125h250v125h125v-250h-625v125h125v125h-125v125z" />
    <glyph glyph-name="section" unicode="&#xa7;" horiz-adv-x="500" 
d="M250 125v125h-125v-125h125zM375 625v-125h-250v-125h250v-625h-375v125h250v125h-250v625h375z" />
    <glyph glyph-name="bullet" unicode="&#x2022;" horiz-adv-x="250" 
d="M0 375h125v-125h-125v125z" />
    <glyph glyph-name="paragraph" unicode="&#xb6;" 
d="M375 500v-125h125v125h-125zM250 375v125h-120v-125h120zM250 250h-250v375h625v-625h-125v250h-125v-250h-125v250z" />
    <glyph glyph-name="germandbls" unicode="&#xdf;" horiz-adv-x="625" 
d="M500 625v-250h-125v-125h125v-250h-250v125h125v125h-125v125h125v125h-250v-500h-125v625h500z" />
    <glyph glyph-name="registered" unicode="&#xae;" 
d="M0 625h625v-625h-625v625zM250 375h250v125h-375v-375h125v250z" />
    <glyph glyph-name="copyright" unicode="&#xa9;" 
d="M0 0v625h625v-625h-625zM125 500v-375h375v125h-250v125h250v125h-375z" />
    <glyph glyph-name="trademark" unicode="&#x2122;" horiz-adv-x="1125" 
d="M1000 625v-375h-125v250h-125v-250h-125v250h-125v-250h-125v250h-125v-250h-125v250h-125v125h1000z" />
    <glyph glyph-name="acute" unicode="&#xb4;" horiz-adv-x="375" 
d="M125 500v-125h-125v125h125v125h125v-125h-125z" />
    <glyph glyph-name="dieresis" unicode="&#xa8;" horiz-adv-x="625" 
d="M125 625h125v-125h-125v125zM375 625h125v-125h-125v125z" />
    <glyph glyph-name="AE" unicode="&#xc6;" horiz-adv-x="1250" 
d="M500 375v125h-375v-125h375zM1125 500h-500v-125h375v-125h-375v-125h500v-125h-625v250h-375v-250h-125v625h1125v-125z" />
    <glyph glyph-name="Oslash" unicode="&#xd8;" 
d="M625 625v-625h-625v625h625zM375 375v-125h-125v-125h250v250h-125zM245 375h125v125h-245v-250h120v125z" />
    <glyph glyph-name="plusminus" unicode="&#xb1;" 
d="M0 0h250v250h-250v125h250v250h125v-250h250v-125h-250v-250h250v-125h-625v125z" />
    <glyph glyph-name="yen" unicode="&#xa5;" 
d="M125 125v125h125v125h-250v250h125v-125h375v125h125v-250h-250v-125h125v-125h-125v-125h-125v125h-125z" />
    <glyph glyph-name="mu" unicode="&#xb5;" 
d="M500 125h125v-125h-125v125h-125v-125h-250v-250h-125v750h125v-375h250v375h125v-375z" />
    <glyph glyph-name="mu" unicode="&#x3bc;" 
d="M500 125h125v-125h-125v125h-125v-125h-250v-250h-125v750h125v-375h250v375h125v-375z" />
    <glyph glyph-name="ordfeminine" unicode="&#xaa;" horiz-adv-x="500" 
d="M375 0h-375v125h375v-125zM125 380h125v115h-125v-115zM0 250v250h125v125h250v-375h-375z" />
    <glyph glyph-name="ordmasculine" unicode="&#xba;" horiz-adv-x="500" 
d="M375 0h-375v125h375v-125zM0 625h375v-375h-375v375zM125 500v-125h125v125h-125z" />
    <glyph glyph-name="ae" unicode="&#xe6;" horiz-adv-x="1000" 
d="M375 370h-250v-240h250v240zM875 500v-250h-125v-125h125v-125h-875v375h125v125h750zM625 130v125h125v115h-250v-240h125z" />
    <glyph glyph-name="oslash" unicode="&#xf8;" horiz-adv-x="625" 
d="M0 0v500h500v-500h-500zM375 250h-125v125h-125v-125h125v-125h125v125z" />
    <glyph glyph-name="questiondown" unicode="&#xbf;" horiz-adv-x="625" 
d="M375 375v-125h-250v-125h375v-125h-500v375h375zM375 625v-125h-125v125h125z" />
    <glyph glyph-name="exclamdown" unicode="&#xa1;" horiz-adv-x="375" 
d="M125 500h-125v125h125v-125zM0 0v375h125v-375h-125z" />
    <glyph glyph-name="logicalnot" unicode="&#xac;" 
d="M625 375v-375h-125v250h-500v125h625z" />
    <glyph glyph-name="florin" unicode="&#x192;" horiz-adv-x="375" 
d="M-125 0h125v750h250v-125h-125v-250h125v-125h-125v-375h-250v125z" />
    <glyph glyph-name="guillemotleft" unicode="&#xab;" 
d="M125 375v125h125v-125h-125v-125h125v-125h-125v125h-125v125h125zM500 375v125h125v-125h-125v-125h125v-125h-125v125h-125v125h125z" />
    <glyph glyph-name="guillemotright" unicode="&#xbb;" 
d="M500 375h125v-125h-125v-125h-125v125h125v125h-125v125h125v-125zM125 375h125v-125h-125v-125h-125v125h125v125h-125v125h125v-125z" />
    <glyph glyph-name="ellipsis" unicode="&#x2026;" 
d="M0 125h125v-125h-125v125zM250 125h125v-125h-125v125zM500 125h125v-125h-125v125z" />
    <glyph glyph-name="Agrave" unicode="&#xc0;" 
d="M250 875h125v-125h-125v125h-125v125h125v-125zM0 625h625v-625h-125v250h-375v-250h-125v625zM500 375v125h-375v-125h375z" />
    <glyph glyph-name="Atilde" unicode="&#xc3;" 
d="M500 1001h125v-125h-125v-125h-125v125h-125v-125h-125v125h125v125h125v-125h125v125zM0 625h625v-625h-125v250h-375v-250h-125v625zM500 375v125h-375v-125h375z" />
    <glyph glyph-name="Otilde" unicode="&#xd5;" 
d="M500 1001h125v-125h-125v-125h-125v125h-125v-125h-125v125h125v125h125v-125h125v125zM625 625v-625h-625v625h625zM500 125v375h-375v-375h375z" />
    <glyph glyph-name="OE" unicode="&#x152;" horiz-adv-x="1250" 
d="M499 125v375h-374v-375h374zM1124 500h-499v-125h374v-125h-374v-125h499v-125h-1124v625h1124v-125z" />
    <glyph glyph-name="oe" unicode="&#x153;" horiz-adv-x="1000" 
d="M375 370h-250v-240h250v240zM875 500v-250h-125v-125h125v-125h-875v500h875zM625 130v125h125v115h-250v-240h125z" />
    <glyph glyph-name="endash" unicode="&#x2013;" horiz-adv-x="500" 
d="M375 250h-375v125h375v-125z" />
    <glyph glyph-name="emdash" unicode="&#x2014;" horiz-adv-x="625" 
d="M500 250h-500v125h500v-125z" />
    <glyph glyph-name="quotedblleft" unicode="&#x201c;" horiz-adv-x="500" 
d="M375 625v-250h-125v250h125zM125 375h-125v250h125v-250z" />
    <glyph glyph-name="quotedblright" unicode="&#x201d;" horiz-adv-x="500" 
d="M375 625v-250h-125v250h125zM125 375h-125v250h125v-250z" />
    <glyph glyph-name="quoteleft" unicode="&#x2018;" horiz-adv-x="250" 
d="M125 375h-125v250h125v-250z" />
    <glyph glyph-name="quoteright" unicode="&#x2019;" horiz-adv-x="250" 
d="M125 375h-125v250h125v-250z" />
    <glyph glyph-name="divide" unicode="&#xf7;" 
d="M625 250h-625v125h625v-125zM375 500h-125v125h125v-125zM375 0h-125v125h125v-125z" />
    <glyph glyph-name="ydieresis" unicode="&#xff;" horiz-adv-x="625" 
d="M0 751h125v-125h-125v125zM375 750h125v-125h-125v125zM0 -250v125h375v125h-375v500h125v-375h250v375h125v-750h-500z" />
    <glyph glyph-name="Ydieresis" unicode="&#x178;" 
d="M125 875h125v-125h-125v125zM375 875h125v-125h-125v125zM500 625h125v-375h-250v-250h-125v250h-250v375h125v-250h375v250z" />
    <glyph glyph-name="currency" unicode="&#xa4;" horiz-adv-x="875" 
d="M0 250v125h125v250h625v-125h-500v-125h375v-125h-375v-125h500v-125h-625v250h-125z" />
    <glyph glyph-name="guilsinglleft" unicode="&#x2039;" horiz-adv-x="375" 
d="M125 500h125v-125h-125v-125h125v-125h-125v125h-125v125h125v125z" />
    <glyph glyph-name="guilsinglright" unicode="&#x203a;" horiz-adv-x="375" 
d="M0 500h125v-125h125v-125h-125v-125h-125v125h125v125h-125v125z" />
    <glyph glyph-name="daggerdbl" unicode="&#x2021;" horiz-adv-x="500" 
d="M375 375h-125v-125h125v-125h-125v-250h-125v250h-125v125h125v125h-125v125h125v250h125v-250h125v-125z" />
    <glyph glyph-name="periodcentered" unicode="&#xb7;" horiz-adv-x="250" 
d="M0 375h125v-125h-125v125z" />
    <glyph glyph-name="periodcentered" unicode="&#x2219;" horiz-adv-x="250" 
d="M0 375h125v-125h-125v125z" />
    <glyph glyph-name="quotesinglbase" unicode="&#x201a;" horiz-adv-x="250" 
d="M-125 -125h125v250h125v-250h-125v-125h-125v125z" />
    <glyph glyph-name="quotedblbase" unicode="&#x201e;" horiz-adv-x="500" 
d="M125 -125h125v250h125v-250h-125v-125h-125v125h-125v-125h-125v125h125v250h125v-250z" />
    <glyph glyph-name="perthousand" unicode="&#x2030;" 
d="M250 0v125h-125v-125h-125v125h125v125h125v125h125v125h125v125h125v-125h-125v-125h-125v-125h-125v-125h125v-125h-125zM125 625v-125h-125v125h125zM500 0v125h125v-125h-125z" />
    <glyph glyph-name="Acircumflex" unicode="&#xc2;" 
d="M375 875h-125v-125h-125v125h125v125h125v-125h125v-125h-125v125zM0 625h625v-625h-125v250h-375v-250h-125v625zM500 375v125h-375v-125h375z" />
    <glyph glyph-name="Ecircumflex" unicode="&#xca;" 
d="M625 500h-500v-125h375v-125h-375v-125h500v-125h-625v625h625v-125zM375 875h-125v-125h-125v125h125v125h125v-125h125v-125h-125v125z" />
    <glyph glyph-name="Aacute" unicode="&#xc1;" 
d="M375 875v125h125v-125h-125v-125h-125v125h125zM0 625h625v-625h-125v250h-375v-250h-125v625zM500 375v125h-375v-125h375z" />
    <glyph glyph-name="Edieresis" unicode="&#xcb;" 
d="M625 500h-500v-125h375v-125h-375v-125h500v-125h-625v625h625v-125zM125 875h125v-125h-125v125zM375 875h125v-125h-125v125z" />
    <glyph glyph-name="Egrave" unicode="&#xc8;" 
d="M625 500h-500v-125h375v-125h-375v-125h500v-125h-625v625h625v-125zM250 875h125v-125h-125v125h-125v125h125v-125z" />
    <glyph glyph-name="Iacute" unicode="&#xcd;" horiz-adv-x="250" 
d="M125 875v125h125v-125h-125v-125h-125v125h125zM0 0v625h125v-625h-125z" />
    <glyph glyph-name="Icircumflex" unicode="&#xce;" horiz-adv-x="250" 
d="M125 875h-125v-125h-125v125h125v125h125v-125h125v-125h-125v125zM0 0v625h125v-625h-125z" />
    <glyph glyph-name="Idieresis" unicode="&#xcf;" horiz-adv-x="250" 
d="M-125 875h125v-125h-125v125zM125 875h125v-125h-125v125zM0 0v625h125v-625h-125z" />
    <glyph glyph-name="Igrave" unicode="&#xcc;" horiz-adv-x="250" 
d="M0 875h-125v125h125v-125h125v-125h-125v125zM0 0v625h125v-625h-125z" />
    <glyph glyph-name="Oacute" unicode="&#xd3;" 
d="M375 875v125h125v-125h-125v-125h-125v125h125zM625 625v-625h-625v625h625zM500 125v375h-375v-375h375z" />
    <glyph glyph-name="Ocircumflex" unicode="&#xd4;" 
d="M375 875h-125v-125h-125v125h125v125h125v-125h125v-125h-125v125zM625 625v-625h-625v625h625zM500 125v375h-375v-375h375z" />
    <glyph glyph-name="Ograve" unicode="&#xd2;" 
d="M250 875h125v-125h-125v125h-125v125h125v-125zM625 625v-625h-625v625h625zM500 125v375h-375v-375h375z" />
    <glyph glyph-name="Uacute" unicode="&#xda;" 
d="M375 875v125h125v-125h-125v-125h-125v125h125zM500 625h125v-625h-625v625h125v-500h375v500z" />
    <glyph glyph-name="Ucircumflex" unicode="&#xdb;" 
d="M375 875h-125v-125h-125v125h125v125h125v-125h125v-125h-125v125zM500 625h125v-625h-625v625h125v-500h375v500z" />
    <glyph glyph-name="Ugrave" unicode="&#xd9;" 
d="M250 875h125v-125h-125v125h-125v125h125v-125zM500 625h125v-625h-625v625h125v-500h375v500z" />
    <glyph glyph-name="circumflex" unicode="&#x2c6;" horiz-adv-x="500" 
d="M247 500h-125v-125h-125v125h125v125h125v-125h125v-125h-125v125z" />
    <glyph glyph-name="tilde" unicode="&#x2dc;" horiz-adv-x="625" 
d="M375 500h125v-125h-125v-125h-125v125h-125v-125h-125v125h125v125h125v-125h125v125z" />
    <glyph glyph-name="macron" unicode="&#xaf;" horiz-adv-x="500" 
d="M375 500h-375v125h375v-125z" />
    <glyph glyph-name="macron" unicode="&#x2c9;" horiz-adv-x="500" 
d="M375 500h-375v125h375v-125z" />
    <glyph glyph-name="cedilla" unicode="&#xb8;" horiz-adv-x="375" 
d="M125 -125v-125h-125v125h125v125h125v-125h-125z" />
    <glyph glyph-name="Scaron" unicode="&#x160;" 
d="M375 875h-125v125h-125v-125h125v-125h125v125h125v125h-125v-125zM125 500v-125h500v-375h-625v125h500v125h-500v375h625v-125h-500z" />
    <glyph glyph-name="scaron" unicode="&#x161;" horiz-adv-x="625" 
d="M500 375h-250v-125h250v-125h-125v-125h-375v125h250v125h-250v125h125v125h375v-125zM375 750h-250v125h-125v-125h125v-125h250v125h125v125h-125v-125z" />
    <glyph glyph-name="brokenbar" unicode="&#xa6;" horiz-adv-x="250" 
d="M125 625v-250h-125v250h125zM125 250v-250h-125v250h125z" />
    <glyph glyph-name="Eth" unicode="&#xd0;" horiz-adv-x="875" 
d="M250 375h125v-125h-125v-125h370v375h-370v-125zM0 375h125v250h500v-125h125v-375h-125v-125h-500v250h-125v125z" />
    <glyph glyph-name="eth" unicode="&#xf0;" horiz-adv-x="625" 
d="M130 250v-125h245v125h-245zM500 625v-125h-125v-125h125v-375h-500v375h250v125h-125v125h375z" />
    <glyph glyph-name="Yacute" unicode="&#xdd;" 
d="M250 750h125v125h125v125h-125v-125h-125v-125zM500 625h125v-375h-250v-250h-125v250h-250v375h125v-250h375v250z" />
    <glyph glyph-name="yacute" unicode="&#xfd;" horiz-adv-x="625" 
d="M125 625h125v125h125v125h-125v-125h-125v-125zM0 -250v125h375v125h-375v500h125v-375h250v375h125v-750h-500z" />
    <glyph glyph-name="Thorn" unicode="&#xde;" horiz-adv-x="625" 
d="M125 250h245v125h-245v-125zM0 625h125v-125h375v-375h-375v-125h-125v625z" />
    <glyph glyph-name="thorn" unicode="&#xfe;" horiz-adv-x="625" 
d="M125 125h245v125h-245v-125zM0 625h125v-250h375v-375h-375v-250h-125v875z" />
    <glyph glyph-name="minus" unicode="&#xad;" horiz-adv-x="625" 
d="M0 250v125h500v-125h-500z" />
    <glyph glyph-name="minus" unicode="&#x2212;" horiz-adv-x="625" 
d="M0 250v125h500v-125h-500z" />
    <glyph glyph-name="multiply" unicode="&#xd7;" horiz-adv-x="625" 
d="M500 500v-125h-125v-250h125v-125h-125v125h-250v-125h-125v125h125v250h-125v125h125v-125h250v125h125z" />
    <glyph glyph-name="onesuperior" unicode="&#xb9;" horiz-adv-x="250" 
d="M0 625h125v-500h-125v500z" />
    <glyph glyph-name="twosuperior" unicode="&#xb2;" horiz-adv-x="500" 
d="M0 625h250v-125h125v-125h-125v-125h125v-125h-375v125h125v125h125v125h-250v125z" />
    <glyph glyph-name="threesuperior" unicode="&#xb3;" horiz-adv-x="500" 
d="M250 500h125v-250h-125v-125h-250v125h250v125h-125v125h-125v125h250v-125z" />
    <glyph glyph-name="onehalf" unicode="&#xbd;" horiz-adv-x="1000" 
d="M125 625v-375h125v125h125v125h125v125h125v-125h125v-125h125v-125h-125v-125h125v-125h-375v125h125v125h125v125h-375v-125h-125v-125h-125v-125h-125v125h125v125h-125v375h125z" />
    <glyph glyph-name="onequarter" unicode="&#xbc;" horiz-adv-x="1000" 
d="M500 625h125v-125h-125v-125h125v-125h125v106h125v-356h-125v125h-250v250h-125v-125h-125v-125h-125v-125h-125v125h125v125h-125v375h125v-375h125v125h125v125h125v125z" />
    <glyph glyph-name="threequarters" unicode="&#xbe;" horiz-adv-x="1125" 
d="M250 500h125v-125h125v125h125v125h125v-125h-125v-125h125v-125h125v125h125v-375h-125v125h-250v250h-125v-125h-125v-125h-125v-125h-125v125h-125v125h250v125h-125v125h-125v125h250v-125z" />
    <glyph glyph-name="Lslash" unicode="&#x141;" 
d="M250 125h375v-125h-500v125h-125v125h125v375h125v-125h125v-125h-125v-250z" />
    <glyph glyph-name="lslash" unicode="&#x142;" horiz-adv-x="500" 
d="M250 500h125v-125h-125v-375h-125v125h-125v125h125v375h125v-125z" />
    <glyph glyph-name="Zcaron" unicode="&#x17d;" 
d="M375 875h-125v125h-125v-125h125v-125h125v125h125v125h-125v-125zM125 250v-125h500v-125h-625v250h125v125h375v125h-500v125h625v-250h-125v-125h-375z" />
    <glyph glyph-name="zcaron" unicode="&#x17e;" horiz-adv-x="625" 
d="M250 250v125h-250v125h500v-125h-125v-125h-125v-125h250v-125h-500v125h125v125h125zM375 750h-250v125h-125v-125h125v-125h250v125h125v125h-125v-125z" />
    <glyph glyph-name="notequal" unicode="&#x2260;" 
d="M625 375h-250v-125h250v-125h-375v-125h-125v125h-125v125h250v125h-250v125h375v125h125v-125h125v-125z" />
    <glyph glyph-name="infinity" unicode="&#x221e;" 
d="M250 255v115h-125v-115h125zM500 250v-125h-125v125h-125v-125h-125v125h-125v125h125v125h125v-125h125v125h125v-125h125v-125h-125zM375 255h125v115h-125v-115z" />
    <glyph glyph-name="lessequal" unicode="&#x2264;" horiz-adv-x="625" 
d="M0 0v125h500v-125h-500zM0 500h250v125h250v-125h-250v-125h250v-125h-250v125h-250v125z" />
    <glyph glyph-name="greaterequal" unicode="&#x2265;" horiz-adv-x="625" 
d="M500 0h-500v125h500v-125zM500 500v-125h-250v-125h-250v125h250v125h-250v125h250v-125h250z" />
    <glyph glyph-name="partialdiff" unicode="&#x2202;" horiz-adv-x="500" 
d="M125 130h125v115h-125v-115zM125 625h125v-125h125v-125h-125v-125h125v-125h-125v-125h-125v125h-125v125h125v125h125v125h-125v125z" />
    <glyph glyph-name="summation" unicode="&#x2211;" 
d="M625 250v-250h-625v125h125v125h125v125h-125v125h-125v125h625v-250h-125v125h-250v-125h125v-125h-125v-125h250v125h125z" />
    <glyph glyph-name="product" unicode="&#x220f;" 
d="M0 625h625v-125h-125v-500h-125v500h-125v-500h-125v500h-125v125z" />
    <glyph glyph-name="pi" unicode="&#x3c0;" 
d="M0 500h625v-125h-125v-375h-125v375h-125v-375h-125v375h-125v125z" />
    <glyph glyph-name="integral" unicode="&#x222b;" horiz-adv-x="375" 
d="M-125 0h125v625h125v125h125v-125h-125v-625h-125v-125h-125v125z" />
    <glyph glyph-name="Omega" unicode="&#x3a9;" 
d="M500 0h125v-125h-125v125h-125v125h125v500h125v-500h-125v-125zM0 0h125v125h-125v500h125v-500h125v-125h-125v-125h-125v125zM500 750v-125h-375v125h375z" />
    <glyph glyph-name="Omega" unicode="&#x2126;" 
d="M500 0h125v-125h-125v125h-125v125h125v500h125v-500h-125v-125zM0 0h125v125h-125v500h125v-500h125v-125h-125v-125h-125v125zM500 750v-125h-375v125h375z" />
    <glyph glyph-name="radical" unicode="&#x221a;" 
d="M500 500h125v-125h-125v-125h-125v-125h-125v-125h-125v125h-125v125h125v-125h125v125h125v125h125v125z" />
    <glyph glyph-name="approxequal" unicode="&#x2248;" 
d="M500 750h125v-125h-125v-124h-125v124h-250v-124h-125v124h125v125h250v-125h125v125zM500 374h125v-124h-125v-125h-125v125h-250v-125h-125v125h125v124h250v-124h125v124z" />
    <glyph glyph-name="approxequal" unicode="&#x22f2;" 
d="M500 750h125v-125h-125v-124h-125v124h-250v-124h-125v124h125v125h250v-125h125v125zM500 374h125v-124h-125v-125h-125v125h-250v-125h-125v125h125v124h250v-124h125v124z" />
    <glyph glyph-name="Delta" unicode="&#x394;" 
d="M125 250v250h125v125h125v-125h125v-250h125v-250h-625v250h125zM495 250h-120v245h-125v-245h-120v-125h365v125z" />
    <glyph glyph-name="Delta" unicode="&#x2206;" 
d="M125 250v250h125v125h125v-125h125v-250h125v-250h-625v250h125zM495 250h-120v245h-125v-245h-120v-125h365v125z" />
    <glyph glyph-name="lozenge" unicode="&#x25ca;" horiz-adv-x="500" 
d="M250 250v-125h-125v125h-125v125h125v125h125v-125h125v-125h-125zM125 255h125v115h-125v-115z" />
    <glyph glyph-name="fraction" unicode="&#x2044;" 
d="M500 625h125v-125h-125v-125h-125v-125h-125v-125h-125v-125h-125v125h125v125h125v125h125v125h125v125z" />
    <glyph glyph-name="fi" unicode="&#xf001;" horiz-adv-x="625" 
d="M500 625v-125h-375v-125h375v-375h-125v250h-250v-250h-125v625h500z" />
    <glyph glyph-name="fl" unicode="&#xf002;" horiz-adv-x="625" 
d="M375 375v125h-245v-125h245zM500 625v-625h-125v250h-250v-250h-125v625h500z" />
    <glyph glyph-name="apple" unicode="&#xf000;" horiz-adv-x="3000" 
d="M1750 375h625v-375h-125v250h-125v-250h-125v250h-125v-250h-125v375zM1500 375h125v-375h-125v375zM1000 375h375v-375h-125v250h-125v-250h-125v375zM750 375h125v-375h-125v375zM0 375h625v-375h-125v250h-125v-250h-125v250h-125v-250h-125v375zM2875 0h-375v375h125
v-250h250v-125z" />
    <glyph glyph-name="dotlessi" unicode="&#x131;" horiz-adv-x="250" 
d="M0 0v375h125v-375h-125z" />
    <glyph glyph-name="breve" unicode="&#x2d8;" horiz-adv-x="500" 
d="M125 500h125v125h125v-125h-125v-125h-125v125h-125v125h125v-125z" />
    <glyph glyph-name="dotaccent" unicode="&#x2d9;" horiz-adv-x="250" 
d="M0 375h125v-125h-125v125z" />
    <glyph glyph-name="ring" unicode="&#x2da;" horiz-adv-x="500" 
d="M250 250v-125h-125v125h-125v125h125v125h125v-125h125v-125h-125zM125 255h125v115h-125v-115z" />
    <glyph glyph-name="hungarumlaut" unicode="&#x2dd;" horiz-adv-x="500" 
d="M375 625v-250h-125v250h125zM125 375h-125v250h125v-250z" />
    <glyph glyph-name="ogonek" unicode="&#x2db;" horiz-adv-x="375" 
d="M125 0v-125h-125v125h125v125h125v-125h-125zM125 -125h125v-125h-125v125z" />
    <glyph glyph-name="caron" unicode="&#x2c7;" horiz-adv-x="500" 
d="M125 500h125v125h125v-125h-125v-125h-125v125h-125v125h125v-125z" />
  </font>
</defs>
</svg>
