<?xml version="1.0" standalone="no"?>
<!DOCTYPE svg PUBLIC "-//W3C//DTD SVG 1.1//EN" "http://www.w3.org/Graphics/SVG/1.1/DTD/svg11.dtd" >
<svg xmlns="http://www.w3.org/2000/svg" xmlns:xlink="http://www.w3.org/1999/xlink" version="1.1">
<metadata>
Created by FontForge 20200427 at Sat Oct  5 08:55:04 2002
 By www
(c) Copyright 1996 Autodesk, Inc.  All rights reserved
</metadata>
<defs>
<font id="GothicE" horiz-adv-x="1303" >
  <font-face 
    font-family="GothicE"
    font-weight="400"
    font-stretch="normal"
    units-per-em="2048"
    panose-1="0 0 4 0 0 0 0 0 0 0"
    ascent="1638"
    descent="-410"
    x-height="1040"
    cap-height="1540"
    bbox="-26 -523 2288 2040"
    underline-thickness="20"
    underline-position="-143"
    unicode-range="U+0020-E001"
    descenders="ghjpqyPQY"
    invert="1"
    licence="GothicE -Font made from http://www.onlinewebfonts.com oNline Web Fonts is licensed by CC BY 3.0"
  />
<missing-glyph horiz-adv-x="1024" 
d="M128 0v1538h768v-1538h-768zM256 128h512v1282h-512v-1282z" />
    <glyph glyph-name=".notdef" horiz-adv-x="1024" 
d="M128 0v1538h768v-1538h-768zM256 128h512v1282h-512v-1282z" />
    <glyph glyph-name=".null" horiz-adv-x="0" 
 />
    <glyph glyph-name="nonmarkingreturn" horiz-adv-x="1518" 
 />
    <glyph glyph-name="space" unicode=" " horiz-adv-x="1518" 
 />
    <glyph glyph-name="space" unicode="&#xa0;" horiz-adv-x="1518" 
 />
    <glyph glyph-name="lessequal" unicode="&#x2264;" horiz-adv-x="1805" 
d="M1671 348l-1273 600l1273 600v-108l-1052 -492l1052 -491v-109zM1671 72h-1251v104h1251v-104z" />
    <glyph glyph-name="mu" unicode="&#xb5;" horiz-adv-x="1661" 
d="M1655 0h-375v233q-7 -16 -17 -36.5t-24 -46.5q-21 -22 -39.5 -40.5l-35.5 -35.5l-150 -74h-225l-4 2q-59 25 -144 72l-51 51l-25 27l-67 202l-119 -705l-221 -148l-21 27l142 139l213 1207l-43 87l-88 43h-68v32h375v-731q17 -49 34 -100.5t36 -108.5l63 -63h205l45 22
l92 47l68 68l18 36t51 101v697h-198v32h374v-872l43 -88l88 -43h68v-33z" />
    <glyph glyph-name="mu" unicode="&#x3bc;" horiz-adv-x="1661" 
d="M1655 0h-375v233q-7 -16 -17 -36.5t-24 -46.5q-21 -22 -39.5 -40.5l-35.5 -35.5l-150 -74h-225l-4 2q-59 25 -144 72l-51 51l-25 27l-67 202l-119 -705l-221 -148l-21 27l142 139l213 1207l-43 87l-88 43h-68v32h375v-731q17 -49 34 -100.5t36 -108.5l63 -63h205l45 22
l92 47l68 68l18 36t51 101v697h-198v32h374v-872l43 -88l88 -43h68v-33z" />
    <glyph glyph-name="Ydieresis" unicode="&#x178;" horiz-adv-x="1661" 
d="M1397 1661l-172 -86l-172 86l172 170zM824 1661l-172 -86l-173 86l173 170zM1692 1378l-164 -82v-1498q-17 -35 -35.5 -72.5t-38.5 -76.5q-2 -3 -153 -154l-51 27l-103 49l-188 47q-14 5 -38 11.5t-57 13.5h-489l418 104h434l205 -68l63 127v206l-133 199
q-89 -27 -201 -66l-221 -146l-51 24l-100 51l-142 47q-17 8 -69 22h-283l197 99v475h-121l-94 -94v188l82 82h133v410q-16 32 -33.5 66.5t-36.5 70.5l-141 141l158 -78q11 -5 30.5 -15t48.5 -24l76 -75l74 -150v-991h254v999q39 10 95 28t130 46l92 47q8 3 19.5 9t27.5 16
q13 10 154 151q68 -68 113 -95q5 -4 39.5 -21.5t99.5 -49.5zM1352 1030v270l-59 58l-43 -23l-91 -43l-204 -69v-193l131 -65h135zM1352 616v377l-123 -61h-152l-122 61v-377l122 62h152zM1352 244v336l-131 65h-135l-131 -65v-336l198 -68z" />
    <glyph glyph-name="dotlessi" unicode="&#x131;" horiz-adv-x="730" 
d="M762 176l-182 -181l-160 159v641l-164 82q35 17 77 38.5t93 47.5q9 6 82 79q73 -73 82 -79q3 -2 45.5 -23t124.5 -63l-164 -82v-557l62 -62h104z" />
    <glyph glyph-name="exclam" unicode="!" horiz-adv-x="873" 
d="M832 1378l-164 -82l-72 -780h-33l-71 780l-164 82q35 17 77 38.5t93 47.5q3 2 23.5 22t58.5 58q68 -68 113 -95q5 -4 39.5 -21.5t99.5 -49.5zM752 84l-172 -85l-172 85l172 170z" />
    <glyph glyph-name="quotedbl" unicode="&#x22;" horiz-adv-x="1375" 
d="M1170 1518l-76 -152l-148 -74l-16 29l135 68v127l-149 149l170 172l84 -168v-151zM668 1518l-76 -152l-147 -74l-17 29l135 68v127l-149 149l170 172l84 -168v-151z" />
    <glyph glyph-name="numbersign" unicode="#" horiz-adv-x="1590" 
d="M1528 717h-272l-82 -326h282v-104h-309l-196 -788h-105l197 788h-326l-197 -788h-104l197 788h-265v104h291l82 326h-301v104h326l180 717h104l-178 -717h324l180 717h104l-178 -717h246v-104zM1151 717h-325l-82 -326h325z" />
    <glyph glyph-name="dollar" unicode="$" horiz-adv-x="1446" 
d="M1385 299q-14 -29 -32.5 -66.5t-41.5 -82.5l-72 -72l-2 -4l-211 -70v-273h-32v269h-254v-269h-33v273l-207 70q-19 18 -38.5 37t-39.5 39q-14 29 -32.5 66l-41.5 83v164h177v-176h-105v88h33v-56h39v111h-111v-123q13 -26 30 -60.5t40 -76.5q6 -9 65 -68l191 -63v731
q-16 5 -31.5 10.5t-32.5 10.5l-219 147l-76 149v226l152 151l207 70v274h33v-270h254v270h32v-274l207 -70q37 -36 78 -75q14 -29 32.5 -66.5t41.5 -83.5v-164h-176v176h104v-88h-33v56h-39v-111h111v123q-13 26 -30 60.5t-40 76.5q-6 9 -65 68l-191 63v-659
q16 -5 31.5 -10.5t32.5 -10.5l219 -147l76 -150v-223zM994 852v653h-254v-569zM707 946v553l-187 -63l-67 -133v-136l67 -135q34 -19 80.5 -40t106.5 -46zM1280 236v206l-67 136q-34 19 -80.5 40t-106.5 46v-625l187 63zM994 33v641l-254 84v-725h254z" />
    <glyph glyph-name="percent" unicode="%" horiz-adv-x="1590" 
d="M1618 1538l-1317 -1538h-114l1247 1456l-277 -166h-223l-123 82v-141l-76 -154q-54 -17 -109.5 -35.5t-115.5 -37.5h-149q-31 14 -68 32t-82 41l-78 80v154l76 153l225 74h150q56 -32 145 -74q4 -2 31.5 -11t79.5 -26l100 -32h209l354 143h115zM1671 227l-75 -153
q-68 -23 -124 -41.5t-102 -32.5h-149q-31 14 -68 32.5t-82 41.5q-17 18 -36.5 38t-40.5 42v153l75 154q68 23 124 41.5t102 32.5h149q31 -14 68 -32.5t82 -41.5q17 -18 36.5 -38t40.5 -42v-154zM635 1239v135l-65 131h-127q-63 -63 -64 -65q-3 -5 -20.5 -39t-49.5 -98v-136
l66 -131h127q57 57 77 89q14 29 28 57t28 57zM1495 236v135l-65 131h-127q-54 -54 -76 -91q-2 -4 -16.5 -31.5t-40.5 -80.5v-135l65 -131h127q63 63 64 65z" />
    <glyph glyph-name="ampersand" unicode="&#x26;" horiz-adv-x="1876" 
d="M1858 315l-78 -157q-5 -11 -15 -31t-24 -49l-80 -78h-153l-50 25l-100 49q-4 3 -49 49l-96 98q-9 10 -45 66l-88 133l-431 -427l-307 384l430 428l-286 287l381 456l309 -387l-283 -282q20 -17 52 -51t77 -85l144 -190l417 418l78 -78h60l137 139l-78 -158
q-5 -11 -15 -30.5t-24 -48.5l-80 -78h-84l-100 100l-291 -291q26 -32 74 -102t119 -180l137 -68h205zM1059 1094l-258 323l-199 -237l267 -277zM1061 449l-90 135l-17 25.5t-28 41.5l-131 131l-336 -338l266 -331z" />
    <glyph glyph-name="quotesingle" unicode="'" horiz-adv-x="873" 
d="M668 1518l-76 -152l-147 -74l-17 29l135 68v127l-149 149l170 180l84 -176v-151z" />
    <glyph glyph-name="parenleft" unicode="(" horiz-adv-x="1016" 
d="M879 -472l-25 -25q-69 68 -145 148l-96 143q-14 19 -48 72l-96 191q-9 14 -21 38.5t-28 58.5l-47 241q-1 2 -4.5 17t-11.5 43q-9 33 -9 61v291q0 28 9 61q4 14 7.5 28.5t8.5 31.5l47 241q2 4 6.5 13.5t12.5 25.5q8 17 15.5 31t14.5 27l96 192q7 12 48 72l96 143l145 148
l25 -25l-141 -139l-95 -238q-7 -16 -18.5 -44.5t-28.5 -71.5l-47 -285q-3 -17 -15 -72q-9 -41 -9 -72v-425q0 -32 9 -72q12 -56 15 -72l47 -285q2 -7 7.5 -24t15.5 -46q8 -27 25.5 -74t45.5 -115l48 -92z" />
    <glyph glyph-name="parenright" unicode=")" horiz-adv-x="1016" 
d="M955 516q0 -28 -9 -61q-4 -14 -7.5 -28.5t-8.5 -31.5l-47 -241q-7 -13 -19 -37.5t-30 -59.5l-96 -191l-48 -72l-96 -143q-6 -9 -145 -148l-25 25l141 141l48 92q8 17 26 64t45 125q4 10 9.5 27t13.5 43l47 285q3 16 15 72q9 40 9 72v425q0 31 -9 72q-12 55 -15 72
l-47 285q-7 16 -18.5 44.5t-28.5 71.5l-95 238l-141 139l25 25l145 -148l96 -143q15 -18 48 -72l96 -192q9 -14 21 -38.5t28 -58.5l47 -241q1 -2 4.5 -17t11.5 -43q9 -33 9 -61v-291z" />
    <glyph glyph-name="asterisk" unicode="*" horiz-adv-x="1160" 
d="M1098 860h-94l-256 193l65 -326l-90 -88l-90 88l66 326l-256 -193h-95v98l330 134l-330 133v98h95l256 -193l-66 326l90 88l90 -88l-65 -326l256 193h94v-98l-330 -133l330 -134v-98z" />
    <glyph glyph-name="plus" unicode="+" horiz-adv-x="1805" 
d="M1671 645h-573v-573h-104v573h-574v105h574v573h104v-573h573v-105z" />
    <glyph glyph-name="comma" unicode="," horiz-adv-x="873" 
d="M668 -58l-76 -152l-147 -74l-17 29l135 68v127l-149 148l170 172l84 -168v-150z" />
    <glyph glyph-name="period" unicode="." horiz-adv-x="873" 
d="M752 84l-172 -85l-172 85l172 170z" />
    <glyph glyph-name="slash" unicode="/" horiz-adv-x="1661" 
d="M1684 1825l-1309 -2326h-111l1309 2326h111z" />
    <glyph glyph-name="zero" unicode="0" horiz-adv-x="1446" 
d="M1510 1395l-197 -99v-1153h-158l-237 -47q-32 -6 -117 -24q-5 -1 -154 -75l-77 77q-53 25 -138 69h-209l197 99v1153h158l237 47q31 6 117 24q7 2 154 76l78 -78l36 -18t101 -51h209zM1137 174v1122q-27 12 -61 29t-76 39l-68 68l-336 -68v-1122q27 -12 61 -29t76 -39
l68 -68z" />
    <glyph glyph-name="one" unicode="1" horiz-adv-x="1446" 
d="M1223 176l-135 -67q-20 -11 -37 -19.5l-31 -15.5q-6 -5 -82 -79q-73 72 -96 86q-1 1 -31.5 16t-91.5 46h-137l196 99v917q-13 28 -30 62t-39 75l-84 84l248 166l82 -164v-1140l131 -66h137z" />
    <glyph glyph-name="two" unicode="2" horiz-adv-x="1446" 
d="M1473 168l-172 -169l-221 73h-355q-26 -5 -119.5 -24t-257.5 -51v380q17 52 35.5 106.5t38.5 114.5l150 150q53 18 108 36t113 37h344v547l-193 76l7 -6l-74 -74l-150 -74h-151l-209 105h209q28 13 61.5 30t75.5 39q8 6 78 76l366 -145h156v-607h-516q-16 -5 -68 -22.5
t-141 -46.5l-137 -137l-70 -209v-330l176 88q13 8 35 19.5t53 25.5l195 47q5 1 16.5 5t31.5 11q25 9 48 9h219q22 -5 101 -25t217 -55z" />
    <glyph glyph-name="three" unicode="3" horiz-adv-x="1446" 
d="M1313 143h-158q-13 -4 -36 -10t-58 -14l-188 -47l-103 -49l-51 -26l-78 77l-36 18t-101 51h-209l209 105h152q29 -14 66.5 -32.5t82.5 -41.5l66 -68l266 66v477q-102 29 -169 55t-101 48l-64 -33l-16 29l43 22l-43 21l16 28l64 -33q34 22 101 48t169 55v477l-266 66
l-142 -142h-153l-209 105h137q28 13 61.5 30t75.5 39l78 78l51 -26l103 -50l188 -47q13 -4 36 -10t58 -14h158v-535h-158q-8 -1 -211 -69q-7 -4 -17 -9l-24 -12q7 -5 17 -10l24 -12q45 -16 97.5 -33.5t113.5 -36.5h158v-535z" />
    <glyph glyph-name="four" unicode="4" horiz-adv-x="1446" 
d="M1528 336l-94 94h-264v-188l131 -66h137l-135 -67q-20 -11 -37 -19.5l-31 -15.5q-6 -5 -82 -79q-73 72 -96 86q-1 1 -31.5 16t-91.5 46h-137l197 99v188h-646v381l734 733l163 -162l-75 -151v-768h264l94 94v-221zM994 463v948l-469 -469v-479h469z" />
    <glyph glyph-name="five" unicode="5" horiz-adv-x="1446" 
d="M1510 965l-197 -99v-723h-158q-13 -4 -36 -10t-58 -14l-188 -47l-103 -49l-51 -26l-78 77l-36 18t-101 51h-209l209 105h152q29 -14 66.5 -32.5t82.5 -41.5l66 -68l266 66v694l-131 66h-66l-286 -72h-234v678h916q-20 -22 -45 -47.5t-56 -54.5q-29 -14 -66.5 -32.5
t-82.5 -41.5h-633v-469h196q22 0 48 9q11 4 22.5 7.5t24.5 8.5l188 47l94 45q21 10 45 24l56 53l26 27q38 -38 58.5 -58t23.5 -22l36 -18t101 -51h138z" />
    <glyph glyph-name="six" unicode="6" horiz-adv-x="1446" 
d="M1510 893l-197 -98v-652h-158l-237 -47q-32 -6 -117 -24q-5 -1 -154 -75l-77 77q-53 25 -138 69h-209l197 99v1153h158q13 4 36 10t58 14l188 47l154 76l78 -78l36 -18t101 -51h137l-209 -105h-153l-142 142l-266 -66v-545h53l189 47q18 5 41.5 11t52.5 14l94 45
q15 7 26 13.5t19 11.5l56 53l26 26q71 -71 97 -87q8 -7 122 -62h138zM1137 174v621l-131 65h-66l-286 -72h-58v-546q27 -12 61 -29t76 -39l68 -68z" />
    <glyph glyph-name="seven" unicode="7" horiz-adv-x="1446" 
d="M1471 1526l-107 -201q-7 -16 -20 -41t-33 -59q-10 -10 -28.5 -28t-45.5 -44l-143 -143q-2 -2 -19.5 -28.5t-51.5 -77.5l-70 -107l-48 -140q-22 -63 -22 -69v-211q17 -52 35.5 -106.5t38.5 -114.5l-168 -169l-82 242v220q3 10 24 73l50 148q1 2 12.5 19.5t34.5 51.5
l98 146q5 7 80 67q63 49 63 76v2l144 142q10 9 27 27t42 44l127 240l-12 -2l-158 -80q-26 -16 -80 -41l-194 -47q-5 -1 -16.5 -5t-31.5 -11q-26 -9 -48 -9h-220q-22 5 -100.5 25t-216.5 55l172 170l221 -74h355q-7 0 18.5 4.5t83.5 12.5l205 30q11 5 22 11t23 12z" />
    <glyph glyph-name="eight" unicode="8" horiz-adv-x="1446" 
d="M1510 1395l-197 -99v-436h-158l-241 -90l241 -92h158v-535h-158l-237 -47q-32 -6 -117 -24q-5 -1 -154 -75l-77 77q-53 25 -138 69h-209l197 99v436h158l241 92l-241 90h-158v463h158q27 6 57 12t62 13l235 47l140 70q6 4 81 79q38 -38 58.5 -58t23.5 -22l36 -18t101 -51
h138zM1137 889v407l-131 66h-66l-344 -70v-403l271 -103zM1137 174v475l-270 103l-271 -103v-407q27 -12 61 -29t76 -39l68 -68z" />
    <glyph glyph-name="nine" unicode="9" horiz-adv-x="1446" 
d="M1510 1395l-197 -99v-1153h-158q-13 -4 -36 -10t-58 -14l-188 -47l-103 -49l-51 -26l-78 77l-36 18t-101 51h-209l209 105h152q29 -14 66.5 -32.5t82.5 -41.5l66 -68l266 66v541l-336 -68l-139 -70q-11 -8 -82 -79q-71 71 -97 87q-8 7 -122 62h-138l197 98v652h158
l237 47q31 6 117 24q7 2 154 76l78 -78l36 -18t101 -51h209zM1137 748v548q-27 12 -61 29t-76 39l-68 68l-336 -68v-621l131 -65h66z" />
    <glyph glyph-name="colon" unicode=":" horiz-adv-x="873" 
d="M752 872l-172 -86l-172 86l172 170zM752 84l-172 -85l-172 85l172 170z" />
    <glyph glyph-name="semicolon" unicode=";" horiz-adv-x="873" 
d="M752 872l-172 -86l-172 86l172 170zM668 -58l-76 -152l-147 -74l-17 29l135 68v127l-149 148l170 172l84 -168v-150z" />
    <glyph glyph-name="less" unicode="&#x3c;" horiz-adv-x="1733" 
d="M1600 -11l-1196 673l1196 673v-110l-987 -563l987 -564v-109z" />
    <glyph glyph-name="equal" unicode="=" horiz-adv-x="1805" 
d="M1671 932h-1251v104h1251v-104zM1671 358h-1251v105h1251v-105z" />
    <glyph glyph-name="greater" unicode="&#x3e;" horiz-adv-x="1733" 
d="M1616 662l-1196 -673v109l987 564l-987 563v110z" />
    <glyph glyph-name="question" unicode="?" 
d="M1241 1087l-73 -149l-148 -147q-11 -5 -45.5 -23t-93.5 -47l-86 -254l-94 283h159q29 29 63.5 63t72.5 74q5 11 22.5 45t46.5 92v279l-67 135l-136 67h-135l-135 -67l-67 -135v-166l-183 90q15 33 35 73.5t45 88.5q34 34 78 75l221 74h150q2 -1 56 -19.5t163 -54.5
q37 -36 78 -75q14 -29 32 -66.5t41 -83.5v-152zM967 84l-172 -85l-172 85l172 170z" />
    <glyph glyph-name="at" unicode="@" horiz-adv-x="2020" 
d="M1958 657l-24 -49l-50 -100l-75 -76q-27 -14 -62 -31t-80 -39l-2 -4h-88l-4 2q-29 14 -64.5 31.5t-78.5 40.5l-78 80v8l-43 -86l-152 -76h-153l-4 2q-59 25 -144 72l-75 76q-14 29 -32.5 66l-41.5 83v150q17 52 35.5 106.5t38.5 114.5l77 78l217 74h154l154 -76l24 -76
l19 152h176l-74 -727l61 -62h56l137 275v208l-47 142q-3 10 -9 27t-14 42q-1 2 -18.5 36.5l-52.5 103.5l-92 94q-23 24 -48 45l-280 141h-135l-95 -47l-186 -94q-12 -9 -47 -45l-92 -94l-72 -140q-2 -10 -8 -27t-14 -42l-47 -142v-210l47 -142q3 -9 8.5 -26t13.5 -43
q1 -2 72 -140l92 -94q6 -6 18 -17t29 -28l281 -141h137q7 2 24 7t46 15l141 47l92 48q17 7 47 24l47 45l23 25l24 -25q-17 -18 -35.5 -36.5l-37.5 -37.5q-23 -14 -59.5 -32t-88.5 -39q-76 -31 -130.5 -49t-88.5 -25h-152l-190 49q-13 2 -37 8t-59 15q-31 15 -68 33t-80 40
l-98 99q-8 8 -20.5 20t-28.5 29l-72 147q-5 19 -11 37t-13 37l-50 145v220l50 145q3 10 9 28.5t15 45.5q1 4 72 147l49 49l98 99l148 73q13 3 37 9t59 14l192 49h154l191 -49q13 -2 37 -8t59 -15q31 -15 67.5 -33t79.5 -40l99 -99q8 -8 20.5 -20t28.5 -29l71 -147
q4 -10 10 -28.5t15 -45.5l49 -145v-222zM1397 952l-43 127l-133 68h-133l-135 -135l-70 -209v-209q13 -26 30 -60.5t40 -76.5q6 -9 63 -66h133l135 68l68 135q1 4 5 34t11 87z" />
    <glyph glyph-name="A" unicode="A" horiz-adv-x="1590" 
d="M1757 248l-165 -248h-86l-80 78l-219 495h-535l-139 -325h123l168 -84l-172 -169l-78 77h-207q-76 -25 -145.5 -47.5t-133.5 -43.5l131 128q8 9 24.5 25.5l39.5 39.5l149 74h66l301 702l-18 -10l-68 135h-127l-66 -67l-24 24l74 74q29 14 66 32.5l83 41.5h82l68 -66
l47 111l-64 143l-63 66h-131l-138 -140l-24 25l151 147l144 72h153l80 -78l502 -1147l63 -65h168zM1192 606l-258 580l-248 -580h506z" />
    <glyph glyph-name="B" unicode="B" horiz-adv-x="1733" 
d="M1022 1581l-221 -219h-225l-140 70l-227 -113l221 219h226l139 -70zM1671 215h-155l-137 -70q-6 -4 -150 -148l-152 75h-352q-26 -7 -119.5 -30.5t-257.5 -63.5l197 131q13 9 37.5 25.5t60.5 39.5l148 49q2 1 11 4.5t25 11.5q19 9 37 9h291q13 -5 26.5 -9.5t27.5 -9.5
v658q35 17 72 36.5t77 39.5q4 3 38 36.5t99 98.5v202q-63 63 -65 64q-5 3 -37.5 20t-95.5 48l-271 -136v-639q-14 -32 -32 -69t-41 -80q-20 -20 -46 -44.5t-57 -55.5v688q14 30 32.5 67t41.5 82l51 49l25 27l440 219l156 -78l75 -151v-154q-30 -32 -67 -69.5t-82 -81.5
q-28 -14 -58 -28.5t-63 -31.5l195 -131l75 -149v-451zM668 514q-14 -32 -32.5 -69t-41.5 -80q-20 -20 -45.5 -45t-56.5 -56v453h-121l-94 -94v188l82 82h133v59q14 32 32 69t41 81q20 20 46 44.5t57 55.5v-688zM1495 678v51l-133 199l-121 -62v-188h254zM1495 463v182h-254
v-182h254zM1495 242v188h-254v-211l125 -41z" />
    <glyph glyph-name="C" unicode="C" horiz-adv-x="1733" 
d="M1786 530l-117 -237l-49 -49l-98 -99l-148 -71q-7 -2 -25 -8.5t-48 -16.5l-146 -49h-219q-19 0 -38 9q-16 7 -25 11t-11 5l-147 49q-10 7 -28 19t-44 30l-147 98q-17 31 -35.5 67.5t-38.5 80.5q-1 2 -10.5 31t-28.5 84l-35 104v291l50 145q3 10 9 28.5t15 45.5
q1 4 72 147l98 98q7 8 19 20.5t30 29.5l238 116l-72 -69l-141 -144q-3 -3 -25 -47l-47 -92l-47 -141q-11 -32 -16 -49t-6 -21v-282l69 -209l209 -209l209 -70h211l201 68v1046h-131l-136 68l-59 -58v-714q-14 -32 -32.5 -69t-41.5 -81q-20 -20 -45.5 -44.5t-56.5 -55.5v909
q29 14 66.5 33t82.5 43l222 221l151 -76h133l137 140l-118 -240l-140 -70v-1038q29 14 58.5 29t58.5 30q8 6 25.5 23.5l46.5 46.5z" />
    <glyph glyph-name="D" unicode="D" horiz-adv-x="1661" 
d="M1528 215h-156l-137 -70l-149 -148l-152 75h-352q-26 -7 -119.5 -30.5t-257.5 -63.5l98 65l197 131l221 74h201v1114h-418q-32 14 -69 32.5t-80 41.5q-20 20 -45 45.5t-56 56.5h1047l151 -76l76 -151v-1096zM740 586q-14 -32 -32.5 -69t-41.5 -81q-20 -20 -46 -44.5
t-57 -55.5v381h-120l-95 -94v188l82 82h133v59q14 32 32.5 69t41.5 81q20 20 46 44.5t57 55.5v-616zM1352 1030v270l-62 62h-335v-332l131 -65h135zM1352 616v377l-123 -61h-152l-122 61v-377l122 62h152zM1352 242v338l-131 65h-135l-131 -65v-332h57q2 -1 55 -18t156 -52z
" />
    <glyph glyph-name="E" unicode="E" horiz-adv-x="1733" 
d="M951 1581l-222 -219h-153l-140 70l-227 -113l221 219h154l139 -70zM1616 168l-172 -169l-221 73h-498q-26 -7 -119.5 -30.5t-257.5 -63.5l199 131q13 9 37.5 25.5t60.5 39.5q48 11 98.5 24t106.5 27v797l49 145q3 10 9 28.5t16 45.5q37 95 72 148l51 49q7 10 24 26
l150 74h149l244 -82l-170 -170l-151 76h-136q-26 -13 -60.5 -30t-76.5 -40q-3 -2 -19.5 -18t-47.5 -47l-70 -209v-471q10 41 32 95.5t56 123.5q3 7 9 19t16 30q18 17 37.5 36.5l41.5 41.5h154l168 -84l-172 -170l-78 78h-131l-63 -64l-70 -209v-211q13 4 26 7.5t27 7.5h363
q22 -5 100.5 -25t216.5 -55zM668 514q-14 -32 -32.5 -69t-41.5 -80q-20 -20 -45.5 -45t-56.5 -56v453h-121l-94 -94v188l82 82h133v59q14 32 32 69t41 81q20 20 46 44.5t57 55.5v-688z" />
    <glyph glyph-name="F" unicode="F" horiz-adv-x="1661" 
d="M1166 1581l-222 -219h-225l-139 70l-228 -113l222 219h225l139 -70zM1858 1606l-119 -240l-152 -76h-131v-987h-32v414h-183v-418l-75 -152q-74 -35 -150 -75h-2l-143 -72h-152l-143 72h-137q-76 -25 -145.5 -47.5t-133.5 -43.5l131 128q8 9 24.5 25.5l39.5 39.5l149 74
h152l286 -144h62l61 62v1079l150 76q14 15 32.5 33.5l40.5 40.5l148 147l151 -76h134zM883 586q-14 -32 -32.5 -69t-41.5 -81q-20 -20 -45.5 -44.5t-56.5 -55.5v381h-121l-94 -94v188l82 82h133v59q14 32 32.5 69t41.5 81q20 20 45.5 44.5t56.5 55.5v-616zM1424 893v403
l-123 62l-60 -58v-407h183z" />
    <glyph glyph-name="G" unicode="G" horiz-adv-x="1805" 
d="M1743 371q-17 -35 -35.5 -72.5t-38.5 -77.5l-149 -147q-54 -18 -108.5 -36.5t-110.5 -37.5q-4 0 -21 -5v5h-272q-49 17 -103.5 35.5t-117.5 38.5h-2q-34 17 -70 34.5t-74 36.5l-19 19t-30 31l-98 98l-72 147q-5 19 -11 37t-13 37l-50 145v220l50 145q3 10 9 28.5t15 45.5
q1 4 72 147l98 98q7 8 19 20.5t30 29.5l238 116l-72 -69l-141 -144q-3 -3 -25 -47l-47 -92l-47 -141q-11 -32 -16 -49t-6 -21v-354q2 -7 7 -24t15 -46l47 -141l47 -92q3 -8 9 -19.5t16 -27.5l92 -92l45 -48l209 -69h268v833l-53 27h59l246 442l-88 -45h-151l-136 68l-59 -58
v-786q-14 -32 -32.5 -69t-41.5 -80q-20 -20 -45.5 -45t-56.5 -56v981q30 14 67 33t82 43l222 221l151 -76h133l150 150l-140 -248l5 -4l-9 -4l-258 -467h119q30 -14 67.5 -32.5t82.5 -41.5l75 -76l74 -149v-223zM1557 606l-19 39l-41 78l-67 68l-31 15.5t-86 43.5v-244h244z
M1567 391v182h-254v-182h254zM1567 307v51h-254v-315q23 10 52 24.5t65 34.5l67 68z" />
    <glyph glyph-name="H" unicode="H" horiz-adv-x="1733" 
d="M1612 1454l-172 -170l-150 150h-131l-133 -134v-643q-14 -32 -32 -69t-41 -80q-20 -20 -46 -44.5t-57 -55.5v688q14 29 32.5 66.5t41.5 82.5l70 68l155 153l144 72h151zM1022 1581l-221 -219h-225l-140 70l-227 -113l221 219h226l139 -70zM1671 516l-73 -291
q-1 -2 -62 -94l-125 -185l82 484h-252v-297l-12 6l-143 -142l-152 75h-227l-363 -96l201 133q13 9 37.5 25.5t60.5 39.5l148 49q2 1 11 4.5t25 11.5q19 9 37 9h222l123 -62v701q35 17 72.5 36.5t76.5 39.5q12 9 154 151l86 -86l73 -221v-291zM668 514q-14 -32 -32.5 -69
t-41.5 -80q-20 -20 -45.5 -45t-56.5 -56v453h-121l-94 -94v188l82 82h133v59q14 32 32 69t41 81q20 20 46 44.5t57 55.5v-688zM1495 678v123l-65 131h-58l-131 -66v-188h254zM1495 463v182h-254v-182h254z" />
    <glyph glyph-name="I" unicode="I" horiz-adv-x="1375" 
d="M1166 1581l-222 -219h-223l-211 70l-229 -113l221 219h223q28 -9 80.5 -26.5l130.5 -43.5zM883 586q-14 -32 -32.5 -69t-41.5 -81q-20 -20 -45.5 -44.5t-56.5 -55.5v381h-121l-94 -94v188l82 82h133v59q14 32 32.5 69t41.5 81q20 20 45.5 44.5t56.5 55.5v-616zM1356 1462
l-115 -231v-860l-73 -150q-29 -29 -65 -64.5t-79 -78.5l-4 -6h-6l-143 -72h-224l-143 72h-207l-231 -114l145 142q10 13 28 31t44 43l149 74h152l287 -144h129l65 132v786q17 52 35.5 106.5t38.5 114.5z" />
    <glyph glyph-name="J" unicode="J" horiz-adv-x="1446" 
d="M1237 1581l-221 -219h-223l-211 70l-230 -113l222 219h223q28 -9 80.5 -26.5l130.5 -43.5zM1428 1462l-115 -231v-860q-17 -35 -35.5 -72.5t-38.5 -77.5l-149 -147l-221 -74h-220q-52 17 -106.5 35.5t-114.5 38.5l-151 151v156l82 82h84l88 -88l-88 -88h-78v32h65l56 56
l-56 55h-59l-62 -61v-131l136 -136l209 -69h210l205 69l68 134v786q17 52 35.5 106.5t38.5 114.5zM955 586q-14 -32 -32.5 -69t-41.5 -81q-20 -20 -46 -44.5t-57 -55.5v381h-120l-95 -94v188l82 82h133v59q14 32 32.5 69t41.5 81q20 20 46 44.5t57 55.5v-616z" />
    <glyph glyph-name="K" unicode="K" horiz-adv-x="1733" 
d="M1612 1454l-172 -170l-150 150h-131l-133 -134v-643q-14 -32 -32 -69t-41 -80q-20 -20 -46 -44.5t-57 -55.5v688q17 37 35.5 74t38.5 75q2 2 29 29.5t80 80.5l110 109l71 35.5t79 38.5h151zM1022 1581l-221 -219h-225l-140 70l-227 -113l221 219h226l139 -70zM1766 104
l-105 -104h-84l-80 80l-71 430l-58 57l-127 -127v-307l-12 6l-143 -142l-152 75h-209q-26 -7 -119.5 -30.5t-257.5 -63.5l197 131q13 9 37.5 25.5t60.5 39.5l148 49q2 1 11 4.5t25 11.5q19 9 37 9h222l123 -62v697l231 231q38 -38 58.5 -58t23.5 -22q5 -4 21.5 -12.5
t45.5 -22.5l136 -67h-62l-92 -139q-6 -10 -18 -27t-29 -43q-2 -4 -34 -36l-93 -93l129 -64l74 -292l65 -134h101zM668 514q-14 -32 -32.5 -69t-41.5 -80q-20 -20 -45.5 -45t-56.5 -56v453h-121l-94 -94v188l82 82h133v59q14 32 32 69t41 81q20 20 46 44.5t57 55.5v-688z
M1624 932h-116l-136 67l-131 -129v-385l105 105l-62 59l80 -39q27 25 60.5 58t74.5 75q8 14 18.5 30t22.5 34z" />
    <glyph glyph-name="L" unicode="L" horiz-adv-x="1590" 
d="M1022 1581l-221 -219h-225l-140 70l-227 -113l221 219h226l139 -70zM1616 168l-172 -169l-221 73h-498q-26 -7 -119.5 -30.5t-257.5 -63.5l297 196l32 8t65 17l194 49h344v1186h-121l-133 -134v-643q-14 -32 -32 -69t-41 -80q-20 -20 -46 -44.5t-57 -55.5v688
q17 37 35.5 74t38.5 75q2 2 29 29.5t80 80.5l110 109l71 35.5t79 38.5h151l168 -84l-172 -170l-127 127v-1167zM668 514q-14 -32 -32.5 -69t-41.5 -80q-20 -20 -45.5 -45t-56.5 -56v453h-121l-94 -94v188l82 82h133v59q14 32 32 69t41 81q20 20 46 44.5t57 55.5v-688z" />
    <glyph glyph-name="M" unicode="M" horiz-adv-x="2020" 
d="M2052 176l-182 -181l-160 159v563h-182v-492q-26 -30 -78 -78q-40 -26 -96 -63.5t-131 -86.5l-164 163l78 78v479h-182v-490q-14 -30 -32.5 -67t-41.5 -82l-80 -78h-82l-143 72h-207l-232 -114l146 142q10 13 28 31t44 43l149 74h152l143 -72h61l62 62v1124h-49
l-133 -133v-572q-14 -32 -32.5 -69t-41.5 -80q-20 -20 -46 -44.5t-57 -55.5v309h-120l-95 -94v188l82 82h133v131q64 137 144 217l303 303l287 -287l286 287l303 -303v-934l66 -131h100zM1710 893v264l-182 182v-446h182zM1495 238v1124h-49l-133 -133v-922l66 -131h55z
M1137 893v264l-182 182v-446h182z" />
    <glyph glyph-name="N" unicode="N" horiz-adv-x="1805" 
d="M1929 1606l-118 -240l-152 -76h-59v-1299q-40 19 -82 39.5t-88 43.5q-11 11 -48 47.5t-100 99.5l-141 285l-135 67h-279l-131 -65v-260h203l168 -84l-172 -169l-78 77h-207l-278 -91l131 128q8 9 24 25.5t39 39.5l137 68v475h-120l-95 -94v188l82 82h133v541h-120
l-138 -140l-24 25q60 63 145 145q33 17 70.5 35.5t79.5 38.5h151l150 -76l147 -219l43 -96l23 -47l4 4l70 -70l36 -18t101 -51h135l131 65v260h-59l-168 84l168 168l151 -76h133zM1567 199v794l-123 -61h-151q-16 8 -38.5 19t-52.5 25q-71 35 -79 52l174 -383
q11 -26 32.5 -73t53.5 -117q1 -3 47 -72l94 -141zM1120 553l-131 307q-32 77 -66.5 150t-70.5 145q-2 5 -37 57.5t-102 153.5l-117 57v-878l123 61h295z" />
    <glyph glyph-name="O" unicode="O" horiz-adv-x="1876" 
d="M1815 659l-49 -145q-3 -10 -9 -28.5t-16 -45.5q-2 -5 -72 -147l-98 -98q-7 -8 -19.5 -20.5l-29.5 -29.5l-146 -71l-221 -74h-147l-146 49q-10 3 -28.5 9t-44.5 16q-2 1 -39 18.5t-109 52.5l-98 99q-8 8 -20.5 20t-28.5 29l-72 147q-5 19 -11 37t-13 37l-50 145v291
l50 146q3 10 9 28.5t15 44.5q1 3 72 148l98 98q7 8 19 20.5t30 28.5l238 117l-72 -70l-141 -143q-3 -3 -25 -47l-47 -92l-47 -142q-11 -32 -16 -49.5t-6 -19.5v-426q2 -7 7 -24t15 -46l47 -141l47 -92q3 -8 9 -19.5t16 -27.5l92 -92l45 -48q44 -16 96 -33t113 -36h139
l209 69l137 138l138 342l-127 63h-64l-131 -65v-492h-33v1331q-31 -22 -78.5 -53.5t-111.5 -73.5l-64 -20v-758q-14 -32 -32 -69t-41 -80l-103 -101v983q49 15 104.5 33.5t118.5 40.5l207 137v19l13 -7l71 72q37 -18 76.5 -37.5t81.5 -40.5q99 -98 147 -147l72 -148
q2 -7 8.5 -25t16.5 -48l49 -146v-291zM1632 1026l-204 340l-115 57v-393l131 -65h64zM1639 616v377l-123 -61h-80l-123 61v-377l123 62h80z" />
    <glyph glyph-name="P" unicode="P" horiz-adv-x="1590" 
d="M1456 221l-143 -71v-13l-12 4l-144 -144l-151 75h-123v-341h-33v1545l-182 -121v-1502l-176 -176v589l-309 -102l309 204v549h-121l-94 -94v188l82 82h133v410q-16 32 -33.5 66.5t-36.5 70.5l-141 141l158 -78q11 -5 30.5 -15t48.5 -24l76 -75l74 -150v-45q61 38 133 88
t156 113l198 149l301 -303v-1020zM1280 1030v127l-205 205h-108l-84 -64v-268l131 -65h135zM1280 616v377l-123 -61h-151l-123 61v-377l123 62h151zM1280 182v398l-131 65h-135l-131 -65v-332h201q42 -14 90.5 -30.5t105.5 -35.5z" />
    <glyph glyph-name="Q" unicode="Q" horiz-adv-x="1876" 
d="M1815 659l-49 -145q-3 -10 -9 -28.5t-16 -45.5q-2 -5 -72 -147l-98 -98q-7 -8 -19.5 -20.5l-29.5 -29.5l-272 -135l135 -179q50 -67 84 -106t53 -52l137 -69h107l-105 -105h-153l-152 76l-213 425h-209l-98 49l-195 96l-19 19t-30 31l-98 98l-72 147q-5 19 -11 37t-13 37
l-50 145v291l50 146q3 10 9 28.5t15 44.5q1 3 72 148l98 98q7 8 19 20.5t30 28.5l238 117l-72 -70l-141 -143q-3 -3 -25 -47l-47 -92l-47 -142q-11 -32 -16 -49.5t-6 -19.5v-426l47 -141q3 -10 8.5 -27t13.5 -43q1 -3 72 -139l139 -140l42 -21t87 -44l70 67h82l139 -69
l65 32.5t68 34.5q3 2 139 138l138 342l-127 63h-64l-131 -65v-492h-33v1331q-31 -22 -78.5 -53.5t-111.5 -73.5l-64 -20v-758q-14 -32 -32 -69t-41 -80l-103 -101v983q49 15 104.5 33.5t118.5 40.5l207 137v19l13 -7l71 72q37 -18 76.5 -37.5t81.5 -40.5q99 -98 147 -147
l72 -148q2 -7 8.5 -25t16.5 -48l49 -146v-291zM1632 1026l-204 340l-115 57v-393l131 -65h64zM1639 616v377l-123 -61h-80l-123 61v-377l123 62h80zM1114 33l-39 39h-59l-39 -39h137z" />
    <glyph glyph-name="R" unicode="R" horiz-adv-x="1733" 
d="M1766 176l-183 -181l-157 157l-144 430l-133 131l-127 -64q-27 -59 -69 -141l-103 -100v688l25 49l49 100l2 2q4 3 10 9t15 14l49 49l145 96q10 7 28 19.5t44 29.5q2 1 39 20t112 56l156 -78l76 -151v-224q-14 -30 -32.5 -67t-41.5 -82l-76 -76q-12 -5 -34 -16l-54 -27
l-172 -86l39 -18l78 -39q4 -5 23.5 -25t56.5 -57q11 -21 27 -49.5t38 -63.5l144 -239q13 -14 29 -30l36 -36h105zM1022 1581l-221 -219h-225l-140 70l-227 -113l221 219h226l139 -70zM668 514q-14 -32 -32.5 -69t-41.5 -80q-20 -20 -45.5 -45t-56.5 -56v453h-121l-94 -94
v188l82 82h133v59q14 32 32 69t41 81q20 20 46 44.5t57 55.5v-688zM1256 166l-170 -169l-152 75h-209q-26 -7 -119.5 -30.5t-257.5 -63.5l197 131q13 9 37.5 25.5t60.5 39.5l148 49q2 1 11 4.5t25 11.5q19 9 37 9h148zM1424 1024v207l-68 135l-129 66l-201 -134v-610
q27 11 92 49.5t168 104.5l70 45z" />
    <glyph glyph-name="S" unicode="S" horiz-adv-x="1661" 
d="M1671 727l-73 -96l-146 -195q-13 -20 -37 -55.5t-59 -89.5l-197 -294l-223 75h-354q-26 -7 -119.5 -30.5t-257.5 -63.5l199 131q14 11 38.5 27.5t59.5 37.5q2 1 74.5 19.5t216.5 54.5h219q108 -35 219 -72l-10 -29l135 205q23 29 70 103l69 209v135q-57 57 -65 63
q-5 3 -39 20.5t-98 49.5h-347l-120 -182h333l82 -82v-82l-104 -209v131l-131 65h-277q-29 -31 -63.5 -66t-75.5 -75l-149 -74h-93v127l93 -90q55 25 129 66q4 2 32 30l82 82h-180l-152 76l-75 152v114q19 -20 43.5 -44t54.5 -52q11 -6 45.5 -23t91.5 -46h275l121 182h-187
q-46 16 -100.5 34t-120.5 40q-38 36 -78 75l-76 154l74 149l80 80l221 74h291q22 -5 100.5 -25t216.5 -55l-108 -108q-9 -8 -22.5 -21t-32.5 -33q-11 -17 -21 -32.5t-20 -30.5l-84 -125h403l152 -76l75 -151v-154zM1133 1305l-35.5 35.5t-15.5 14.5q-14 11 -58 34l-92 47
q-19 10 -45 19t-58 19l-106 31l-207 -69l-63 -64v-131l63 -63l209 -70h277z" />
    <glyph glyph-name="T" unicode="T" horiz-adv-x="1733" 
d="M1811 1581l-146 -143q-20 -24 -71 -74l-138 -68v-1038q29 14 58.5 29t58.5 30q8 6 25.5 23.5l46.5 46.5l141 143l-117 -237l-49 -49l-98 -99l-148 -71q-7 -2 -25 -8.5t-48 -16.5l-146 -49h-219q-8 2 -34 11t-70 24l-115 39q-2 1 -38.5 19.5t-108.5 53.5l-99 148
q-8 11 -20.5 28.5t-28.5 43.5l-49 147q-1 2 -5 11t-11 25q-9 19 -9 38v291q0 15 38 115q36 94 34 102l74 147l28 -16l-69 -140v-352q2 -7 7 -24t15 -45l47 -140q7 -10 19 -27.5t29 -43.5l92 -140q29 -16 63.5 -33t75.5 -36q2 -1 29.5 -10.5t81.5 -26.5l100 -33h211l201 68
v1046h-201q-19 6 -38.5 12.5t-41.5 14.5l23 -23l-68 -65v-643q-14 -32 -32.5 -69t-41.5 -81q-20 -20 -45.5 -44.5t-56.5 -55.5v838q29 14 66.5 32.5t82.5 42.5q3 2 20.5 19t49.5 49q-173 58 -348 117h-209q-32 -16 -66.5 -33.5t-70.5 -36.5q-3 -2 -142 -141l119 239l152 76
h293q34 0 72 -9q31 -7 48.5 -11t22.5 -5l287 -47h280z" />
    <glyph glyph-name="U" unicode="U" horiz-adv-x="1733" 
d="M1022 1581l-221 -219h-152l-210 70l-230 -113l221 219h152q28 -9 80.5 -26.5l130.5 -43.5zM1766 176l-183 -181l-147 144q-44 -24 -133 -65q-7 -2 -35.5 -12t-79.5 -27l-104 -35h-220q-52 17 -106.5 35.5t-114.5 38.5l-49 49l-100 98q-3 3 -25 49l-47 99l-49 145
q-2 4 -5.5 13t-10.5 23q-9 19 -9 38v291q0 17 9 37q7 14 11 23t5 13l49 146q4 8 15 31t30 61l92 186l-106 -430v-211q2 -5 7 -22.5t15 -46.5l47 -142l48 -92q7 -17 24 -47l92 -92l45 -47l209 -70h269v1110l-203 -51h20v-649q-14 -32 -32 -69t-41 -81q-20 -20 -46 -44.5
t-57 -55.5v760l76 153l197 49q13 3 37 9t59 16l139 70l154 151q68 -68 113 -95q5 -4 39.5 -21.5t99.5 -49.5l-164 -82v-989l65 -131h101zM1424 965v335l-60 58l-123 -62v-331h183zM1424 678v254h-183v-254h183zM1424 244v401h-183v-463z" />
    <glyph glyph-name="V" unicode="V" horiz-adv-x="1661" 
d="M1692 1378l-164 -82v-1081h-158q-60 -20 -112 -37t-97 -33l-221 -146l-51 24l-100 51l-142 47q-17 8 -69 22h-283l197 99v475h-121l-94 -94v188l82 82h133v410q-16 32 -33.5 66.5t-36.5 70.5l-141 141l158 -78q11 -5 30.5 -15t48.5 -24l76 -75l74 -150v-991h254v999
q39 10 95 28t130 46l92 47q8 3 19.5 9t27.5 16q13 10 154 151q68 -68 113 -95q5 -4 39.5 -21.5t99.5 -49.5zM1352 1030v270l-59 58l-43 -23l-91 -43l-204 -69v-193l131 -65h135zM1352 616v377l-123 -61h-152l-122 61v-377l122 62h152zM1352 244v336l-131 65h-135l-131 -65
v-336l198 -68z" />
    <glyph glyph-name="W" unicode="W" horiz-adv-x="1948" 
d="M1815 219l-223 -74l-156 -156l-80 158l-133 66l-205 -68l-151 -150l-80 79q-49 17 -101 34.5t-108 34.5h-283l197 99v475h-121l-94 -94v188l82 82h133v340q-17 49 -34 100.5t-36 108.5l-141 139l158 -78q11 -5 30.5 -15t48.5 -24l76 -75l74 -150v-991h182v1138l234 156
l157 -158v-1136h183v1138l233 156l158 -158v-1165zM1639 965v335l-62 62h-121v-397h183zM1639 678v254h-183v-254h183zM1065 965v335l-61 62h-121v-397h182zM1639 238v407h-183v-403l123 -62zM1065 678v254h-182v-254h182zM1065 238v407h-182v-403l123 -62z" />
    <glyph glyph-name="X" unicode="X" horiz-adv-x="1590" 
d="M1714 1606l-118 -240l-152 -76h-154l-55 53l-211 -473l-28 13l292 661l156 -78h133zM1667 219l-151 -147l-144 -72h-153l-80 78l-574 1290l-63 66h-131l-137 -140l-25 25q31 32 67 67.5t79 77.5l149 74h154l80 -78l282 -639h348v-33h-334l277 -618l63 -66h132l137 140z
M795 788h-287v33h287v-33zM881 655l-143 -336q-56 -132 -150 -324l-156 77h-133l-137 -139l119 239l151 76h154l59 -60l207 480z" />
    <glyph glyph-name="Y" unicode="Y" horiz-adv-x="1661" 
d="M1692 1378l-164 -82v-1498q-17 -35 -35.5 -72.5t-38.5 -76.5q-2 -3 -153 -154l-51 27l-103 49l-188 47q-14 5 -38 11.5t-57 13.5h-489l418 104h434l205 -68l63 127v206l-133 199q-89 -27 -201 -66l-221 -146l-51 24l-100 51l-142 47q-17 8 -69 22h-283l197 99v475h-121
l-94 -94v188l82 82h133v410q-16 32 -33.5 66.5t-36.5 70.5l-141 141l158 -78q11 -5 30.5 -15t48.5 -24l76 -75l74 -150v-991h254v999q39 10 95 28t130 46l92 47q8 3 19.5 9t27.5 16q13 10 154 151q68 -68 113 -95q5 -4 39.5 -21.5t99.5 -49.5zM1352 1030v270l-59 58l-43 -23
l-91 -43l-204 -69v-193l131 -65h135zM1352 616v377l-123 -61h-152l-122 61v-377l122 62h152zM1352 244v336l-131 65h-135l-131 -65v-336l198 -68z" />
    <glyph glyph-name="Z" unicode="Z" horiz-adv-x="1446" 
d="M1479 1546l-160 -213q-11 -14 -31 -40.5t-49 -65.5q-2 -3 -49 -97l-94 -190l-94 -119h295v-33h-322l-453 -565q-11 -23 -23 -47.5t-26 -50.5q36 22 101 51l194 47q5 1 16.5 5t31.5 11q25 9 48 9h291q22 -5 101 -25t217 -55l-172 -169l-221 73h-426l-400 -79l160 212
q11 14 31 40.5t49 65.5q2 3 49 97l94 190q2 4 13.5 20t33.5 44l97 126h-273v33h297q7 10 19 26.5t30 39.5l357 428q11 23 23.5 47.5t25.5 50.5q-36 -22 -101 -51l-194 -47q-5 -1 -16.5 -5t-31.5 -11q-26 -9 -48 -9h-291q-22 5 -101 25t-217 55l172 170l222 -74h426
q28 5 127 25t272 55z" />
    <glyph glyph-name="bracketleft" unicode="[" horiz-adv-x="1016" 
d="M955 -501h-535v2326h535v-105h-430v-2116h430v-105z" />
    <glyph glyph-name="backslash" unicode="\" horiz-adv-x="1661" 
d="M1540 -501h-110l-1309 2326h111z" />
    <glyph glyph-name="bracketright" unicode="]" horiz-adv-x="1016" 
d="M883 -501h-535v105h430v2116h-430v105h535v-2326z" />
    <glyph glyph-name="asciicircum" unicode="^" horiz-adv-x="1590" 
d="M1520 1464l-14 -28l-568 211l-567 -211l-14 28l581 363z" />
    <glyph glyph-name="underscore" unicode="_" horiz-adv-x="1733" 
d="M1743 -214h-1466v104h1466v-104z" />
    <glyph glyph-name="grave" unicode="`" horiz-adv-x="945" 
d="M746 1665l-150 -149v-127l135 -68l-16 -29l-147 74l-76 152v151l84 168z" />
    <glyph glyph-name="a" unicode="a" horiz-adv-x="1231" 
d="M1264 176l-182 -181l-160 159v55l-191 -64l-147 -148l-160 79l-76 151v152q17 35 35.5 72l38.5 77q28 27 61.5 60.5l73.5 73.5l-215 215l166 165l82 -79q7 -5 41.5 -22.5t97.5 -49.5q9 -1 31 -8q5 1 12 3t17 5q28 14 62.5 31.5t76.5 40.5l82 79l166 -165l-78 -78v-561
l61 -62h105zM922 244v549l-164 55q-35 -13 -78.5 -28t-97.5 -32h-107l260 -258l-24 -24l-131 133l-127 -127v-133l67 -135l136 -68h65z" />
    <glyph glyph-name="b" unicode="b" 
d="M1366 893l-196 -98v-652h-158q-6 -2 -23.5 -7t-46.5 -15l-141 -47q-26 -14 -64.5 -33t-89.5 -44l-77 77q-53 25 -138 69h-209l197 99v989l-76 153l252 168v-725q34 8 82 24.5t111 39.5l92 47q13 6 47 25q7 4 82 79q71 -71 97 -87q8 -7 122 -62h137zM994 172v623l-132 65
h-65l-201 -67v-551q26 -12 60.5 -29t76.5 -39l66 -68z" />
    <glyph glyph-name="c" unicode="c" horiz-adv-x="1016" 
d="M1223 893l-209 -105h-154l-141 140l-123 -62v-624l131 -66h137l-135 -67q-15 -8 -31.5 -16.5t-35.5 -18.5q-6 -5 -82 -79q-73 72 -96 86q-1 1 -31.5 16t-91.5 46h-138l197 99v647l297 76q9 2 154 75q18 -19 37.5 -38t39.5 -39q4 -3 138 -70h137z" />
    <glyph glyph-name="d" unicode="d" horiz-adv-x="1231" 
d="M1170 143h-158q-6 -2 -23.5 -7t-46.5 -15l-141 -47q-26 -14 -64.5 -33t-89.5 -44l-77 77q-53 25 -138 69h-209l197 99v647l76 24l149 50l121 61l-356 356l250 166l78 -231l432 -432v-740zM994 172v627l-201 200l-197 -131v-626q26 -12 60.5 -29t76.5 -39l66 -68z" />
    <glyph glyph-name="e" unicode="e" horiz-adv-x="1016" 
d="M1106 729l-510 -293v-194l131 -66h137l-135 -67q-15 -8 -31.5 -16.5t-35.5 -18.5q-6 -5 -82 -79q-73 72 -96 86q-1 1 -31.5 16t-91.5 46h-138l197 99v647l297 76q9 2 154 75zM920 659l-201 269l-123 -62v-391z" />
    <glyph glyph-name="f" unicode="f" horiz-adv-x="945" 
d="M1151 1395l-209 -105h-153l-137 123l-56 -43v-334h271v-32h-271v-762l131 -66h137l-135 -67q-15 -8 -31.5 -16.5t-35.5 -18.5q-6 -5 -82 -79q-73 72 -96 86q-1 1 -31.5 16t-91.5 46h-138l197 99v762h-199v32h199v355l223 57l9 6h2l143 88q72 -72 80 -78l36 -18t101 -51
h137z" />
    <glyph glyph-name="g" unicode="g" 
d="M1366 893l-196 -98v-851q-17 -51 -34.5 -104t-37.5 -111v-4q-32 -34 -69 -71.5t-81 -80.5q-35 -17 -73.5 -36.5t-83.5 -41.5l-78 78q-4 3 -38 20.5t-99 49.5h-209l209 104h151q29 -13 66.5 -31.5t83.5 -42.5l61 -63l127 127v135q0 17 -9 37q-13 28 -15 35l-47 142v133
q-73 -25 -132.5 -49.5t-107.5 -48.5l-92 -47q-6 -5 -82 -79q-73 72 -96 86q-1 1 -31.5 16t-91.5 46h-138l197 99v651h158q5 2 22.5 7t46.5 15l142 48l64 32t89 45q19 -19 38.5 -38t39.5 -39q4 -3 38 -20.5t99 -49.5h209zM994 254v541q-27 11 -61.5 28t-76.5 39
q-14 16 -30.5 32.5t-34.5 35.5l-195 -66v-622l131 -66h66z" />
    <glyph glyph-name="h" unicode="h" 
d="M1366 893l-196 -98v-641q-32 -31 -68 -67.5t-78 -80.5q-5 -10 -22.5 -44t-46.5 -92v-205l165 -166h-120q-19 38 -38.5 76.5t-39.5 77.5v227l72 282v633l-132 65h-65l-201 -67v-551l156 -78l-172 -169q-73 72 -96 86q-1 1 -31.5 16t-91.5 46h-138l197 99v989l-76 153
l252 168v-725q34 8 82 24.5t111 39.5l92 47q13 6 47 25q7 4 82 79q71 -71 97 -87q8 -7 122 -62h137z" />
    <glyph glyph-name="i" unicode="i" horiz-adv-x="730" 
d="M680 1374l-172 -86l-172 86l172 170zM762 176l-182 -181l-160 159v641l-164 82q35 17 77 38.5t93 47.5q9 6 82 79q73 -73 82 -79q3 -2 45.5 -23t124.5 -63l-164 -82v-557l62 -62h104z" />
    <glyph glyph-name="j" unicode="j" horiz-adv-x="730" 
d="M680 1374l-172 -86l-172 86l172 170zM760 877l-164 -82v-633q0 -34 36 -143q36 -110 36 -143v-223l-154 -154h-166v115l156 -78l131 129v205l-70 136q-9 12 -145 148v641l-164 82q35 17 77 38.5t93 47.5q9 6 82 79q73 -73 82 -79q3 -2 45.5 -23t124.5 -63z" />
    <glyph glyph-name="k" unicode="k" horiz-adv-x="1231" 
d="M1264 176l-182 -181l-158 157l-72 358l-69 68l2 2l-189 -142v-196l156 -78l-172 -169q-73 72 -96 86q-1 1 -31.5 16t-91.5 46h-138l197 99v989l-76 153l252 168v-716l64 43l127 84l157 77l160 -239l-211 -142l60 -61l143 -358l63 -64h105zM926 721l-135 205l-195 -129
v-318l174 131q60 45 156 111z" />
    <glyph glyph-name="l" unicode="l" horiz-adv-x="730" 
d="M864 176l-135 -67q-15 -8 -31.5 -16.5t-35.5 -18.5q-6 -5 -82 -79q-73 72 -96 86q-1 1 -31.5 16t-91.5 46h-138l197 99v989l-76 153l252 168v-1310l131 -66h137z" />
    <glyph glyph-name="m" unicode="m" horiz-adv-x="1876" 
d="M1940 893l-197 -98v-557l62 -62h104l-182 -181l-160 159v641l-131 65h-66l-200 -67v-551l155 -78l-172 -169q-76 74 -82 79q-5 3 -45 23.5t-116 58.5l84 82v557l-132 65h-65q-24 0 -201 -67v-551l156 -78l-172 -169q-73 72 -96 86q-1 1 -31.5 16t-91.5 46h-138l197 99
v557l-61 61h-105l182 182l160 -159v-54q28 10 60 21t69 22q18 4 64 21q18 8 52.5 25t86.5 45q9 6 82 79l160 -159v-56q27 8 75 24.5t117 39.5q72 27 139 72q9 6 82 79q71 -71 97 -87q8 -7 122 -62h138z" />
    <glyph glyph-name="n" unicode="n" 
d="M1366 893l-196 -98v-557l61 -62h105l-183 -181l-159 159v641l-132 65h-65l-201 -67v-551l156 -78l-172 -169q-73 72 -96 86q-1 1 -31.5 16t-91.5 46h-138l197 99v557l-61 61h-105l182 182l160 -159v-56q34 8 82 24.5t111 39.5l92 47q13 6 47 25q7 4 82 79q71 -71 97 -87
q8 -7 122 -62h137z" />
    <glyph glyph-name="o" unicode="o" 
d="M1366 893l-196 -98v-652h-158q-6 -2 -23.5 -7t-46.5 -15l-141 -47q-26 -14 -64.5 -33t-89.5 -44l-77 77q-53 25 -138 69h-209l197 99v651h158q5 2 22.5 7t46.5 15l142 48l64 32t89 45q19 -19 38.5 -38t39.5 -39q4 -3 38 -20.5t99 -49.5h209zM994 172v623q-27 11 -61.5 28
t-76.5 39q-14 16 -30.5 32.5t-34.5 35.5l-195 -66v-622q26 -12 60.5 -29t76.5 -39l66 -68z" />
    <glyph glyph-name="p" unicode="p" 
d="M1366 893l-196 -98v-652h-158q-6 -2 -23.5 -7t-46.5 -15l-141 -47q-26 -14 -64.5 -33t-89.5 -44l-51 52v-243l76 -153l-252 -168v658h-197l197 99v630l-92 185q39 -18 86 -41.5t104 -52.5l78 -80v-56q34 8 82 24.5t111 39.5l92 47q13 6 47 25q7 4 82 79q71 -71 97 -87
q8 -7 122 -62h137zM994 172v623l-132 65h-65l-201 -67v-551q26 -12 60.5 -29t76.5 -39l66 -68z" />
    <glyph glyph-name="q" unicode="q" 
d="M1366 893l-196 -98v-1310l-252 168l76 153v403q-34 -8 -82 -24.5t-111 -39.5l-92 -47q-20 -8 -47 -24q-2 -2 -23 -21.5t-59 -57.5q-73 72 -96 86q-1 1 -31.5 16t-91.5 46h-138l197 99v651h158q5 2 22.5 7t46.5 15l142 48l64 32t89 45q19 -19 38.5 -38t39.5 -39
q4 -3 38 -20.5t99 -49.5h209zM994 244v551q-27 11 -61.5 28t-76.5 39q-14 16 -30.5 32.5t-34.5 35.5l-195 -66v-622l131 -66h66z" />
    <glyph glyph-name="r" unicode="r" horiz-adv-x="1016" 
d="M1223 893l-209 -105h-154l-141 140l-123 -62v-624l131 -66h137l-135 -67q-15 -8 -31.5 -16.5t-35.5 -18.5q-6 -5 -82 -79q-73 72 -96 86q-1 1 -31.5 16t-91.5 46h-138l197 99v557l-61 61h-105l182 182l148 -145l287 143q18 -19 37.5 -38t39.5 -39q4 -3 138 -70h137z" />
    <glyph glyph-name="s" unicode="s" horiz-adv-x="1160" 
d="M1141 1104l-78 -158q-8 -23 -39 -78l-96 -145q-7 -10 -19 -28t-30 -44l-51 -51t-66 -65h180l156 -78v-310l-223 -73l-4 -6l-4 2l-144 -71l-147 73h-135l-140 -70l-10 16l-10 9l71 96l144 190l188 189h-180l-156 78v309l76 24l150 50l149 75l148 -73h133zM1022 936l-6 -4
h-2l-143 -72h-152l-135 68l-59 -58v-270l131 -65h61l137 137q5 8 16.5 25.5t30.5 45.5l95 142q1 2 7.5 14.5t18.5 36.5zM922 166v270l-131 66h-62l-69 -70l-140 -139q-7 -10 -19.5 -27t-31.5 -43l-106 -139l141 92h223l135 -67z" />
    <glyph glyph-name="t" unicode="t" horiz-adv-x="730" 
d="M864 176l-135 -67q-15 -8 -31.5 -16.5t-35.5 -18.5q-6 -5 -82 -79q-73 72 -96 86q-1 1 -31.5 16t-91.5 46h-138l197 99v762h-199v32h199v195l-76 153l252 168v-516h199v-32h-199v-762l131 -66h137z" />
    <glyph glyph-name="u" unicode="u" 
d="M1366 893l-196 -98v-557l61 -62h105l-183 -181l-159 159v55q-34 -8 -82 -24.5t-111 -39.5l-92 -47q-20 -8 -47 -24q-2 -2 -23 -21.5t-59 -57.5q-73 72 -96 86q-1 1 -31.5 16t-91.5 46h-138l197 99v557l-61 61h-105l182 182l160 -159v-641l131 -66h66l201 68v551l-156 77
l172 170q71 -71 97 -87q8 -7 122 -62h137z" />
    <glyph glyph-name="v" unicode="v" 
d="M1366 893l-196 -98v-580h-158q-43 -14 -94.5 -31.5t-114.5 -38.5l-151 -150l-232 230v647l-92 185q39 -18 86 -41.5t104 -52.5l78 -80v-574q57 -57 66 -63q2 -1 35.5 -18t99.5 -50l197 66v551l-156 77l172 170q71 -71 97 -87q8 -7 122 -62h137z" />
    <glyph glyph-name="w" unicode="w" horiz-adv-x="1876" 
d="M1940 893l-197 -98v-580h-158q-43 -14 -94.5 -31.5t-114.5 -38.5l-151 -150l-219 218l-203 -68l-151 -150l-232 230v647l-92 185q39 -18 86 -41.5t104 -52.5l78 -80v-574q57 -57 66 -63q2 -1 35.5 -18t99.5 -50l197 66v551l-156 77l172 170q73 -73 82 -79q4 -3 162 -82
l-84 -82v-490q57 -57 65 -63q2 -1 35.5 -18t99.5 -50l197 66v551l-156 77l172 170q71 -71 97 -87q8 -7 122 -62h138z" />
    <glyph glyph-name="x" unicode="x" horiz-adv-x="1375" 
d="M1428 1104l-119 -240l-156 -78l-135 68l-133 -264l27 -55h241v-33h-225l33 -64l63 -125l68 -67q5 -3 39 -20.5t98 -49.5h107l-179 -179q-32 14 -71 33t-86 44q-40 39 -76 76q-5 12 -16 34l-27 54l-86 172l-211 -421l-82 83h-131l-137 -139l118 239l156 78l135 -68
l133 264l-26 56h-242v33h225l-96 188l-67 68l-138 69h-106l178 180q32 -14 71 -33.5l87 -43.5q40 -39 76 -76q5 -12 16 -34l27 -54l86 -172l210 422l82 -84h131z" />
    <glyph glyph-name="y" unicode="y" 
d="M1366 893l-196 -98v-851l-74 -222q-32 -33 -68.5 -70t-79.5 -79q-35 -17 -73.5 -36.5t-83.5 -41.5l-78 78q-4 3 -38 20.5t-99 49.5h-209l209 104h151q29 -13 66.5 -31.5t83.5 -42.5l61 -63l127 127v135q0 17 -9 37q-13 28 -15 35l-47 142v123q-34 -8 -82 -24.5
t-111 -39.5l-92 -47q-20 -8 -47 -24q-2 -2 -23 -21.5t-59 -57.5q-73 72 -96 86q-1 1 -31.5 16t-91.5 46h-138l197 99v557l-61 61h-105l182 182l160 -159v-641l131 -66h66l201 68v551l-156 77l172 170q71 -71 97 -87q8 -7 122 -62h137z" />
    <glyph glyph-name="z" unicode="z" 
d="M1270 1049l-440 -514h252v-33h-279l-373 -434q76 43 215 106l146 49q4 1 13 5t23 11q19 9 37 9h222l168 -84l-168 -167l-152 75h-280q-23 -6 -106 -27t-228 -56l440 513h-252v33h279l372 434q-38 -22 -92 -48.5t-123 -58.5l-145 -49q-4 -2 -13 -5.5t-23 -10.5
q-20 -9 -38 -9h-221l-168 84l168 168l152 -75h280q23 6 106 27t228 57z" />
    <glyph glyph-name="braceleft" unicode="{" horiz-adv-x="1016" 
d="M806 299q-14 -29 -32.5 -66.5t-41.5 -82.5q-27 -23 -72 -72q-5 -7 -70 -136v-138q17 -48 34 -98.5t36 -105.5l137 -70l-16 -29l-291 146l-76 151v152q14 29 32.5 66t41.5 82q27 22 72 72l18 36t51 101v135l-69 140l4 2l-174 78l174 77l-4 2l69 140v135q-13 27 -30 61
t-39 76q-27 22 -72 72q-14 29 -32.5 66l-41.5 83v152l76 151l291 146l16 -29l-137 -70q-16 -43 -33.5 -93.5t-36.5 -110.5v-138q13 -27 30 -61t40 -76q14 -11 31.5 -28.5t40.5 -42.5l74 -150v-154l-78 -96l-256 -112l256 -113l78 -96v-154z" />
    <glyph glyph-name="bar" unicode="|" horiz-adv-x="658" 
d="M525 -501h-105v2326h105v-2326z" />
    <glyph glyph-name="braceright" unicode="}" horiz-adv-x="1016" 
d="M879 662l-174 -78l4 -2l-70 -140v-135q13 -27 30 -61t40 -76q27 -23 72 -72q14 -29 32.5 -65.5t41.5 -82.5v-152l-76 -151l-291 -146l-16 29l137 70q31 85 69 204v138q-13 27 -30 60.5t-39 75.5q-27 22 -72 72q-14 29 -32.5 66l-41.5 83v154l78 96l256 113l-256 112
l-78 96v154q14 30 32.5 67.5t41.5 82.5q14 11 31.5 28.5t40.5 42.5l18 36t51 101v138l-69 204l-137 70l16 29l291 -146l76 -151v-152q-14 -29 -32.5 -66.5t-41.5 -82.5q-27 -23 -72 -72q-3 -5 -20.5 -39t-49.5 -98v-135l70 -140l-4 -2z" />
    <glyph glyph-name="asciitilde" unicode="~" horiz-adv-x="1876" 
d="M1743 727l-2 -2l-72 -219l-153 -76h-152l-573 287h-135q-27 -13 -61.5 -30t-76.5 -40q-8 -6 -65 -63v-138h-33v146l74 225l153 76h152l573 -287h136q26 13 60.5 30t76.5 40q8 6 65 63v138h33v-150z" />
    <glyph glyph-name="exclamdown" unicode="&#xa1;" horiz-adv-x="873" 
d="M752 1374l-172 -86l-172 86l172 170zM832 160q-35 -17 -77 -38.5t-93 -47.5q-6 -5 -82 -79q-34 34 -62 57t-51 37q-5 4 -39.5 21.5t-99.5 49.5l164 82l71 780h33l72 -780z" />
    <glyph glyph-name="cent" unicode="&#xa2;" horiz-adv-x="1375" 
d="M1325 1251l-170 -284q12 -11 51.5 -50t106.5 -106v-166h-176v176h104v-88h-32v55h-39v-110h110v121q-34 35 -69.5 69.5t-73.5 69.5l-492 -821q4 -8 154 -84h137l209 69l139 142l25 -25l-148 -145l-221 -74h-147l-182 59l-164 -273h-111l197 327l-111 110l-74 221v148
q17 52 35.5 106.5t38.5 114.5l150 150l221 73h221l55 -28l146 243h110zM1053 981l-47 23h-207q-26 -13 -60.5 -30t-76.5 -40q-8 -6 -68 -66l-69 -209v-282q8 -26 23 -70.5t36 -107.5z" />
    <glyph glyph-name="sterling" unicode="&#xa3;" horiz-adv-x="1375" 
d="M1311 295l-147 -295h-302q-5 3 -213 72h-139q-49 -17 -101.5 -35t-109.5 -37l-14 31l139 69l68 136v522h-185v94h185v313q5 17 23 72t50 149q18 19 37 38.5t39 39.5q28 13 63.5 30.5t80.5 39.5l2 4h84q30 -14 67 -32.5t82 -41.5l78 -80v-165h-176v176h104v-88h-32v55h-39
v-111h110v121q-63 63 -65 64l-138 69h-59q-76 -73 -135 -202v-451h225v-94h-225v-522l67 -136l134 -67l147 37q10 2 28.5 6.5t45.5 11.5l8 6l8 6q12 7 39 27q6 9 16.5 24t26.5 35l96 127z" />
    <glyph glyph-name="yen" unicode="&#xa5;" horiz-adv-x="1518" 
d="M1583 1505h-67l-135 -67l-414 -688h473v-33h-485v-111h485v-33h-485v-411l49 -88l82 -41h67v-33h-573v33h67l88 43l43 88v409h-485v33h485v111h-485v33h471l-448 706l-99 49h-67v33h502v-33h-68l-90 -45l444 -696l408 680l-125 61h-68v33h430v-33z" />
    <glyph glyph-name="section" unicode="&#xa7;" horiz-adv-x="1446" 
d="M1385 655l-74 -74t-74 -75l-127 -64l28.5 -28.5t29.5 -28.5q13 -27 31.5 -64t41.5 -85v-80l-75 -165q-70 -69 -224 -133h-151l-152 75l-76 151v164h177v-176h-105v88h33v-56h39v111h-111v-123l68 -134l135 -68h135l135 68l68 134v133l-64 64l-237 94q-107 43 -190.5 73
t-145.5 48q-19 18 -38.5 37t-39.5 39q-14 29 -32.5 66l-41.5 83v154l74 74t74 75l127 64l-28.5 28.5t-29.5 28.5q-13 28 -31.5 65t-41.5 85v79l24 50l49 100l76 76q29 14 66 32t84 41h151l152 -75l76 -152v-164h-176v176h104v-88h-33v56h-39v-111h111v123l-68 135l-135 68
h-135l-135 -68l-68 -135v-133l64 -64l237 -94q107 -43 190.5 -73t145.5 -48q19 -18 38.5 -37t39.5 -39q14 -29 32.5 -66l41.5 -83v-154zM1280 666v133l-63 63q-140 40 -330 117l-235 94l-132 -65l-67 -136v-133l63 -63q136 -41 330 -117l236 -94l131 65z" />
    <glyph glyph-name="ordfeminine" unicode="&#xaa;" horiz-adv-x="730" 
d="M762 1108l-110 -111l-89 88v19l-81 -27l-76 -78l-88 43l-41 80v80q12 28 39 78q11 11 27 26t36 35l-108 109l94 94l16 -14q13 -11 37 -27.5t61 -38.5q3 0 13 -2q2 0 10 2q43 20 98 66l17 14l94 -94l-43 -43v-274l27 -25h67zM709 860h-432v64h432v-64zM563 1139v262
l-71 26q-68 -31 -112 -31q-8 0 -11 1l117 -115l-25 -25l-59 62l-56 -55v-62l31 -63l64 -31h30q22 7 44.5 15t47.5 16z" />
    <glyph glyph-name="guillemotleft" unicode="&#xab;" horiz-adv-x="1375" 
d="M1241 -22l-540 540l540 541v-117l-424 -424l424 -424v-116zM883 -22l-541 540l541 541v-117l-424 -424l424 -424v-116z" />
    <glyph glyph-name="degree" unicode="&#xb0;" horiz-adv-x="945" 
d="M883 1231l-76 -154q-54 -17 -109.5 -35.5t-115.5 -37.5h-156l-2 4q-57 25 -141 69l-78 80v154l76 153l225 74h156l2 -4q29 -13 64 -30.5t77 -39.5l78 -80v-153zM707 1239v135l-66 131h-127q-57 -57 -63 -65q-3 -5 -20.5 -39t-49.5 -98v-136l66 -131h127q57 57 77 89
q14 29 28 57t28 57z" />
    <glyph glyph-name="plusminus" unicode="&#xb1;" horiz-adv-x="1805" 
d="M1671 860h-573v-573h-104v573h-574v105h574v573h104v-573h573v-105zM1671 72h-1251v104h1251v-104z" />
    <glyph glyph-name="ordmasculine" unicode="&#xba;" horiz-adv-x="801" 
d="M862 1466l-122 -63v-328h-86q-82 -15 -187 -76q-36 51 -106 76h-140l127 62v329h86q92 17 185 76q37 -53 108 -76h135zM770 860h-452v64h452v-64zM635 1104v299q-69 27 -96 63l-86 -28v-301l65 -31l29 -33z" />
    <glyph glyph-name="guillemotright" unicode="&#xbb;" horiz-adv-x="1375" 
d="M1319 518l-541 -540v116l424 424l-424 424v117zM961 518l-541 -540v116l424 424l-424 424v117z" />
    <glyph glyph-name="questiondown" unicode="&#xbf;" 
d="M967 1374l-172 -86l-172 86l172 170zM1247 311q-14 -32 -34 -72.5t-45 -88.5l-78 -76l-221 -74h-150q-2 1 -56 19.5t-163 54.5q-19 18 -38.5 37t-39.5 39q-14 29 -32.5 66l-41.5 83v152l25 49l49 100l148 148l139 69l86 254l94 -283h-160q-29 -28 -63 -62t-72 -75
q-6 -11 -23 -45l-46 -92v-278l67 -136l135 -67h135l136 67l67 136v165z" />
    <glyph glyph-name="Agrave" unicode="&#xc0;" horiz-adv-x="1590" 
d="M1278 1505h-129l-559 320h209zM1757 248l-165 -248h-86l-80 78l-219 495h-535l-139 -325h123l168 -84l-172 -169l-78 77h-207q-76 -25 -145.5 -47.5t-133.5 -43.5l131 128q8 9 24.5 25.5l39.5 39.5l149 74h66l301 702l-18 -10l-68 135h-127l-66 -67l-24 24l74 74
q29 14 66 32.5l83 41.5h82l68 -66l47 111l-64 143l-63 66h-131l-138 -140l-24 25l151 147l144 72h153l80 -78l502 -1147l63 -65h168zM1192 606l-258 580l-248 -580h506z" />
    <glyph glyph-name="Aacute" unicode="&#xc1;" horiz-adv-x="1590" 
d="M1286 1825l-456 -250h-129l376 250h209zM1757 248l-165 -248h-86l-80 78l-219 495h-535l-139 -325h123l168 -84l-172 -169l-78 77h-207q-76 -25 -145.5 -47.5t-133.5 -43.5l131 128q8 9 24.5 25.5l39.5 39.5l149 74h66l301 702l-18 -10l-68 135h-127l-66 -67l-24 24
l74 74q29 14 66 32.5l83 41.5h82l68 -66l47 111l-64 143l-63 66h-131l-138 -140l-24 25q32 32 69 68.5t80 78.5q11 5 47.5 23t98.5 49h153l80 -78l502 -1147l63 -65h168zM1192 606l-258 580l-248 -580h506z" />
    <glyph glyph-name="Acircumflex" unicode="&#xc2;" horiz-adv-x="1590" 
d="M1336 1505h-117l-281 211l-280 -211h-117l319 320h156zM1757 248l-165 -248h-86l-80 78l-219 495h-535l-139 -325h123l168 -84l-172 -169l-78 77h-207q-76 -25 -145.5 -47.5t-133.5 -43.5l131 128q8 9 24.5 25.5l39.5 39.5l149 74h66l301 702l-18 -10l-68 135h-127
l-66 -67l-24 24l74 74q29 14 66 32.5l83 41.5h82l68 -66l47 111l-64 143l-63 66h-131l-138 -140l-24 25l151 147l144 72h153l80 -78l502 -1147l63 -65h168zM1192 606l-258 580l-248 -580h506z" />
    <glyph glyph-name="Atilde" unicode="&#xc3;" horiz-adv-x="1590" 
d="M1241 1731l-77 -154h-158l-287 143h-61l-62 -61v-66h-33v76l78 156h158l287 -144h61l62 62v65h32v-77zM1757 248l-165 -248h-86l-80 78l-219 495h-535l-139 -325h123l168 -84l-172 -169l-78 77h-207q-76 -25 -145.5 -47.5t-133.5 -43.5l131 128q8 9 24.5 25.5l39.5 39.5
l149 74h66l301 702l-18 -10l-68 135h-127l-66 -67l-24 24l74 74q29 14 66 32.5l83 41.5h82l68 -66l47 111l-64 143l-63 66h-131l-138 -140l-24 25l151 147l144 72h153l80 -78l502 -1147l63 -65h168zM1192 606l-258 580l-248 -580h506z" />
    <glyph glyph-name="Adieresis" unicode="&#xc4;" horiz-adv-x="1590" 
d="M1397 1661l-172 -86l-172 86l172 170zM824 1661l-172 -86l-173 86l173 170zM1757 248l-165 -248h-86l-80 78l-219 495h-535l-139 -325h123l168 -84l-172 -169l-78 77h-207q-76 -25 -145.5 -47.5t-133.5 -43.5l131 128q8 9 24.5 25.5l39.5 39.5l149 74h66l301 702l-18 -10
l-68 135h-127l-66 -67l-24 24l74 74q29 14 66 32.5l83 41.5h82l68 -66l47 111l-64 143l-63 66h-131l-138 -140l-24 25l151 147l144 72h153l80 -78l502 -1147l63 -65h168zM1192 606l-258 580l-248 -580h506z" />
    <glyph glyph-name="Aring" unicode="&#xc5;" horiz-adv-x="1590" 
d="M1757 248l-165 -248h-86l-80 78l-219 495h-535l-139 -325h123l168 -84l-172 -169l-78 77h-207q-76 -25 -145.5 -47.5t-133.5 -43.5l131 128q8 9 24.5 25.5l39.5 39.5l149 74h66l301 702l-18 -10l-68 135h-127l-66 -67l-24 24l74 74q29 14 66 32.5l83 41.5h82l68 -66
l47 111l-64 143l-63 66h-131l-138 -140l-24 25l151 147l144 72h37l-50 49v156l82 82h156l82 -82v-156l-82 -82h-39l47 -45l502 -1147l63 -65h168zM1065 1599v132l-61 61h-131l-62 -61v-132l62 -61h131zM1192 606l-258 580l-248 -580h506z" />
    <glyph glyph-name="AE" unicode="&#xc6;" horiz-adv-x="2091" 
d="M2118 168l-172 -169l-221 73h-498q-26 -7 -119.5 -30.5t-257.5 -63.5l197 131q13 9 37.5 25.5t60.5 39.5q6 4 201 68l-146 331h-528l-139 -325h123l168 -84l-172 -169l-78 77h-207q-76 -25 -145.5 -47.5t-133.5 -43.5l131 128q8 9 24.5 25.5l39.5 39.5l149 74h66l301 702
l-18 -10l-68 135h-127l-66 -67l-24 24l74 74q29 14 66 32.5l83 41.5h82l68 -66l47 111l-64 143l-63 66h-131l-138 -140l-24 25q60 63 145 145q33 17 70.5 35.5t79.5 38.5h295l139 -70l227 113l-221 -219h-154l-55 29l330 -754v385l74 219q14 42 31.5 79t39.5 69l76 75
l150 74h149l244 -82l-170 -170l-152 76h-135q-26 -13 -60.5 -30t-76.5 -40q-9 -6 -68 -65l-69 -209l2 -463l39 117q13 29 30.5 64.5t40.5 78.5l80 78h154l168 -84l-172 -170l-78 78h-131l-64 -64l-47 -141l115 -264h278q14 -4 41 -10.5t66 -16.5zM1186 606l-252 578
l-248 -578h500z" />
    <glyph glyph-name="Ccedilla" unicode="&#xc7;" horiz-adv-x="1733" 
d="M1786 530l-78 -157q-11 -28 -39 -80l-49 -49l-98 -99q-6 -4 -49 -24l-99 -47l-145 -49q-11 -4 -27.5 -9.5t-38.5 -13.5q-8 -2 -49 -2h-20l-62 -181h127l82 -82v-84l-153 -154h-228l-104 105h117l71 -72h131l62 61v132l-62 61h-88q7 8 7 214h-58q-186 51 -221 74
q-10 7 -28 19t-44 30l-147 98q-17 31 -35.5 67.5t-38.5 80.5q-1 2 -10.5 31t-28.5 84l-35 104v291l50 145q3 10 9 28.5t15 45.5q1 4 72 147l98 98q7 8 19 20.5t30 29.5l238 116l-72 -69l-141 -144q-3 -3 -25 -47l-47 -92l-47 -141q-11 -32 -16 -49t-6 -21v-282l69 -209
l209 -209l209 -70h211l201 68v1046h-131l-136 68l-59 -58v-714q-14 -32 -32.5 -69t-41.5 -81q-20 -20 -45.5 -44.5t-56.5 -55.5v909q29 14 66.5 33t82.5 43l222 221l151 -76h133l137 140l-118 -240l-140 -70v-1038q29 14 58.5 29t58.5 30q8 6 25.5 23.5l46.5 46.5z" />
    <glyph glyph-name="Egrave" unicode="&#xc8;" horiz-adv-x="1590" 
d="M1272 1505h-123l-479 320h203zM951 1438l-222 -219h-153l-140 69l-227 -112l221 219h154l139 -70zM1616 168l-172 -169l-221 73h-498q-26 -7 -119.5 -30.5t-257.5 -63.5l199 131q13 9 37.5 25.5t60.5 39.5q48 11 98.5 24t106.5 27v654l49 145q3 10 9 28.5t16 45.5
q36 93 72 147l51 49q6 10 24 27l150 74h149l244 -82l-170 -170l-151 76h-136q-26 -13 -60.5 -30t-76.5 -40q-2 -1 -67 -66l-70 -209v-399q10 41 32 95.5t56 123.5q3 7 9 19t16 30q18 17 37.5 36.5l41.5 41.5h154l168 -84l-172 -170l-78 78h-131l-63 -63q-16 -44 -33 -96
t-37 -113v-140q13 4 26 7.5t27 7.5h363q22 -5 100.5 -25t216.5 -55zM668 514q-14 -32 -32.5 -69t-41.5 -80q-20 -20 -45.5 -45t-56.5 -56v453h-121l-94 -94v188l82 82h139q13 29 29.5 63t37.5 74l103 100v-616z" />
    <glyph glyph-name="Eacute" unicode="&#xc9;" horiz-adv-x="1590" 
d="M1278 1825l-479 -320h-123l399 320h203zM951 1438l-222 -219h-153l-140 69l-227 -112l221 219h154l139 -70zM1616 168l-172 -169l-221 73h-498q-26 -7 -119.5 -30.5t-257.5 -63.5l199 131q13 9 37.5 25.5t60.5 39.5q48 11 98.5 24t106.5 27v654l49 145q3 10 9 28.5
t16 45.5q36 93 72 147l51 49q6 10 24 27l150 74h149l244 -82l-170 -170l-151 76h-136q-26 -13 -60.5 -30t-76.5 -40q-2 -1 -67 -66l-70 -209v-399q10 41 32 95.5t56 123.5q3 7 9 19t16 30q18 17 37.5 36.5l41.5 41.5h154l168 -84l-172 -170l-78 78h-131l-63 -63
q-16 -44 -33 -96t-37 -113v-140q13 4 26 7.5t27 7.5h363q22 -5 100.5 -25t216.5 -55zM668 514q-14 -32 -32.5 -69t-41.5 -80q-20 -20 -45.5 -45t-56.5 -56v453h-121l-94 -94v188l82 82h139q13 29 29.5 63t37.5 74l103 100v-616z" />
    <glyph glyph-name="Ecircumflex" unicode="&#xca;" horiz-adv-x="1590" 
d="M1258 1505h-111l-209 209l-209 -209h-110l239 320h160zM951 1438l-222 -219h-153l-140 69l-227 -112l221 219h154l139 -70zM1616 168l-172 -169l-221 73h-498q-26 -7 -119.5 -30.5t-257.5 -63.5l199 131q13 9 37.5 25.5t60.5 39.5q14 4 70 18l156 39h-21v648l49 145
q3 10 9 28.5t16 45.5q36 93 72 147l51 49q6 10 24 27l150 74h149l244 -82l-170 -170l-151 76h-136q-26 -13 -60.5 -30t-76.5 -40q-2 -1 -67 -66l-70 -209v-399q10 41 32 95.5t56 123.5q3 7 9 19t16 30q18 17 37.5 36.5l41.5 41.5h154l168 -84l-172 -170l-78 78h-131l-63 -63
q-16 -44 -33 -96t-37 -113v-140q13 4 26 7.5t27 7.5h363q22 -5 100.5 -25t216.5 -55zM668 514q-14 -32 -32.5 -69t-41.5 -80q-20 -20 -45.5 -45t-56.5 -56v453h-121l-94 -94v188l82 82h139q13 29 29.5 63t37.5 74l103 100v-616z" />
    <glyph glyph-name="Edieresis" unicode="&#xcb;" horiz-adv-x="1590" 
d="M1397 1661l-172 -86l-172 86l172 170zM895 1661l-172 -86l-172 86l172 170zM951 1438l-222 -219h-153l-140 69l-227 -112l221 219h154l139 -70zM1616 168l-172 -169l-221 73h-498q-26 -7 -119.5 -30.5t-257.5 -63.5l199 131q13 9 37.5 25.5t60.5 39.5q14 4 70 18l156 39
h-21v648l49 145q3 10 9 28.5t16 45.5q36 93 72 147l51 49q6 10 24 27l150 74h149l244 -82l-170 -170l-151 76h-136q-26 -13 -60.5 -30t-76.5 -40q-2 -1 -67 -66l-70 -209v-399q10 41 32 95.5t56 123.5q3 7 9 19t16 30q18 17 37.5 36.5l41.5 41.5h154l168 -84l-172 -170
l-78 78h-131l-63 -63q-16 -44 -33 -96t-37 -113v-140q13 4 26 7.5t27 7.5h363q22 -5 100.5 -25t216.5 -55zM668 514q-14 -32 -32.5 -69t-41.5 -80q-20 -20 -45.5 -45t-56.5 -56v453h-121l-94 -94v188l82 82h139q13 29 29.5 63t37.5 74l103 100v-616z" />
    <glyph glyph-name="Igrave" unicode="&#xcc;" horiz-adv-x="1375" 
d="M1063 1434h-129l-559 319h209zM1166 1438l-222 -219h-223l-211 69l-229 -112l221 219h223q28 -9 80.5 -26.5l130.5 -43.5zM883 586q-14 -32 -32.5 -69t-41.5 -81q-20 -20 -45.5 -44.5t-56.5 -55.5v381h-121l-94 -94v188l82 82h139q13 29 30 63t38 74l102 100v-544z
M1356 1319l-115 -232v-716l-73 -150q-29 -29 -65 -64.5t-79 -78.5l-4 -6h-6l-143 -72h-224l-143 72h-207l-231 -114l145 142q10 13 28 31t44 43l149 74h152l287 -144h129l65 132v643l74 221z" />
    <glyph glyph-name="Iacute" unicode="&#xcd;" horiz-adv-x="1375" 
d="M1071 1753l-559 -319h-129l479 319h209zM1166 1438l-222 -219h-223l-211 69l-229 -112l221 219h223q28 -9 80.5 -26.5l130.5 -43.5zM883 586q-14 -32 -32.5 -69t-41.5 -81q-20 -20 -45.5 -44.5t-56.5 -55.5v381h-121l-94 -94v188l82 82h139q13 29 30 63t38 74l102 100
v-544zM1356 1319l-115 -232v-716l-73 -150q-29 -29 -65 -64.5t-79 -78.5l-4 -6h-6l-143 -72h-224l-143 72h-207l-231 -114l145 142q10 13 28 31t44 43l149 74h152l287 -144h129l65 132v643l74 221z" />
    <glyph glyph-name="Icircumflex" unicode="&#xce;" horiz-adv-x="1375" 
d="M1120 1434h-116l-281 211l-280 -211h-117l319 319h156zM1166 1438l-222 -219h-223l-211 69l-229 -112l221 219h223q28 -9 80.5 -26.5l130.5 -43.5zM883 586q-14 -32 -32.5 -69t-41.5 -81q-20 -20 -45.5 -44.5t-56.5 -55.5v381h-121l-94 -94v188l82 82h139q13 29 30 63
t38 74l102 100v-544zM1356 1319l-115 -232v-716l-73 -150q-29 -29 -65 -64.5t-79 -78.5l-4 -6h-6l-143 -72h-224l-143 72h-207l-231 -114l145 142q10 13 28 31t44 43l149 74h152l287 -144h129l65 132v643l74 221z" />
    <glyph glyph-name="Idieresis" unicode="&#xcf;" horiz-adv-x="1375" 
d="M1182 1589l-172 -86l-172 86l172 170zM608 1589l-172 -86l-172 86l172 170zM1166 1438l-222 -219h-223l-211 69l-229 -112l221 219h223q28 -9 80.5 -26.5l130.5 -43.5zM883 586q-14 -32 -32.5 -69t-41.5 -81q-20 -20 -45.5 -44.5t-56.5 -55.5v381h-121l-94 -94v188l82 82
h139q13 29 30 63t38 74l102 100v-544zM1356 1319l-115 -232v-716l-73 -150q-29 -29 -65 -64.5t-79 -78.5l-4 -6h-6l-143 -72h-224l-143 72h-207l-231 -114l145 142q10 13 28 31t44 43l149 74h152l287 -144h129l65 132v643l74 221z" />
    <glyph glyph-name="Ntilde" unicode="&#xd1;" horiz-adv-x="1805" 
d="M1571 1892l-78 -157q-11 -28 -39 -80q-34 -33 -71.5 -70.5l-79.5 -79.5h-82l-287 144h-133l-209 -211l78 157q11 28 39 80q34 33 71.5 70.5l79.5 79.5h82l287 -144h133zM1929 1462l-118 -239l-152 -76h-59v-1156q-40 19 -82 39.5t-88 43.5q-11 11 -48 47.5t-100 99.5
l-141 285l-135 67h-279l-131 -65v-260h203l168 -84l-172 -169l-78 77h-207l-278 -91l131 128q8 9 24 25.5t39 39.5l137 68v403h-120l-95 -94v188l82 82h133v469h-120l-138 -139l-24 25q60 63 145 145q33 17 70.5 35.5t79.5 38.5h151l150 -76q49 -72 147 -219
q14 -28 35.5 -67.5t52.5 -92.5l35 -33q2 -3 6.5 -7t10.5 -9q11 -7 22.5 -13.5t22.5 -11.5l92 -45h135l131 66v260h-59l-168 84l168 168l151 -76h133zM1567 199v651l-123 -62h-151l-134 66q37 -68 92.5 -167t131.5 -232q7 -14 141 -213zM1110 557q-32 52 -78 129t-108 182
q-29 64 -72 144q-8 15 -139 211l-117 57v-735l123 61h295z" />
    <glyph glyph-name="Ograve" unicode="&#xd2;" horiz-adv-x="1876" 
d="M1422 1505h-129l-560 320h209zM1815 659l-49 -145q-3 -10 -9 -28.5t-16 -45.5q-2 -5 -72 -147l-98 -98q-7 -8 -19.5 -20.5l-29.5 -29.5l-146 -71l-221 -74h-147l-146 49q-10 3 -28.5 9t-44.5 16q-2 1 -39 18.5t-109 52.5l-98 99q-8 8 -20.5 20t-28.5 29l-72 147
q-5 19 -11 37t-13 37l-50 145v220l50 145q3 10 9 28.5t15 45.5q1 4 72 147l98 98q7 8 19 20.5t30 29.5l238 116l-72 -69l-141 -144q-3 -3 -25 -47l-47 -92l-47 -141q-11 -32 -16 -49t-6 -21v-354q2 -7 7 -24t15 -46l47 -141l47 -92q3 -8 9 -19.5t16 -27.5l92 -92l45 -48
q44 -16 96 -33t113 -36h139l209 69l137 138l138 342l-127 63h-64l-131 -65v-492h-33v1260q-31 -22 -78.5 -53.5t-111.5 -73.5q-14 -5 -30.5 -10.5t-33.5 -10.5v-686q-14 -32 -32 -69t-41 -80l-103 -101v912q49 14 104.5 32.5t118.5 40.5l207 137v19l13 -6l71 71
q37 -17 76.5 -36.5t81.5 -40.5l147 -148l72 -147q4 -10 10 -28.5t15 -45.5l49 -145v-220zM1632 954l-204 340l-115 58v-394l131 -65h64zM1639 616v306l-123 -62h-80l-123 62v-306l123 62h80z" />
    <glyph glyph-name="Oacute" unicode="&#xd3;" horiz-adv-x="1876" 
d="M1815 659l-49 -145q-3 -10 -9 -28.5t-16 -45.5q-2 -5 -72 -147l-98 -98q-7 -8 -19.5 -20.5l-29.5 -29.5l-146 -71l-221 -74h-147l-146 49q-10 3 -28.5 9t-44.5 16q-2 1 -39 18.5t-109 52.5l-98 99q-8 8 -20.5 20t-28.5 29l-72 147q-5 19 -11 37t-13 37l-50 145v220
l50 145q3 10 9 28.5t15 45.5q1 4 72 147l98 98q7 8 19 20.5t30 29.5l228 112h-127l479 320h209l-369 -211q-25 -14 -71 -40t-113 -65q-3 -2 -21 -19.5t-51 -51.5l-139 -142q-3 -3 -25 -47l-47 -92q-4 -14 -9.5 -31.5t-12.5 -38.5l-47 -141v-354q2 -7 7 -24t15 -46l47 -141
l47 -92q3 -8 9 -19.5t16 -27.5l92 -92l45 -48q44 -16 96 -33t113 -36h139l209 69l137 138l138 342l-127 63h-64l-131 -65v-492h-33v1260q-31 -22 -78.5 -53.5t-111.5 -73.5q-14 -5 -30.5 -10.5t-33.5 -10.5v-686q-14 -32 -32 -69t-41 -80l-103 -101v912q49 14 104.5 32.5
t118.5 40.5l207 137v19l13 -6l71 71q37 -17 76.5 -36.5t81.5 -40.5l147 -148l72 -147q4 -10 10 -28.5t15 -45.5l49 -145v-220zM1632 954l-204 340l-115 58v-394l131 -65h64zM1639 616v306l-123 -62h-80l-123 62v-306l123 62h80z" />
    <glyph glyph-name="Ocircumflex" unicode="&#xd4;" horiz-adv-x="1876" 
d="M1479 1505h-117l-280 211l-281 -211h-117l320 320h155zM1815 659l-49 -145q-3 -10 -9 -28.5t-16 -45.5q-2 -5 -72 -147l-98 -98q-7 -8 -19.5 -20.5l-29.5 -29.5l-146 -71l-221 -74h-147l-146 49q-10 3 -28.5 9t-44.5 16q-2 1 -39 18.5t-109 52.5l-98 99q-8 8 -20.5 20
t-28.5 29l-72 147q-5 19 -11 37t-13 37l-50 145v220l50 145q3 10 9 28.5t15 45.5q1 4 72 147l98 98q7 8 19 20.5t30 29.5l238 116l-72 -69l-141 -144q-3 -3 -25 -47l-47 -92l-47 -141q-11 -32 -16 -49t-6 -21v-354q2 -7 7 -24t15 -46l47 -141l47 -92q3 -8 9 -19.5t16 -27.5
l92 -92l45 -48q44 -16 96 -33t113 -36h139l209 69l137 138l138 342l-127 63h-64l-131 -65v-492h-33v1260q-31 -22 -78.5 -53.5t-111.5 -73.5q-14 -5 -30.5 -10.5t-33.5 -10.5v-686q-14 -32 -32 -69t-41 -80l-103 -101v912q49 14 104.5 32.5t118.5 40.5l207 137v19l13 -6
l71 71q37 -17 76.5 -36.5t81.5 -40.5l147 -148l72 -147q4 -10 10 -28.5t15 -45.5l49 -145v-220zM1632 954l-204 340l-115 58v-394l131 -65h64zM1639 616v306l-123 -62h-80l-123 62v-306l123 62h80z" />
    <glyph glyph-name="Otilde" unicode="&#xd5;" horiz-adv-x="1876" 
d="M1385 1731q-6 -11 -25.5 -49.5t-52.5 -104.5h-158l-287 143h-61l-61 -61v-66h-33v76l78 156h157l287 -144h61l62 62v65h33v-77zM1815 659l-49 -145q-3 -10 -9 -28.5t-16 -45.5q-2 -5 -72 -147l-98 -98q-7 -8 -19.5 -20.5l-29.5 -29.5l-146 -71l-221 -74h-147l-146 49
q-10 3 -28.5 9t-44.5 16q-2 1 -39 18.5t-109 52.5l-98 99q-8 8 -20.5 20t-28.5 29l-72 147q-5 19 -11 37t-13 37l-50 145v220l50 145q3 10 9 28.5t15 45.5q1 4 72 147l98 98q7 8 19 20.5t30 29.5l238 116l-72 -69l-141 -144q-3 -3 -25 -47l-47 -92l-47 -141q-11 -32 -16 -49
t-6 -21v-354q2 -7 7 -24t15 -46l47 -141l47 -92q3 -8 9 -19.5t16 -27.5l92 -92l45 -48q44 -16 96 -33t113 -36h139l209 69l137 138l138 342l-127 63h-64l-131 -65v-492h-33v1260q-31 -22 -78.5 -53.5t-111.5 -73.5q-14 -5 -30.5 -10.5t-33.5 -10.5v-686q-14 -32 -32 -69
t-41 -80l-103 -101v912q49 14 104.5 32.5t118.5 40.5l207 137v19l13 -6l71 71q37 -17 76.5 -36.5t81.5 -40.5l147 -148l72 -147q4 -10 10 -28.5t15 -45.5l49 -145v-220zM1632 954l-204 340l-115 58v-394l131 -65h64zM1639 616v306l-123 -62h-80l-123 62v-306l123 62h80z" />
    <glyph glyph-name="Odieresis" unicode="&#xd6;" horiz-adv-x="1876" 
d="M1540 1661l-172 -86l-172 86l172 170zM967 1661l-172 -86l-172 86l172 170zM1815 659l-49 -145q-3 -10 -9 -28.5t-16 -45.5q-2 -5 -72 -147l-98 -98q-7 -8 -19.5 -20.5l-29.5 -29.5l-146 -71l-221 -74h-147l-146 49q-10 3 -28.5 9t-44.5 16q-2 1 -39 18.5t-109 52.5
l-98 99q-8 8 -20.5 20t-28.5 29l-72 147q-5 19 -11 37t-13 37l-50 145v220l50 145q3 10 9 28.5t15 45.5q1 4 72 147l98 98q7 8 19 20.5t30 29.5l238 116l-72 -69l-141 -144q-3 -3 -25 -47l-47 -92l-47 -141q-11 -32 -16 -49t-6 -21v-354q2 -7 7 -24t15 -46l47 -141l47 -92
q3 -8 9 -19.5t16 -27.5l92 -92l45 -48q44 -16 96 -33t113 -36h139l209 69l137 138l138 342l-127 63h-64l-131 -65v-492h-33v1260q-31 -22 -78.5 -53.5t-111.5 -73.5q-14 -5 -30.5 -10.5t-33.5 -10.5v-686q-14 -32 -32 -69t-41 -80l-103 -101v912q49 14 104.5 32.5
t118.5 40.5l207 137v19l13 -6l71 71q37 -17 76.5 -36.5t81.5 -40.5l147 -148l72 -147q4 -10 10 -28.5t15 -45.5l49 -145v-220zM1632 954l-204 340l-115 58v-394l131 -65h64zM1639 616v306l-123 -62h-80l-123 62v-306l123 62h80z" />
    <glyph glyph-name="Ugrave" unicode="&#xd9;" horiz-adv-x="1733" 
d="M1350 1505h-129l-559 320h209zM1022 1509l-221 -219h-152l-210 70l-230 -113l221 219h152l211 -69zM1766 176l-183 -181l-147 144q-44 -24 -133 -65q-7 -2 -35.5 -12t-79.5 -27l-104 -35h-220q-52 17 -106.5 35.5t-114.5 38.5l-49 49l-100 98q-3 3 -25 49l-47 99l-49 145
q-2 4 -5.5 13t-10.5 23q-9 19 -9 38v219q0 18 9 38q8 16 11.5 25t4.5 11l49 145q4 8 15 31t30 61l92 187l-71 -287q-5 -20 -13.5 -55.5t-21.5 -88.5v-139q2 -5 7 -22.5t15 -46.5l47 -142l48 -92q7 -17 24 -47l92 -92l45 -47l209 -70h269v1038l-203 -51h20v-577
q-14 -32 -32 -69t-41 -81q-20 -20 -46 -44.5t-57 -55.5v688l76 154l197 49q25 6 96 24l139 70l154 152q68 -68 113 -95q5 -4 39.5 -21.5t99.5 -49.5l-164 -82v-918l65 -131h101zM1424 893v336l-60 57l-123 -61v-332h183zM1424 678v182h-183v-182h183zM1424 244v401h-183
v-463z" />
    <glyph glyph-name="Uacute" unicode="&#xda;" horiz-adv-x="1733" 
d="M1358 1825l-559 -320h-129l479 320h209zM1022 1509l-221 -219h-152l-210 70l-230 -113l221 219h152l211 -69zM1766 176l-183 -181l-147 144q-44 -24 -133 -65q-7 -2 -35.5 -12t-79.5 -27l-104 -35h-220q-52 17 -106.5 35.5t-114.5 38.5l-49 49l-100 98q-3 3 -25 49
l-47 99l-49 145q-2 4 -5.5 13t-10.5 23q-9 19 -9 38v219q0 18 9 38q8 16 11.5 25t4.5 11l49 145q4 8 15 31t30 61l92 187l-71 -287q-5 -20 -13.5 -55.5t-21.5 -88.5v-139q2 -5 7 -22.5t15 -46.5l47 -142l48 -92q7 -17 24 -47l92 -92l45 -47l209 -70h269v1038l-203 -51h20
v-577q-14 -32 -32 -69t-41 -81q-20 -20 -46 -44.5t-57 -55.5v688l76 154l197 49q25 6 96 24l139 70l154 152q68 -68 113 -95q5 -4 39.5 -21.5t99.5 -49.5l-164 -82v-918l65 -131h101zM1424 893v336l-60 57l-123 -61v-332h183zM1424 678v182h-183v-182h183zM1424 244v401
h-183v-463z" />
    <glyph glyph-name="Ucircumflex" unicode="&#xdb;" horiz-adv-x="1733" 
d="M1407 1505h-117l-280 211l-281 -211h-116l319 320h156zM1022 1509l-221 -219h-152l-210 70l-230 -113l221 219h152l211 -69zM1766 176l-183 -181l-147 144q-44 -24 -133 -65q-7 -2 -35.5 -12t-79.5 -27l-104 -35h-220q-52 17 -106.5 35.5t-114.5 38.5l-49 49l-100 98
q-3 3 -25 49l-47 99l-49 145q-2 4 -5.5 13t-10.5 23q-9 19 -9 38v219q0 18 9 38q8 16 11.5 25t4.5 11l49 145q4 8 15 31t30 61l92 187l-71 -287q-5 -20 -13.5 -55.5t-21.5 -88.5v-139q2 -5 7 -22.5t15 -46.5l47 -142l48 -92q7 -17 24 -47l92 -92l45 -47l209 -70h269v1038
l-203 -51h20v-577q-14 -32 -32 -69t-41 -81q-20 -20 -46 -44.5t-57 -55.5v688l76 154l197 49q25 6 96 24l139 70l154 152q68 -68 113 -95q5 -4 39.5 -21.5t99.5 -49.5l-164 -82v-918l65 -131h101zM1424 893v336l-60 57l-123 -61v-332h183zM1424 678v182h-183v-182h183z
M1424 244v401h-183v-463z" />
    <glyph glyph-name="Udieresis" unicode="&#xdc;" horiz-adv-x="1733" 
d="M1469 1661l-172 -86l-172 86l172 170zM895 1661l-172 -86l-172 86l172 170zM1022 1509l-221 -219h-152l-210 70l-230 -113l221 219h152l211 -69zM1766 176l-183 -181l-147 144q-44 -24 -133 -65q-7 -2 -35.5 -12t-79.5 -27l-104 -35h-220q-52 17 -106.5 35.5t-114.5 38.5
l-49 49l-100 98q-3 3 -25 49l-47 99l-49 145q-2 4 -5.5 13t-10.5 23q-9 19 -9 38v219q0 18 9 38q8 16 11.5 25t4.5 11l49 145q4 8 15 31t30 61l92 187l-71 -287q-5 -20 -13.5 -55.5t-21.5 -88.5v-139q2 -5 7 -22.5t15 -46.5l47 -142l48 -92q7 -17 24 -47l92 -92l45 -47
l209 -70h269v1038l-203 -51h20v-577q-14 -32 -32 -69t-41 -81q-20 -20 -46 -44.5t-57 -55.5v688l76 154l197 49q25 6 96 24l139 70l154 152q68 -68 113 -95q5 -4 39.5 -21.5t99.5 -49.5l-164 -82v-918l65 -131h101zM1424 893v336l-60 57l-123 -61v-332h183zM1424 678v182
h-183v-182h183zM1424 244v401h-183v-463z" />
    <glyph glyph-name="germandbls" unicode="&#xdf;" horiz-adv-x="1231" 
d="M1170 154q-32 -31 -68 -67.5t-78 -80.5q-5 -10 -22.5 -44t-46.5 -92v-205l165 -166h-120l-78 156v221q0 33 36 143q36 109 36 143v639l-68 135l-160 80l41.5 41.5l44.5 44.5q4 7 68 133q-12 26 -29 58.5t-39 74.5q-1 2 -61 62l-123 -62v-1126l156 -78l-172 -169
q-76 74 -82 79q-53 27 -138 69h-137l197 99v1149l98 24l199 51l153 76l82 -82q14 -29 32.5 -66l41.5 -83v-80l-76 -152l-86 -43h6l152 -75l76 -152v-655z" />
    <glyph glyph-name="agrave" unicode="&#xe0;" horiz-adv-x="1231" 
d="M1057 1219h-123l-479 319h203zM1264 176l-182 -181l-160 159v55l-191 -64l-147 -148l-160 79l-76 151v152q17 35 35.5 72l38.5 77q28 27 61.5 60.5l73.5 73.5l-215 215l166 165l82 -79q7 -5 41.5 -22.5t97.5 -49.5q9 -1 31 -8q5 1 12 3t17 5q28 14 62.5 31.5t76.5 40.5
l82 79l166 -165l-78 -78v-561l61 -62h105zM922 244v549l-164 55q-35 -13 -78.5 -28t-97.5 -32h-107l260 -258l-24 -24l-131 133l-127 -127v-133l67 -135l136 -68h65z" />
    <glyph glyph-name="aacute" unicode="&#xe1;" horiz-adv-x="1231" 
d="M1063 1538l-479 -319h-123l399 319h203zM1264 176l-182 -181l-160 159v55l-191 -64l-147 -148l-160 79l-76 151v152q17 35 35.5 72l38.5 77q28 27 61.5 60.5l73.5 73.5l-215 215l166 165l82 -79q7 -5 41.5 -22.5t97.5 -49.5q9 -1 31 -8q5 1 12 3t17 5q28 14 62.5 31.5
t76.5 40.5l82 79l166 -165l-78 -78v-561l61 -62h105zM922 244v549l-164 55q-35 -13 -78.5 -28t-97.5 -32h-107l260 -258l-24 -24l-131 133l-127 -127v-133l67 -135l136 -68h65z" />
    <glyph glyph-name="acircumflex" unicode="&#xe2;" horiz-adv-x="1231" 
d="M1114 1219h-110l-209 208l-209 -208h-111l240 319h160zM1264 176l-182 -181l-160 159v55l-191 -64l-147 -148l-160 79l-76 151v152q17 35 35.5 72l38.5 77q28 27 61.5 60.5l73.5 73.5l-215 215l166 165l82 -79q7 -5 41.5 -22.5t97.5 -49.5q9 -1 31 -8q5 1 12 3t17 5
q28 14 62.5 31.5t76.5 40.5l82 79l166 -165l-78 -78v-561l61 -62h105zM922 244v549l-164 55q-35 -13 -78.5 -28t-97.5 -32h-107l260 -258l-24 -24l-131 133l-127 -127v-133l67 -135l136 -68h65z" />
    <glyph glyph-name="atilde" unicode="&#xe3;" horiz-adv-x="1231" 
d="M1098 1444q-6 -11 -25.5 -49.5t-52.5 -104.5h-158l-286 144h-62l-61 -62v-65h-33v75l78 156h158l286 -143h62l61 61v66h33v-78zM1264 176l-182 -181l-160 159v55l-191 -64l-147 -148l-160 79l-76 151v152q17 35 35.5 72l38.5 77q28 27 61.5 60.5l73.5 73.5l-215 215
l166 165l82 -79q7 -5 41.5 -22.5t97.5 -49.5q9 -1 31 -8q5 1 12 3t17 5q28 14 62.5 31.5t76.5 40.5l82 79l166 -165l-78 -78v-561l61 -62h105zM922 244v549l-164 55q-35 -13 -78.5 -28t-97.5 -32h-107l260 -258l-24 -24l-131 133l-127 -127v-133l67 -135l136 -68h65z" />
    <glyph glyph-name="adieresis" unicode="&#xe4;" horiz-adv-x="1231" 
d="M1182 1374l-172 -86l-172 86l172 170zM680 1374l-172 -86l-172 86l172 170zM1264 176l-182 -181l-160 159v55l-191 -64l-147 -148l-160 79l-76 151v152q17 35 35.5 72l38.5 77q28 27 61.5 60.5l73.5 73.5l-215 215l166 165l82 -79q7 -5 41.5 -22.5t97.5 -49.5q9 -1 31 -8
q5 1 12 3t17 5q28 14 62.5 31.5t76.5 40.5l82 79l166 -165l-78 -78v-561l61 -62h105zM922 244v549l-164 55q-35 -13 -78.5 -28t-97.5 -32h-107l260 -258l-24 -24l-131 133l-127 -127v-133l67 -135l136 -68h65z" />
    <glyph glyph-name="aring" unicode="&#xe5;" horiz-adv-x="1231" 
d="M883 1300l-82 -81h-156l-82 81v156l82 82h156l82 -82v-156zM1264 176l-182 -181l-160 159v55l-191 -64l-147 -148l-160 79l-76 151v152q17 35 35.5 72l38.5 77q28 27 61.5 60.5l73.5 73.5l-215 215l166 165l82 -79q7 -5 41.5 -22.5t97.5 -49.5q9 -1 31 -8q5 1 12 3t17 5
q28 14 62.5 31.5t76.5 40.5l82 79l166 -165l-78 -78v-561l61 -62h105zM850 1313v131l-61 61h-131l-62 -61v-131l62 -62h131zM922 244v549l-164 55q-35 -13 -78.5 -28t-97.5 -32h-107l260 -258l-24 -24l-131 133l-127 -127v-133l67 -135l136 -68h65z" />
    <glyph glyph-name="ae" unicode="&#xe6;" horiz-adv-x="1518" 
d="M1608 729l-510 -293v-194l131 -66h137l-135 -67q-9 -5 -25.5 -13.5t-41.5 -21.5q-1 -1 -22.5 -22l-64.5 -63q-14 31 -34.5 71t-46.5 90q-1 2 -62 63l-203 -68l-147 -148l-160 79l-76 151v152l72 145l137 138l-215 215l166 165l82 -79q7 -5 41.5 -22.5t97.5 -49.5
q9 -1 31 -8q5 1 12 3t17 5q28 14 62.5 31.5t76.5 40.5l82 79l78 -77h133l151 75zM1422 659l-201 269l-123 -62v-391zM922 244v549l-164 55q-35 -13 -78.5 -28t-97.5 -32h-107l260 -258l-24 -24l-131 133l-127 -127v-133l67 -135l136 -68h65z" />
    <glyph glyph-name="ccedilla" unicode="&#xe7;" horiz-adv-x="1016" 
d="M1223 893l-209 -105h-154l-141 140l-123 -62v-624l131 -66h137l-135 -67q-15 -8 -31.5 -16.5t-35.5 -18.5q-20 -19 -37 -35.5t-31 -30.5l-63 -189h127l82 -82v-84l-154 -154h-227l-105 105h117l72 -72h131l61 61v132l-61 61h-88l6 18v274l-131 65h-138l197 99v647l297 76
q9 2 154 75q18 -19 37.5 -38t39.5 -39q4 -3 138 -70h137z" />
    <glyph glyph-name="egrave" unicode="&#xe8;" horiz-adv-x="1016" 
d="M985 1219h-123l-479 319h203zM1106 729l-510 -293v-194l131 -66h137l-135 -67q-15 -8 -31.5 -16.5t-35.5 -18.5q-6 -5 -82 -79q-73 72 -96 86q-1 1 -31.5 16t-91.5 46h-138l197 99v647l297 76q9 2 154 75zM920 659l-201 269l-123 -62v-391z" />
    <glyph glyph-name="eacute" unicode="&#xe9;" horiz-adv-x="1016" 
d="M1063 1538l-479 -319h-123l399 319h203zM1106 729l-510 -293v-194l131 -66h137l-135 -67q-15 -8 -31.5 -16.5t-35.5 -18.5q-6 -5 -82 -79q-73 72 -96 86q-1 1 -31.5 16t-91.5 46h-138l197 99v647l297 76q9 2 154 75zM920 659l-201 269l-123 -62v-391z" />
    <glyph glyph-name="ecircumflex" unicode="&#xea;" horiz-adv-x="1016" 
d="M1043 1219h-111l-209 208l-209 -208h-110l239 319h160zM1106 729l-510 -293v-194l131 -66h137l-135 -67q-15 -8 -31.5 -16.5t-35.5 -18.5q-6 -5 -82 -79q-73 72 -96 86q-1 1 -31.5 16t-91.5 46h-138l197 99v647l297 76q9 2 154 75zM920 659l-201 269l-123 -62v-391z" />
    <glyph glyph-name="edieresis" unicode="&#xeb;" horiz-adv-x="1016" 
d="M1110 1374l-172 -86l-172 86l172 170zM680 1374l-172 -86l-172 86l172 170zM1106 729l-510 -293v-194l131 -66h137l-135 -67q-15 -8 -31.5 -16.5t-35.5 -18.5q-6 -5 -82 -79q-73 72 -96 86q-1 1 -31.5 16t-91.5 46h-138l197 99v647l297 76q9 2 154 75zM920 659l-201 269
l-123 -62v-391z" />
    <glyph glyph-name="igrave" unicode="&#xec;" horiz-adv-x="730" 
d="M770 1219h-123l-479 319h203zM762 176l-182 -181l-160 159v641l-164 82q35 17 77 38.5t93 47.5q9 6 82 79q73 -73 82 -79q3 -2 45.5 -23t124.5 -63l-164 -82v-557l62 -62h104z" />
    <glyph glyph-name="iacute" unicode="&#xed;" horiz-adv-x="730" 
d="M848 1538l-479 -319h-123l399 319h203zM762 176l-182 -181l-160 159v641l-164 82q35 17 77 38.5t93 47.5q9 6 82 79q73 -73 82 -79q3 -2 45.5 -23t124.5 -63l-164 -82v-557l62 -62h104z" />
    <glyph glyph-name="icircumflex" unicode="&#xee;" horiz-adv-x="730" 
d="M828 1219h-111l-209 208l-209 -208h-110l239 319h160zM762 176l-182 -181l-160 159v641l-164 82q35 17 77 38.5t93 47.5q9 6 82 79q73 -73 82 -79q3 -2 45.5 -23t124.5 -63l-164 -82v-557l62 -62h104z" />
    <glyph glyph-name="idieresis" unicode="&#xef;" horiz-adv-x="730" 
d="M895 1374l-172 -86l-172 86l172 170zM465 1374l-172 -86l-172 86l172 170zM762 176l-182 -181l-160 159v641l-164 82q35 17 77 38.5t93 47.5q9 6 82 79q73 -73 82 -79q3 -2 45.5 -23t124.5 -63l-164 -82v-557l62 -62h104z" />
    <glyph glyph-name="ntilde" unicode="&#xf1;" 
d="M1284 1606l-77 -158q-5 -11 -15 -31t-24 -49l-152 -149h-82l-287 143h-133l-209 -211l78 158q11 28 39 80l152 149h82l286 -143h133zM1366 893l-196 -98v-557l61 -62h105l-183 -181l-159 159v641l-132 65h-65l-201 -67v-551l156 -78l-172 -169q-73 72 -96 86
q-1 1 -31.5 16t-91.5 46h-138l197 99v557l-61 61h-105l182 182l160 -159v-56q34 8 82 24.5t111 39.5l92 47q13 6 47 25q7 4 82 79q71 -71 97 -87q8 -7 122 -62h137z" />
    <glyph glyph-name="ograve" unicode="&#xf2;" 
d="M1057 1219h-123l-479 319h203zM1366 893l-196 -98v-652h-158q-6 -2 -23.5 -7t-46.5 -15l-141 -47q-26 -14 -64.5 -33t-89.5 -44l-77 77q-53 25 -138 69h-209l197 99v651h158q5 2 22.5 7t46.5 15l142 48l64 32t89 45q19 -19 38.5 -38t39.5 -39q4 -3 38 -20.5t99 -49.5h209
zM994 172v623q-27 11 -61.5 28t-76.5 39q-14 16 -30.5 32.5t-34.5 35.5l-195 -66v-622q26 -12 60.5 -29t76.5 -39l66 -68z" />
    <glyph glyph-name="oacute" unicode="&#xf3;" 
d="M1135 1538l-479 -319h-123l399 319h203zM1366 893l-196 -98v-652h-158q-6 -2 -23.5 -7t-46.5 -15l-141 -47q-26 -14 -64.5 -33t-89.5 -44l-77 77q-53 25 -138 69h-209l197 99v651h158q5 2 22.5 7t46.5 15l142 48l64 32t89 45q19 -19 38.5 -38t39.5 -39q4 -3 38 -20.5
t99 -49.5h209zM994 172v623q-27 11 -61.5 28t-76.5 39q-14 16 -30.5 32.5t-34.5 35.5l-195 -66v-622q26 -12 60.5 -29t76.5 -39l66 -68z" />
    <glyph glyph-name="ocircumflex" unicode="&#xf4;" 
d="M1114 1219h-110l-209 208l-209 -208h-111l240 319h160zM1366 893l-196 -98v-652h-158q-6 -2 -23.5 -7t-46.5 -15l-141 -47q-26 -14 -64.5 -33t-89.5 -44l-77 77q-53 25 -138 69h-209l197 99v651h158q5 2 22.5 7t46.5 15l142 48l64 32t89 45q19 -19 38.5 -38t39.5 -39
q4 -3 38 -20.5t99 -49.5h209zM994 172v623q-27 11 -61.5 28t-76.5 39q-14 16 -30.5 32.5t-34.5 35.5l-195 -66v-622q26 -12 60.5 -29t76.5 -39l66 -68z" />
    <glyph glyph-name="otilde" unicode="&#xf5;" 
d="M1098 1444q-6 -11 -25.5 -49.5t-52.5 -104.5h-158l-286 144h-62l-61 -62v-65h-33v75l78 156h158l286 -143h62l61 61v66h33v-78zM1366 893l-196 -98v-652h-158q-6 -2 -23.5 -7t-46.5 -15l-141 -47q-26 -14 -64.5 -33t-89.5 -44l-77 77q-53 25 -138 69h-209l197 99v651h158
q5 2 22.5 7t46.5 15l142 48l64 32t89 45q19 -19 38.5 -38t39.5 -39q4 -3 38 -20.5t99 -49.5h209zM994 172v623q-27 11 -61.5 28t-76.5 39q-14 16 -30.5 32.5t-34.5 35.5l-195 -66v-622q26 -12 60.5 -29t76.5 -39l66 -68z" />
    <glyph glyph-name="odieresis" unicode="&#xf6;" 
d="M1254 1374l-172 -86l-172 86l172 170zM680 1374l-172 -86l-172 86l172 170zM1366 893l-196 -98v-652h-158q-6 -2 -23.5 -7t-46.5 -15l-141 -47q-26 -14 -64.5 -33t-89.5 -44l-77 77q-53 25 -138 69h-209l197 99v651h158q5 2 22.5 7t46.5 15l142 48l64 32t89 45
q19 -19 38.5 -38t39.5 -39q4 -3 38 -20.5t99 -49.5h209zM994 172v623q-27 11 -61.5 28t-76.5 39q-14 16 -30.5 32.5t-34.5 35.5l-195 -66v-622q26 -12 60.5 -29t76.5 -39l66 -68z" />
    <glyph glyph-name="divide" unicode="&#xf7;" horiz-adv-x="1446" 
d="M1039 944l-172 -86l-172 86l172 170zM1385 502h-1037v104h1037v-104zM1039 84l-172 -85l-172 85l172 170z" />
    <glyph glyph-name="ugrave" unicode="&#xf9;" 
d="M1057 1219h-123l-479 319h203zM1366 893l-196 -98v-557l61 -62h105l-183 -181l-159 159v55q-34 -8 -82 -24.5t-111 -39.5l-92 -47q-20 -8 -47 -24q-2 -2 -23 -21.5t-59 -57.5q-73 72 -96 86q-1 1 -31.5 16t-91.5 46h-138l197 99v557l-61 61h-105l182 182l160 -159v-641
l131 -66h66l201 68v551l-156 77l172 170q71 -71 97 -87q8 -7 122 -62h137z" />
    <glyph glyph-name="uacute" unicode="&#xfa;" 
d="M1135 1538l-479 -319h-123l399 319h203zM1366 893l-196 -98v-557l61 -62h105l-183 -181l-159 159v55q-34 -8 -82 -24.5t-111 -39.5l-92 -47q-20 -8 -47 -24q-2 -2 -23 -21.5t-59 -57.5q-73 72 -96 86q-1 1 -31.5 16t-91.5 46h-138l197 99v557l-61 61h-105l182 182
l160 -159v-641l131 -66h66l201 68v551l-156 77l172 170q71 -71 97 -87q8 -7 122 -62h137z" />
    <glyph glyph-name="ucircumflex" unicode="&#xfb;" 
d="M1114 1219h-110l-209 208l-209 -208h-111l240 319h160zM1366 893l-196 -98v-557l61 -62h105l-183 -181l-159 159v55q-34 -8 -82 -24.5t-111 -39.5l-92 -47q-20 -8 -47 -24q-2 -2 -23 -21.5t-59 -57.5q-73 72 -96 86q-1 1 -31.5 16t-91.5 46h-138l197 99v557l-61 61h-105
l182 182l160 -159v-641l131 -66h66l201 68v551l-156 77l172 170q71 -71 97 -87q8 -7 122 -62h137z" />
    <glyph glyph-name="udieresis" unicode="&#xfc;" 
d="M1254 1374l-172 -86l-172 86l172 170zM680 1374l-172 -86l-172 86l172 170zM1366 893l-196 -98v-557l61 -62h105l-183 -181l-159 159v55q-34 -8 -82 -24.5t-111 -39.5l-92 -47q-20 -8 -47 -24q-2 -2 -23 -21.5t-59 -57.5q-73 72 -96 86q-1 1 -31.5 16t-91.5 46h-138
l197 99v557l-61 61h-105l182 182l160 -159v-641l131 -66h66l201 68v551l-156 77l172 170q71 -71 97 -87q8 -7 122 -62h137z" />
    <glyph glyph-name="ydieresis" unicode="&#xff;" 
d="M1254 1374l-172 -86l-172 86l172 170zM680 1374l-172 -86l-172 86l172 170zM1366 893l-196 -98v-851l-74 -222q-32 -33 -68.5 -70t-79.5 -79q-35 -17 -73.5 -36.5t-83.5 -41.5l-78 78q-4 3 -38 20.5t-99 49.5h-209l209 104h151q29 -13 66.5 -31.5t83.5 -42.5l61 -63
l127 127v135q0 17 -9 37q-13 28 -15 35l-47 142v123q-34 -8 -82 -24.5t-111 -39.5l-92 -47q-20 -8 -47 -24q-2 -2 -23 -21.5t-59 -57.5q-73 72 -96 86q-1 1 -31.5 16t-91.5 46h-138l197 99v557l-61 61h-105l182 182l160 -159v-641l131 -66h66l201 68v551l-156 77l172 170
q71 -71 97 -87q8 -7 122 -62h137z" />
    <glyph glyph-name="ohm" unicode="&#x2126;" horiz-adv-x="1733" 
d="M1671 0h-381l-81 82v84l4 4l141 213l70 209v354l-70 283l-139 209l-138 67h-135l-137 -67l-139 -209l-70 -283v-354l70 -209l145 -217v-84l-4 -6l-78 -76v-1l-8 1h-373v446l33 3l41 -252l96 -95l90 -47l109 -20l61 59v60l-213 211l-71 147l-74 219v148l72 290l73 148
l150 147l221 74h148l221 -74l149 -147l74 -148l72 -290v-148l-74 -219l-72 -147l-73 -74l-140 -137v-60l62 -59l192 39l62 41l35 51l47 283l32 -3v-446z" />
    <glyph glyph-name="hyphen" unicode="-" horiz-adv-x="1805" 
d="M1671 645h-1251v105h1251v-105z" />
    <glyph glyph-name="infinity" unicode="&#x221e;" horiz-adv-x="1518" 
d="M1528 729l-76 -154l-225 -73h-223l-109 108l-16 -32l-152 -76h-223l-149 73l-78 80v154l75 154l226 73h223l109 -108l16 33l151 75h224l149 -73l78 -80v-154zM1352 737v135l-66 132h-198l-64 -66l-69 -137v-135l65 -131h199l63 65zM850 737v135l-65 132h-197l-135 -203
v-135l65 -131h199l64 65z" />
    <glyph glyph-name="uniE001" unicode="&#xe001;" horiz-adv-x="0" 
 />
    <glyph glyph-name="Lslash" unicode="&#x141;" horiz-adv-x="1590" 
d="M1022 1581l-221 -219h-225l-140 70l-227 -113l221 219h226l139 -70zM1622 1108l-176 -176h-133v-688l303 -76l-172 -169l-221 73h-498l-377 -94l297 196l291 74h344v674l-116 -60l-138 -135v-70l-73 -149l-103 -100v688l74 149l219 219l150 74h151l168 -84l-172 -170
l-127 127v-303h309zM668 514l-74 -149l-102 -101v453h-121l-94 -94v188l82 82h133v59l73 150l103 100v-688zM1280 1102v332h-119l-135 -136v-383l117 119z" />
    <glyph glyph-name="lslash" unicode="&#x142;" horiz-adv-x="730" 
d="M864 176l-202 -102l-82 -79l-82 79l-137 69h-138l197 99v620l-188 -141l-21 24l209 158v328l-76 153l252 168v-518l189 142l20 -25l-209 -156v-753l131 -66h137z" />
    <glyph glyph-name="Scaron" unicode="&#x160;" horiz-adv-x="1661" 
d="M1309 1939l-297 -297l-313 236l94 96l287 -215l204 205zM1671 727l-73 -96l-146 -195q-13 -20 -37 -55.5t-59 -89.5l-197 -294l-223 75h-354q-26 -7 -119.5 -30.5t-257.5 -63.5l199 131q14 11 38.5 27.5t59.5 37.5q2 1 74.5 19.5t216.5 54.5h219q108 -35 219 -72l-10 -29
l135 205q23 29 70 103l69 209v135q-57 57 -65 63q-5 3 -39 20.5t-98 49.5h-347l-120 -182h333l82 -82v-82l-104 -209v131l-131 65h-277q-29 -31 -63.5 -66t-75.5 -75l-149 -74h-93v127l93 -90q55 25 129 66q4 2 32 30l82 82h-180l-152 76l-75 152v114q19 -20 43.5 -44
t54.5 -52q11 -6 45.5 -23t91.5 -46h275l121 182h-187q-46 16 -100.5 34t-120.5 40q-38 36 -78 75l-76 154l74 149l80 80l221 74h291q22 -5 100.5 -25t216.5 -55l-108 -108q-9 -8 -22.5 -21t-32.5 -33q-11 -17 -21 -32.5t-20 -30.5l-84 -125h403l152 -76l75 -151v-154z
M1133 1305l-35.5 35.5t-15.5 14.5q-14 11 -58 34l-92 47q-19 10 -45 19t-58 19l-106 31l-207 -69l-63 -64v-131l63 -63l209 -70h277z" />
    <glyph glyph-name="glyph175" horiz-adv-x="1518" 
 />
    <glyph glyph-name="scaron" unicode="&#x161;" horiz-adv-x="1160" 
d="M1022 1438l-297 -297l-313 235l94 97l287 -216l205 205zM1141 1104l-78 -158q-8 -23 -39 -78l-96 -145q-7 -10 -19 -28t-30 -44l-51 -51t-66 -65h180l156 -78v-310l-223 -73l-4 -6l-4 2l-144 -71l-147 73h-135l-140 -70l-10 16l-10 9l71 96l144 190l188 189h-180l-156 78
v309l76 24l150 50l149 75l148 -73h133zM1022 936l-6 -4h-2l-143 -72h-152l-135 68l-59 -58v-270l131 -65h61l137 137q5 8 16.5 25.5t30.5 45.5l95 142q1 2 7.5 14.5t18.5 36.5zM922 166v270l-131 66h-62l-69 -70l-140 -139q-7 -10 -19.5 -27t-31.5 -43l-106 -139l141 92h223
l135 -67z" />
    <glyph glyph-name="Zcaron" unicode="&#x17d;" horiz-adv-x="1446" 
d="M1166 1939l-297 -297l-314 236l94 96q21 -16 92.5 -69.5t194.5 -145.5l205 205zM1297 788h-287v33h287v-33zM1479 1546l-240 -319l-143 -287l-574 -717l-49 -98l101 51l290 72h291l318 -80l-172 -169l-221 73h-426l-400 -79l240 318l143 287l144 190h-273v33h287v-14
l59 80l357 428l49 98l-101 -51l-290 -72h-291l-318 80l172 170l222 -74h426zM914 1735l-260 194l-50 -47l260 -194zM1323 1481l-239 -47h-435l-208 69l-115 -117l256 -63h282l283 72zM1401 1497l-70 -14l-92 -185l-360 -432l-213 -284l-144 -287l-190 -254l70 14l92 185
l573 716l144 287zM1407 152l-256 63h-282l-283 -72l-176 -86l239 47h435l209 -69z" />
    <glyph glyph-name="glyph178" horiz-adv-x="1518" 
 />
    <glyph glyph-name="Omega" unicode="&#x3a9;" horiz-adv-x="1733" 
d="M1671 0h-381l-81 82v84l4 4l141 213l70 209v354l-70 283l-139 209l-138 67h-135l-137 -67l-139 -209l-70 -283v-354l70 -209l145 -217v-84l-4 -6l-78 -76v-1l-8 1h-373v446l33 3l41 -252l96 -95l90 -47l109 -20l61 59v60l-213 211l-71 147l-74 219v148l72 290l73 148
l150 147l221 74h148l221 -74l149 -147l74 -148l72 -290v-148l-74 -219l-72 -147l-73 -74l-140 -137v-60l62 -59l192 39l62 41l35 51l47 283l32 -3v-446z" />
    <glyph glyph-name="ccaron" unicode="&#x10d;" horiz-adv-x="2061" 
d="M951 1438l-297 -297l-314 235l94 97q21 -16 92.5 -69.5t194.5 -146.5l205 205zM1223 893l-209 -105h-154l-141 140l-123 -62v-624l131 -66h137l-202 -102l-82 -79l-82 79l-137 69h-138l197 99v647l297 76l154 75l77 -77l138 -70h137z" />
    <glyph glyph-name="Aogonek" unicode="&#x104;" horiz-adv-x="1590" 
d="M1796 -214h-288l-156 78v159l68 69l-213 481h-535l-139 -325h123l168 -84l-172 -169l-78 77h-207l-279 -91l195 193l149 74h66l301 702l-18 -10l-68 135h-127l-66 -67l-24 24l74 74l149 74h82l68 -66l47 109l-64 145l-63 66h-131l-138 -140l-24 25l151 147l144 72h153
l80 -78l502 -1147l63 -65h168l-157 -236v-128zM1190 606l-256 580l-248 -580h504z" />
    <glyph glyph-name="Cacute" unicode="&#x106;" horiz-adv-x="1733" 
d="M1546 1882l-456 -274l274 364zM1786 530l-117 -237l-147 -148l-148 -71l-219 -74h-219l-221 74l-219 147l-74 148l-74 219v291l74 219l72 147l147 148l238 116l-213 -213l-72 -139l-69 -211v-282l69 -209l209 -209l209 -70h211l201 66v1048h-131l-136 68l-59 -60v-712
l-74 -150l-102 -100v909l149 76l222 221l151 -76h133l137 140l-118 -240l-140 -70v-1038l117 59z" />
    <glyph glyph-name="aogonek" unicode="&#x105;" horiz-adv-x="1231" 
d="M1366 -142h-289l-155 77v272l-191 -62l-147 -148l-160 79l-76 151v152l74 149l133 134l-213 215l166 165l82 -79l139 -72l31 -10l29 10l139 72l82 79l166 -165l-78 -78v-561l61 -62h105l-94 -94v-126zM922 244v549l-164 55l-176 -60h-107l260 -258l-24 -24l-131 131
l-127 -127v-131l67 -135l136 -68h65z" />
    <glyph glyph-name="Ccaron" unicode="&#x10c;" horiz-adv-x="1733" 
d="M1309 1939l-297 -297l-313 236l94 96q21 -16 92.5 -69.5t194.5 -145.5l204 205zM1786 530l-117 -237l-147 -148l-148 -71l-219 -74h-219l-221 74l-219 147l-74 148l-74 219v291l74 219l72 147l147 148l238 116l-213 -213l-72 -139l-69 -211v-282l69 -209l209 -209
l209 -70h211l201 66v1048h-131l-136 68l-59 -60v-712l-74 -150l-102 -100v909l149 76l222 221l151 -76h133l137 140l-118 -240l-140 -70v-1038l117 59z" />
    <glyph glyph-name="cacute" unicode="&#x107;" horiz-adv-x="2061" 
d="M1188 1380l-457 -274l275 364zM1223 893l-209 -105h-154l-141 140l-123 -62v-624l131 -66h137l-202 -102l-82 -79l-82 79l-137 69h-138l197 99v647l297 76l154 75l77 -77l138 -70h137z" />
    <glyph glyph-name="zcaron" unicode="&#x17e;" 
d="M1094 1438l-297 -297l-313 235l94 97q20 -16 91.5 -69.5t194.5 -146.5l205 205zM1270 1049l-37 -43l-403 -471h252v-33h-281l-373 -436l217 108l219 74h222l168 -84l-168 -167l-152 75h-280l-334 -83l37 42l403 471h-252v33h281l372 436l-217 -109l-219 -74h-221l-168 84
l168 168l152 -75h280zM842 1233l-260 194l-49 -47l260 -194zM1084 967l-144 -35h-293l-135 67l-119 -118l119 -60h209l211 70zM1196 156l-119 59h-208l-211 -70l-152 -75l143 34h293l135 -67z" />
    <glyph glyph-name="hyphenminus" unicode="&#x2010;" horiz-adv-x="1805" 
d="M1671 645h-1251v105h1251v-105z" />
    <glyph glyph-name="onequarter" unicode="&#xbc;" horiz-adv-x="2091" 
d="M2030 -22l-94 94h-193v-45l131 -65h137l-135 -67q-15 -8 -31.5 -16.5t-35.5 -18.5q-3 -2 -23.5 -22t-58.5 -58q-72 72 -96 87q-1 1 -31.5 16t-91.5 46h-138l197 98v45h-430v237l518 518l164 -161l-76 -152v-410h193l94 95v-221zM936 893l-135 -68q-19 -9 -68 -34
q-2 -1 -81 -80q-38 38 -58.5 58t-23.5 22q-53 27 -138 69h-137l197 98v486l-154 151l248 166l82 -164v-639l131 -65h137zM1755 1825l-1237 -2111h-110l1237 2111h110zM1567 104v590l-254 -254v-336h254z" />
    <glyph glyph-name="onehalf" unicode="&#xbd;" horiz-adv-x="2163" 
d="M2116 -48l-170 -170l-152 76h-280q-22 -5 -92 -22.5t-191 -47.5q-5 -4 -10.5 -7.5t-11.5 -8.5v248q14 31 32 68t41 82l78 76q52 17 106.5 35.5t114.5 37.5h273v332l-123 62l-66 -66q-28 -14 -64.5 -32.5t-84.5 -41.5h-152l-209 105h209q28 13 61.5 30.5t75.5 39.5
q2 1 78 77l295 -147h156v-391h-445l-209 -70q-55 -55 -77 -92q-3 -5 -17.5 -33t-40.5 -80v-179q41 28 88.5 60t102.5 67l147 48q2 1 11 5t25 11q19 9 38 9h219zM936 893l-135 -68q-19 -9 -68 -34q-2 -1 -81 -80q-38 38 -58.5 58t-23.5 22q-53 27 -138 69h-137l197 98v486
l-154 151l248 166l82 -164v-639l131 -65h137zM1755 1825l-1237 -2111h-110l1237 2111h110z" />
    <glyph glyph-name="Yacute" unicode="&#xdd;" horiz-adv-x="1661" 
d="M1358 1825l-559 -320h-129l479 320h209zM1692 1378l-164 -82v-1498q-17 -35 -35.5 -72.5t-38.5 -76.5q-2 -3 -153 -154l-51 27l-103 49l-188 47q-14 5 -38 11.5t-57 13.5h-489l418 104h434l205 -68l63 127v206l-133 199q-89 -27 -201 -66l-221 -146l-51 24l-100 51
l-142 47q-17 8 -69 22h-283l197 99v475h-121l-94 -94v188l82 82h133v410q-16 32 -33.5 66.5t-36.5 70.5l-141 141l158 -78q11 -5 30.5 -15t48.5 -24l76 -75l74 -150v-991h254v999q39 10 95 28t130 46l92 47q8 3 19.5 9t27.5 16q13 10 154 151q68 -68 113 -95
q5 -4 39.5 -21.5t99.5 -49.5zM1352 1030v270l-59 58l-43 -23l-91 -43l-204 -69v-193l131 -65h135zM1352 616v377l-123 -61h-152l-122 61v-377l122 62h152zM1352 244v336l-131 65h-135l-131 -65v-336l198 -68z" />
    <glyph glyph-name="yacute" unicode="&#xfd;" 
d="M1143 1538l-559 -319h-129l479 319h209zM1366 893l-196 -98v-851l-74 -222q-32 -33 -68.5 -70t-79.5 -79q-35 -17 -73.5 -36.5t-83.5 -41.5l-78 78q-4 3 -38 20.5t-99 49.5h-209l209 104h151q29 -13 66.5 -31.5t83.5 -42.5l61 -63l127 127v135q0 17 -9 37q-13 28 -15 35
l-47 142v123q-34 -8 -82 -24.5t-111 -39.5l-92 -47q-20 -8 -47 -24q-2 -2 -23 -21.5t-59 -57.5q-73 72 -96 86q-1 1 -31.5 16t-91.5 46h-138l197 99v557l-61 61h-105l182 182l160 -159v-641l131 -66h66l201 68v551l-156 77l172 170q71 -71 97 -87q8 -7 122 -62h137z" />
    <glyph glyph-name="Dcaron" unicode="&#x10e;" horiz-adv-x="1661" 
d="M1309 1939l-297 -297l-313 236l94 96q21 -16 92.5 -69.5t194.5 -145.5l204 205zM1528 215h-156l-135 -68l-151 -150l-152 75h-352l-377 -94l295 196l221 74h201v1114h-418l-149 74l-101 102h1047l151 -76l76 -151v-1096zM740 586l-74 -150l-103 -100v381h-120l-95 -94
v188l82 82h133v59l74 150l103 100v-616zM1352 1030v270l-62 62h-335v-332l131 -65h135zM1352 616v377l-123 -61h-152l-122 61v-377l122 62h152zM1352 242v338l-131 65h-135l-131 -65v-332h57l211 -72z" />
    <glyph glyph-name="dcaron" unicode="&#x10f;" horiz-adv-x="1231" 
d="M1176 1538l-80 -244l-195 -96l93 184v156h182zM1170 143h-154l-213 -69l-156 -77l-77 77l-138 69h-209l197 99v647l225 74l121 61l-356 356l250 166l78 -231l432 -432v-740zM994 172v627l-201 200l-197 -131v-626l137 -68l66 -68z" />
    <glyph glyph-name="Eogonek" unicode="&#x118;" horiz-adv-x="1590" 
d="M951 1581l-222 -219h-153l-140 70l-227 -113l221 219h154l139 -70zM1616 168l-160 -158v-130l95 -94h-189l-82 82v185l-57 19h-498l-377 -94l297 196l226 57h-21v791l78 227l68 140l75 75l150 74h149l244 -82l-170 -170l-151 76h-136l-137 -70l-69 -69l-68 -205v-471
l45 129l68 139l79 78h154l168 -84l-172 -170l-78 78h-131l-65 -68l-68 -205v-211l53 15h363zM668 514l-74 -149l-102 -101v453h-121l-94 -94v188l82 82h133v59l73 150l103 100v-688z" />
    <glyph glyph-name="eogonek" unicode="&#x119;" horiz-adv-x="1016" 
d="M1106 729l-510 -293v-194l131 -66h137l-153 -84l27 -134l301 -100h-398l-76 150l-67 66l-137 69h-138l197 99v647l297 76l154 75zM920 659l-201 269l-123 -62v-391z" />
    <glyph glyph-name="Ecaron" unicode="&#x11a;" horiz-adv-x="1590" 
d="M951 1581l-222 -219h-153l-140 70l-227 -113l221 219h154l139 -70zM1616 168l-172 -169l-221 73h-498l-377 -94l297 196l226 57h-21v791l78 227l68 140l75 75l150 74h149l244 -82l-170 -170l-151 76h-136l-137 -70l-69 -69l-68 -205v-471l45 129l68 139l79 78h154
l168 -84l-172 -170l-78 78h-131l-65 -68l-68 -205v-211l53 15h363zM668 514l-74 -149l-102 -101v453h-121l-94 -94v188l82 82h133v59l73 150l103 100v-688zM1237 1939l-297 -297l-313 236l94 96l287 -215l205 205z" />
    <glyph glyph-name="ecaron" unicode="&#x11b;" horiz-adv-x="1016" 
d="M951 1438l-297 -297l-314 235l94 97l287 -216l205 205zM1106 729l-510 -293v-194l131 -66h137l-202 -102l-82 -79l-82 79l-137 69h-138l197 99v647l297 76l154 75zM920 659l-201 269l-123 -62v-391z" />
    <glyph glyph-name="Nacute" unicode="&#x143;" horiz-adv-x="1805" 
d="M1475 1810l-457 -274l275 365zM1929 1606l-118 -240l-152 -76h-59v-1299l-170 83l-148 147l-139 285l-137 67h-279l-131 -65v-260h203l168 -84l-172 -169l-78 77h-207l-278 -91l194 193l137 68v475h-120l-95 -94v188l82 82h133v541h-118l-140 -140l-24 25l145 145l150 74
h151l150 -76l147 -219l66 -143l4 4l70 -70l137 -69h135l131 65v260h-59l-168 84l168 168l151 -76h133zM1567 199v794l-123 -61h-151l-150 74l-20 20l260 -571l141 -213zM1123 553l-199 459l-72 143l-139 211l-117 57v-878l123 61h295z" />
    <glyph glyph-name="nacute" unicode="&#x144;" 
d="M1260 1309l-457 -275l274 365zM1366 893l-196 -98v-557l61 -62h105l-183 -181l-159 159v641l-132 65h-67l-199 -67v-551l156 -78l-172 -169l-82 79l-137 69h-138l197 99v557l-61 61h-105l182 182l160 -159v-54l193 62l139 72l82 79l82 -79l137 -70h137z" />
    <glyph glyph-name="Ncaron" unicode="&#x147;" horiz-adv-x="1805" 
d="M1929 1606l-118 -240l-152 -76h-59v-1299l-170 83l-148 147l-139 285l-137 67h-279l-131 -65v-260h203l168 -84l-172 -169l-78 77h-207l-278 -91l194 193l137 68v475h-120l-95 -94v188l82 82h133v541h-118l-140 -140l-24 25l145 145l150 74h151l150 -76l147 -219l66 -143
l4 4l70 -70l137 -69h135l131 65v260h-59l-168 84l168 168l151 -76h133zM1567 199v794l-123 -61h-151l-150 74l-20 20l260 -571l141 -213zM1123 553l-199 459l-72 143l-139 211l-117 57v-878l123 61h295zM1377 1939l-297 -297l-313 236l94 96l287 -215l205 205z" />
    <glyph glyph-name="ncaron" unicode="&#x148;" 
d="M1366 893l-196 -98v-557l61 -62h105l-183 -181l-159 159v641l-132 65h-67l-199 -67v-551l156 -78l-172 -169l-82 79l-137 69h-138l197 99v557l-61 61h-105l182 182l160 -159v-54l193 62l139 72l82 79l82 -79l137 -70h137zM1111 1438l-297 -297l-314 235l94 97l287 -216
l205 205z" />
    <glyph glyph-name="Odblacute" unicode="&#x150;" horiz-adv-x="1876" 
d="M1389 2040l-92 -371l-93 371h185zM1102 2040l-92 -371l-92 371h184zM1815 659l-74 -219l-72 -147l-147 -148l-146 -71l-221 -74h-147l-227 78l-140 67l-147 148l-72 147l-74 219v291l74 219l72 148l147 147l238 117l-213 -213l-72 -139l-69 -211v-426l69 -211l72 -139
l141 -142l205 -67h139l209 69l137 138l138 342l-127 63h-64l-131 -65v-492h-33v1331l-190 -127l-64 -20v-758l-73 -149l-103 -101v983l223 74l207 137v19l15 -7l69 72l158 -78l147 -147l72 -148l74 -219v-291zM1632 1026l-204 340l-115 57v-393l131 -65h64zM1639 616v377
l-123 -61h-80l-123 61v-377l123 62h80z" />
    <glyph glyph-name="odblacute" unicode="&#x151;" 
d="M1030 1538l-92 -371l-92 371h184zM744 1538l-92 -371l-93 371h185zM1366 893l-196 -98v-652h-154l-215 -69l-154 -77l-77 77l-138 69h-209l197 99v651h154l215 70l153 77l78 -77l137 -70h209zM994 172v623l-138 67l-67 68l-193 -66v-622l137 -68l68 -68z" />
    <glyph glyph-name="Rcaron" unicode="&#x158;" horiz-adv-x="1733" 
d="M1309 1939l-297 -297l-313 236l94 96q21 -16 92.5 -69.5t194.5 -145.5l204 205zM1766 176l-183 -181l-157 157l-144 430l-133 131l-127 -64l-69 -141l-103 -100v688l74 149l76 74l217 145l151 76l156 -78l76 -151v-224l-74 -149l-76 -76l-260 -129l117 -57l74 -76
l215 -358l65 -66h105zM1022 1581l-221 -219h-225l-140 70l-227 -113l221 219h226l139 -70zM668 514l-74 -149l-102 -101v453h-121l-94 -94v188l82 82h133v59l73 150l103 100v-688zM1256 166l-170 -169l-152 75h-209l-377 -94l295 196l221 74h148zM1424 1024v207l-68 135
l-129 66l-201 -134v-610l119 60l211 139z" />
    <glyph glyph-name="rcaron" unicode="&#x159;" horiz-adv-x="1016" 
d="M951 1438l-297 -297l-314 235l94 97q21 -16 92.5 -69.5t194.5 -146.5l205 205zM1223 893l-209 -105h-154l-141 140l-123 -62v-624l131 -66h137l-202 -102l-82 -79l-82 79l-137 69h-138l197 99v557l-61 61h-105l182 182l148 -145l287 143l77 -77l138 -70h137z" />
    <glyph glyph-name="Sacute" unicode="&#x15a;" horiz-adv-x="1661" 
d="M1403 1872l-457 -275l275 365zM1671 727l-219 -291l-293 -439l-223 75h-354l-377 -94l297 196l291 74h219l219 -72l-10 -29l203 308l71 209v135l-65 63l-137 70h-347l-120 -182h333l82 -82v-82l-104 -209v131l-131 65h-275l-141 -141l-149 -74h-93v127l93 -90l129 66
l112 112h-178l-152 76l-75 152v114l98 -96l137 -69h275l121 182h-187l-221 74l-78 75l-76 154l76 151l78 78l221 74h291l317 -80l-163 -162l-125 -188h403l152 -76l75 -151v-154zM1133 1303l-62 61l-139 72l-211 67l-205 -67l-63 -64v-131l63 -63l209 -70h277z" />
    <glyph glyph-name="sacute" unicode="&#x15b;" horiz-adv-x="1160" 
d="M1116 1309l-456 -275l274 365zM1141 1104l-117 -236l-145 -217l-117 -116h180l156 -78v-310l-219 -71l-8 -8l-4 2l-144 -71l-147 73h-135l-140 -70l-8 14l-12 11l215 286l188 189h-180l-156 78v309l222 72l153 77l148 -73h133zM1022 936l-6 -4h-2l-143 -72h-152l-135 68
l-59 -58v-270l131 -65h61l137 137l142 213zM922 166v270l-131 66h-62l-209 -209l-157 -211l141 94h223l135 -67z" />
    <glyph glyph-name="tcedilla" unicode="&#x163;" horiz-adv-x="1733" 
d="M1309 1939l-297 -297l-313 236l94 96q21 -16 92.5 -69.5t194.5 -145.5l204 205zM1811 1581l-217 -217l-138 -68v-1038l117 59l213 213l-117 -237l-147 -148l-148 -71l-219 -74h-219l-219 74l-147 73l-148 220l-74 221v291l72 219l74 145l28 -16l-69 -142v-350l69 -209
l140 -211l139 -69l211 -70h211l201 66v1048h-201l-45 17l-80 -80v-641l-74 -150l-102 -100v838l149 75l70 70l-348 115h-209l-137 -70l-142 -141l119 239l152 76h293l430 -72h280z" />
    <glyph glyph-name="Tcaron" unicode="&#x164;" horiz-adv-x="730" 
d="M889 1538l-80 -244l-194 -96l92 184v156h182zM864 176l-202 -102l-82 -79l-82 79l-137 69h-138l197 99v762h-199v32h199v195l-76 153l252 168v-516h199v-32h-199v-762l131 -66h137z" />
    <glyph glyph-name="Uring" unicode="&#x16e;" horiz-adv-x="1733" 
d="M1186 1731l-98 -82h-156l-82 82v159l160 80l158 -80zM1022 1581l-221 -219h-152l-210 70l-230 -113l221 219h152l211 -70zM1766 176l-183 -181l-147 144l-133 -65l-219 -74h-220l-221 74l-149 147l-72 148l-74 219v291l74 219l137 278l-106 -430v-211l69 -211l72 -139
l137 -139l209 -70h269v1108l-207 -49h24v-649l-73 -150l-103 -100v760l76 153l293 74l139 70l154 151l82 -80l170 -86l-164 -82v-989l65 -131h101zM1151 1753l-12 117l-113 55v-110l62 -62h63zM1424 965v335l-60 58l-123 -62v-331h183zM1424 678v254h-183v-254h183z
M1424 244v401h-183v-463z" />
    <glyph glyph-name="uring" unicode="&#x16f;" 
d="M955 1219h-9l-73 -72h-156l-82 82v160l143 71v17l177 -88v-170zM1366 893l-196 -98v-557l61 -62h105l-183 -181l-159 159v53l-191 -62l-141 -71l-82 -79l-82 79l-137 69h-138l197 99v557l-61 61h-105l182 182l160 -159v-641l131 -66h66l201 68v551l-156 77l172 170
l82 -79l137 -70h137zM922 1251v117l-111 55v-110l62 -62h49z" />
    <glyph glyph-name="Udblacute" unicode="&#x170;" horiz-adv-x="1733" 
d="M1317 2040l-92 -371l-92 371h184zM1030 2040l-92 -371l-92 371h184zM1022 1581l-221 -219h-152l-210 70l-230 -113l221 219h152l211 -70zM1766 176l-183 -181l-147 144l-133 -65l-219 -74h-220l-221 74l-149 147l-72 148l-74 219v291l74 219l137 278l-106 -430v-211
l69 -211l72 -139l137 -139l209 -70h269v1108l-207 -49h24v-649l-73 -150l-103 -100v760l76 153l293 74l139 70l154 151l82 -80l170 -86l-164 -82v-989l65 -131h101zM1424 965v335l-60 58l-123 -62v-331h183zM1424 678v254h-183v-254h183zM1424 244v401h-183v-463z" />
    <glyph glyph-name="udblacute" unicode="&#x171;" 
d="M1030 1538l-92 -371l-92 371h184zM744 1538l-92 -371l-93 371h185zM1366 893l-196 -98v-557l61 -62h105l-183 -181l-159 159v53l-191 -62l-141 -71l-82 -79l-82 79l-137 69h-138l197 99v557l-61 61h-105l182 182l160 -159v-641l131 -66h66l201 68v551l-156 77l172 170
l82 -79l137 -70h137z" />
    <glyph glyph-name="Zacute" unicode="&#x179;" horiz-adv-x="1446" 
d="M1403 1882l-457 -274l275 364zM1479 1546l-240 -319l-143 -287l-94 -119h295v-33h-322l-453 -565l-49 -98l101 51l290 72h291l318 -80l-172 -169l-221 73h-426l-400 -79l240 318l143 287l144 190h-273v33h297l49 66l357 428l49 98l-101 -51l-290 -72h-291l-318 80
l172 170l222 -74h426z" />
    <glyph glyph-name="zacute" unicode="&#x17a;" 
d="M1260 1309l-457 -275l274 365zM1270 1049l-37 -43l-403 -471h252v-33h-281l-373 -436l217 108l219 74h222l168 -84l-168 -167l-152 75h-280l-334 -83l37 42l403 471h-252v33h281l372 436l-217 -109l-219 -74h-221l-168 84l168 168l152 -75h280zM1190 1305l-104 53
l-156 -209zM1084 967l-144 -35h-293l-135 67l-119 -118l119 -60h209l211 70zM1196 156l-119 59h-208l-211 -70l-152 -75l143 34h293l135 -67z" />
    <glyph glyph-name="Zdot" unicode="&#x17b;" horiz-adv-x="1446" 
d="M1026 1659l-82 -82h-84l-82 82v84l82 82h84l82 -82v-84zM1297 788h-287v33h287v-33zM1479 1546l-240 -319l-143 -287l-574 -717l-49 -98l101 51l290 72h291l318 -80l-172 -169l-221 73h-426l-400 -79l240 318l143 287l144 190h-273v33h287v-14l59 80l357 428l49 98
l-101 -51l-290 -72h-291l-318 80l172 170l222 -74h426zM994 1671v60l-62 61h-59l-62 -61v-60l62 -61h59zM1323 1481l-239 -47h-435l-208 69l-115 -117l256 -63h282l283 72zM1401 1497l-70 -14l-92 -185l-360 -432l-213 -284l-144 -287l-190 -254l70 14l92 185l573 716
l144 287zM1407 152l-256 63h-282l-283 -72l-176 -86l239 47h435l209 -69z" />
    <glyph glyph-name="zdot" unicode="&#x17c;" 
d="M889 1163l-94 -94l-94 94l94 94zM1270 1049l-37 -43l-403 -471h252v-33h-281l-373 -436l217 108l219 74h222l168 -84l-168 -167l-152 75h-280l-334 -83l37 42l403 471h-252v33h281l372 436l-217 -109l-219 -74h-221l-168 84l168 168l152 -75h280zM844 1163l-49 49
l-49 -49l49 -49zM1084 967l-144 -35h-293l-135 67l-119 -118l119 -60h209l211 70zM1196 156l-119 59h-208l-211 -70l-152 -75l143 34h293l135 -67z" />
    <glyph glyph-name="Acyril" unicode="&#x410;" horiz-adv-x="1590" 
d="M1757 248l-165 -248h-86l-80 78l-219 495h-535l-139 -325h123l168 -84l-172 -169l-78 77h-207l-279 -91l195 193l149 74h66l301 702l-18 -10l-68 135h-127l-66 -67l-24 24l74 74l149 74h82l68 -66l47 111l-64 143l-63 66h-131l-138 -140l-24 25l151 147l144 72h153
l80 -78l502 -1147l63 -65h168zM1192 606l-258 580l-248 -580h506z" />
    <glyph glyph-name="Be" unicode="&#x411;" horiz-adv-x="1733" 
d="M951 1581l-222 -219h-153l-140 70l-227 -113l221 219h154l139 -70zM1671 215h-155l-137 -70l-150 -148l-152 75h-352l-377 -94l297 196l226 57h-21v793l146 362l75 78l150 74h149l244 -82l-170 -170l-151 76h-136l-131 -66v-639l-73 -149l-70 -68v-207l53 15h219l211 -70
l129 64v188h-254v-199h-32v656l163 82l7 -8l217 -146l75 -149v-451zM668 514l-74 -149l-102 -101v453h-121l-94 -94v188l82 82h133v59l73 150l103 100v-688zM1495 678v51l-69 137l-62 62l-123 -62v-188h254zM1495 463v182h-254v-182h254z" />
    <glyph glyph-name="Ve" unicode="&#x412;" horiz-adv-x="1733" 
d="M1022 1581l-221 -219h-225l-140 70l-227 -113l221 219h226l139 -70zM1671 215h-155l-137 -70l-150 -148l-152 75h-352l-377 -94l295 196l221 74h291l54 -19v658l149 76l137 135v202l-65 64l-133 68l-271 -136v-639l-73 -149l-103 -100v688l74 149l76 76l440 219l156 -78
l75 -151v-154l-149 -151l-121 -60l195 -131l75 -149v-451zM668 514l-74 -149l-102 -101v453h-121l-94 -94v188l82 82h133v59l73 150l103 100v-688zM1495 678v51l-133 199l-121 -62v-188h254zM1495 463v182h-254v-182h254zM1495 242v188h-254v-211l125 -41z" />
    <glyph glyph-name="Ge" unicode="&#x413;" horiz-adv-x="1661" 
d="M1094 1581l-221 -219h-226l-139 70l-227 -113l221 219h225l140 -70zM1786 1606l-119 -240l-151 -76h-152l-135 68l-59 -58v-1001l-76 -152l-295 -147h-152l-143 72h-137l-279 -91l195 193l149 74h152l287 -144h61l62 62v1079l149 76l221 221l152 -76h133zM811 586
l-73 -150l-103 -100v381h-121l-94 -94v188l82 82h133v59l74 150l102 100v-616z" />
    <glyph glyph-name="De" unicode="&#x414;" horiz-adv-x="1805" 
d="M1743 659l-74 -219l-71 -147l-148 -148l-143 -71l-78 -77l-152 75h-352l-377 -94l297 196l277 70v780l74 150l102 100v-981l-90 -45h147l209 -70l62 64l71 139l70 211v354l-70 211l-71 139l-138 140l-208 69h-269v-870l-20 10h-144l-149 74l-76 76l-74 149v223l74 150
l150 147l221 74h291l219 -74l147 -71l148 -148l71 -147l74 -219v-220zM778 1180v315l-116 -59l-68 -68l-69 -137v-51h253zM778 965v182h-253v-182h253zM778 688v244h-243l59 -117l68 -67z" />
    <glyph glyph-name="Ie" unicode="&#x415;" horiz-adv-x="1590" 
d="M951 1581l-222 -219h-153l-140 70l-227 -113l221 219h154l139 -70zM1616 168l-172 -169l-221 73h-498l-377 -94l297 196l205 51v797l74 219l72 148l75 75l150 74h149l244 -82l-170 -170l-151 76h-136l-137 -70l-67 -65l-70 -209v-471l41 121l72 147l79 78h154l168 -84
l-172 -170l-78 78h-131l-63 -64l-70 -209v-211l53 15h363zM668 514l-74 -149l-102 -101v453h-121l-94 -94v188l82 82h133v59l73 150l103 100v-688z" />
    <glyph glyph-name="Zhe" unicode="&#x416;" horiz-adv-x="1733" 
d="M1858 -67l-137 139h-134l-155 -77l-86 191l-187 -186h-225l-139 70l-227 -112l354 351v387l-334 -701l-156 77h-133l-137 -139l119 239l151 76h154l55 -53l279 573l-10 20h-402v33h385l-244 502l-10 -4l10 8l-8 16l-55 -53h-154l-151 76l-119 240l137 -140h133l156 78
l86 -192l186 186h226l139 -70l227 113l-354 -352v-387l334 702l155 -78h134l137 140l-119 -240l-152 -76h-153l-55 53l-252 -522h385v-33h-402l-10 -18l270 -555l11 4l-11 -8l9 -16l55 53h153l152 -76zM1227 1362h-221l-139 70l-187 -95l242 -499v184l74 225zM1340 201
l-242 499v-258l-76 -151l-229 -115h221l139 -70z" />
    <glyph glyph-name="Ze" unicode="&#x417;" horiz-adv-x="1661" 
d="M1671 727l-512 -728l-223 73h-354l-377 -94l297 196l291 74h219l227 -80l197 281l-12 4l71 211v133l-202 135h-572l-221 74l-80 79v189l96 -96l209 -70h426l209 70l64 63v131l-64 64l-207 69l-209 -69l-139 -72l-82 -80l-176 174l317 80h291l221 -74l78 -75l76 -154
l-67 -135l133 -68l75 -151v-154zM1241 586l-73 -148l-29 17l20 41l-153 77h-502l-152 76l-75 152v114l98 -96l137 -69h647l82 -82v-82z" />
    <glyph glyph-name="Ii" unicode="&#x418;" horiz-adv-x="1805" 
d="M1932 -19l-279 91h-207l-78 -77l-172 169l168 84h203v260l-131 65h-279l-135 -67l-141 -285l-148 -147l-170 -83v1299h-59l-152 76l-118 240l137 -140h133l152 76l168 -168l-168 -84h-60v-260l131 -65h135l138 69l69 70l4 -4l66 143l147 219l150 76h151l150 -74l145 -145
l-24 -25l-137 140h-121v-541h133l82 -82v-188l-94 94h-121v-475l137 -68zM1567 545v878l-117 -57l-139 -211l-72 -143l-196 -459l106 53h295zM1041 1028l-21 -22l-149 -74h-152l-123 61v-794l43 43l142 213z" />
    <glyph glyph-name="Iibreve" unicode="&#x419;" horiz-adv-x="1948" 
d="M1524 1868l-221 -219h-226l-139 69l-227 -112l221 219h225l140 -70zM1932 -19l-279 91h-207l-78 -77l-172 169l168 84h203v260l-131 65h-279l-135 -67l-141 -285l-148 -147l-170 -83v1299h-59l-152 76l-118 240l137 -140h133l152 76l168 -168l-168 -84h-60v-260l131 -65
h135l138 69l69 70l4 -4l66 143l147 219l150 76h151l150 -74l145 -145l-24 -25l-137 140h-121v-541h133l82 -82v-188l-94 94h-121v-475l137 -68zM1567 545v878l-117 -57l-139 -211l-72 -143l-196 -459l106 53h295zM1041 1028l-21 -22l-149 -74h-152l-123 61v-794l43 43
l142 213z" />
    <glyph glyph-name="Ka" unicode="&#x41a;" horiz-adv-x="1948" 
d="M1909 1147h-188l-80 80l-72 215l-63 63h-134l-135 -67l-69 -140l-29 17l74 147l151 76h154l4 -2l143 -72l76 -75l72 -144zM1954 219l-227 -224l-158 157l-287 716l-112 113v-610l-74 -150l-148 -147l-149 -74h-152l-149 74l-68 69h-176l94 95v176l95 -95h176l-94 -94
v-127l131 -65h133l135 135l70 209v856l-70 209l-64 63h-202l-133 -133v-133l141 -211l74 -147v-230l-154 -78h-156l-82 82v78h33v-65l62 -62h131l61 62v133l-141 211l-74 147v152l76 151l151 76h224l149 -74l76 -75l74 -150v-203h204l80 -80l287 -716l64 -64h59l65 68z
M568 1462l-48 -24l-24 -47z" />
    <glyph glyph-name="El" unicode="&#x41b;" horiz-adv-x="1590" 
d="M1551 176l-183 -181l-159 159v1003l-183 182v-1112l-73 -149l-80 -78h-82l-144 72h-206l-232 -114l217 216l150 74h151l144 -72h61l62 62v1124h-50l-133 -133v-572l-73 -149l-103 -100v309h-121l-94 -94v188l82 82h133v131l74 150l373 370l303 -303v-934l65 -131h101z
" />
    <glyph glyph-name="Em" unicode="&#x41c;" horiz-adv-x="2020" 
d="M2052 176l-182 -181l-160 159v563h-182v-492l-82 -82h-2l-221 -146l-164 163l78 78v479h-182v-490l-74 -149l-80 -78h-82l-143 72h-207l-232 -114l218 216l149 74h152l143 -72h61l62 62v1124h-49l-133 -133v-572l-74 -149l-103 -100v309h-120l-95 -94v188l82 82h133v131
l74 150l373 370l287 -287l286 287l303 -303v-934l66 -131h100zM1710 893v264l-182 182v-446h182zM1495 238v1124h-49l-133 -133v-922l66 -131h55zM1137 893v264l-182 182v-446h182z" />
    <glyph glyph-name="En" unicode="&#x41d;" horiz-adv-x="1876" 
d="M1899 1454l-172 -170l-150 150h-131l-61 -62v-858l-74 -149l-102 -101v453h-326v-486h-33v1131h-203l-139 70l-227 -113l221 219h225l140 -70l227 113l-211 -209v-479h326v274l73 150l70 67l78 80l4 2h2l143 72h152zM740 514l-74 -149l-103 -101v453h-120l-95 -94v188
l82 82h133v59l74 150l103 100v-688zM1463 170l-87 -173l-225 75h-354l-387 -96l321 198l205 74h291z" />
    <glyph glyph-name="Ocyril" unicode="&#x41e;" horiz-adv-x="1876" 
d="M1815 659l-74 -219l-72 -147l-147 -148l-146 -71l-221 -74h-147l-219 74l-148 71l-147 148l-72 147l-74 219v291l74 219l72 148l147 147l238 117l-213 -213l-72 -139l-69 -211v-426l69 -211l72 -139l137 -140l209 -69h139l209 69l137 138l138 342l-127 63h-64l-131 -65
v-492h-33v1331l-190 -127l-64 -20v-758l-73 -149l-103 -101v983l223 74l207 137v19l13 -7l71 72l158 -78l147 -147l72 -148l74 -219v-291zM1632 1026l-204 340l-115 57v-393l131 -65h64zM1639 616v377l-123 -61h-80l-123 61v-377l123 62h80z" />
    <glyph glyph-name="Pecyril" unicode="&#x41f;" horiz-adv-x="1661" 
d="M1692 160l-170 -86l-82 -79l-152 150l-366 148v997h-254v-991l-74 -149l-76 -76l-237 -116l141 140l70 138v409h-133l-82 82v188l94 -94h121v475l-197 99h283l211 69l151 76l221 -147l209 -70h158v-1081zM1352 958v336l-199 68l-198 -68v-336l131 -65h135zM1352 545v377
l-123 -62h-152l-122 62v-377l122 61h152zM1352 238v270l-131 65h-135l-131 -65v-195l340 -135z" />
    <glyph glyph-name="Er" unicode="&#x420;" horiz-adv-x="1590" 
d="M1456 221l-143 -71v-13l-12 4l-144 -144l-151 75h-123v-341h-33v1545l-182 -121v-1502l-176 -176v589l-309 -102l309 204v549h-121l-94 -94v188l82 82h133v410l-70 137l-141 141l237 -117l76 -75l74 -150v-45l190 127l297 223l301 -303v-1020zM1280 1030v127l-205 205
h-108l-84 -64v-268l131 -65h135zM1280 616v377l-123 -61h-151l-123 61v-377l123 62h151zM1280 182v398l-131 65h-135l-131 -65v-332h201z" />
    <glyph glyph-name="Es" unicode="&#x421;" horiz-adv-x="1733" 
d="M1714 1606l-118 -240l-152 -76h-151l-136 68l-59 -58v-714l-74 -150l-102 -100v909l149 76l222 221l151 -76h133zM1786 530l-117 -237l-147 -148l-148 -71l-219 -74h-219l-221 74l-219 147l-74 148l-74 219v291l74 219l72 147l147 148l238 116l-213 -213l-72 -139
l-69 -211v-282l69 -209l209 -209l209 -70h211l211 70l139 71z" />
    <glyph glyph-name="Te" unicode="&#x422;" horiz-adv-x="1805" 
d="M1811 1581l-217 -217l-150 -74h-221l-47 17l-78 -78v-787l-74 -149l-102 -100v981l149 75l70 68l-348 117h-209l-137 -70l-142 -141l119 239l152 76h293l430 -72h280zM1452 -42l-227 112l-139 -70h-226l-221 219l228 -113l139 70h225z" />
    <glyph glyph-name="Ucyril" unicode="&#x423;" horiz-adv-x="1661" 
d="M1692 1378l-164 -82v-1498l-74 -149l-153 -154l-154 76l-283 72h-489l418 104h434l205 -68l63 127v206l-133 199l-201 -66l-221 -146l-151 75l-211 69h-283l197 99v475h-121l-94 -94v188l82 82h133v410l-70 137l-141 141l237 -117l76 -75l74 -150v-991h254v999l225 74
l139 72l154 151l82 -80zM1352 1030v270l-59 58l-134 -66l-204 -69v-193l131 -65h135zM1352 616v377l-123 -61h-152l-122 61v-377l122 62h152zM1352 244v336l-131 65h-135l-131 -65v-336l198 -68z" />
    <glyph glyph-name="Ef" unicode="&#x424;" horiz-adv-x="2307" 
d="M2173 221l-143 -71v-13l-12 4l-144 -144l-151 75h-123v-341h-33v1545l-182 -121v-1502l-176 -176v589l-183 -62v-273h-32v264l-95 -31l95 61v47h-123l-152 -75l-143 144l-13 -4v13l-143 71v1020l301 303l305 -237v-1260l183 121v1135l-70 137l-141 141l237 -117l76 -75
l74 -150v-45l196 132q28 20 100.5 74.5t190.5 143.5l301 -303v-1020zM1997 1030v127l-205 205h-108l-84 -64v-268l131 -65h135zM1997 616v377l-123 -61h-151l-123 61v-377l123 62h151zM1997 182v398l-131 65h-135l-131 -65v-332h200zM994 1030v268l-84 64h-109l-205 -205
v-127l131 -65h135zM994 616v377l-123 -61h-152l-123 61v-377l123 62h152zM994 248v332l-132 65h-135l-131 -65v-398l197 66h201z" />
    <glyph glyph-name="Kha" unicode="&#x425;" horiz-adv-x="1590" 
d="M1714 1606l-118 -240l-152 -76h-154l-55 53l-225 -499l10 -23h348v-33h-334l277 -618l63 -66h132l137 140l24 -25l-151 -147l-144 -72h-153l-80 78l-246 555l-305 -638l-156 77h-133l-137 -139l119 239l151 76h154l59 -60l230 486l-51 114h-316v33h301l-244 547l-63 66
h-131l-137 -140l-25 25l146 145l149 74h154l80 -78l256 -577l294 661l156 -78h133z" />
    <glyph glyph-name="Tse" unicode="&#x426;" horiz-adv-x="1733" 
d="M1747 -56l-158 -158h-225l-139 70l-227 -113l221 219h225l139 -70l119 60l-127 191h-205l-211 -69l-151 -75l-221 146l-209 70h-158v1081l-164 82l170 86l82 80l154 -151l139 -72l225 -74v-999h254v991l74 150l76 75l237 117l-141 -141l-70 -137v-410h133l82 -82v-188
l-94 94h-121v-475l131 -66h5zM994 1030v193l-205 69l-133 66l-60 -58v-270l131 -65h135zM994 616v377l-123 -61h-152l-123 61v-377l123 62h152zM994 244v336l-132 65h-135l-131 -65v-336l199 -68z" />
    <glyph glyph-name="Che" unicode="&#x427;" horiz-adv-x="1805" 
d="M1811 1581l-142 -141l-69 -137v-1826l-176 176v1586l51 102l-178 91l-140 -70h-225l-221 219l227 -113l139 70h226l180 -180l14 31l76 75zM1241 -198h-32v270h-123l-152 -75l-149 148l-150 76v936l-205 205h-190l270 180l301 -301v-211l131 -65h135l164 82v-1245z
M1209 616v377l-123 -61h-152l-123 61v-377l123 62h152zM1209 248v332l-132 65h-135l-131 -65v-398l197 66h201z" />
    <glyph glyph-name="Sha" unicode="&#x428;" horiz-adv-x="2091" 
d="M1958 623l-94 94h-121v-475l197 -99h-283l-209 -69l-80 -79l-151 150l-205 68l-133 -66l-80 -158l-156 156l-223 74v1165l158 158l270 -180h-37v-1114h183v1136l157 158l271 -180h-37v-1114h182v991l74 150l75 75l238 117l-141 -141l-70 -137v-410h133l82 -82v-188z
M1352 965v397h-121l-61 -62v-335h182zM1352 678v254h-182v-254h182zM778 965v397h-120l-62 -62v-335h182zM1454 215h-102v430h-182v-407l131 -129zM778 678v254h-182v-254h182zM828 215h-50v430h-182v-407l64 -64l4 -2l59 -61z" />
    <glyph glyph-name="Shcha" unicode="&#x429;" horiz-adv-x="2091" 
d="M2034 -56l-158 -158h-225l-139 70l-228 -113l222 219h225l139 -70l119 60l-127 191h-205l-209 -69l-80 -79l-151 150l-205 68l-133 -66l-80 -158l-156 156l-223 74v1165l158 158l270 -180h-37v-1114h183v1136l157 158l271 -180h-37v-1114h182v991l74 150l75 75l238 117
l-141 -141l-70 -137v-410h133l82 -82v-188l-94 94h-121v-475l197 -99h-39zM1352 965v397h-121l-61 -62v-335h182zM1352 678v254h-182v-254h182zM778 965v397h-120l-62 -62v-335h182zM1454 215h-102v430h-182v-407l131 -129zM778 678v254h-182v-254h182zM828 215h-50v430
h-182v-407l64 -64l4 -2l59 -61z" />
    <glyph glyph-name="Hard" unicode="&#x42a;" horiz-adv-x="1661" 
d="M1600 215h-156l-137 -70l-150 -148l-151 75h-352l-342 -85l114 115l148 74l290 72h58v192l-70 68l-74 149v639l-131 66h-135l-151 -76l-170 170l243 82h150l149 -74l76 -78l146 -362v-776h129l53 -19v658l162 80l225 -152l76 -149v-451zM1424 678v51l-70 137l-61 62
l-123 -62v-188h254zM1424 463v182h-254v-182h254zM1424 242v188h-254v-211l125 -41z" />
    <glyph glyph-name="Yeri" unicode="&#x42b;" horiz-adv-x="2235" 
d="M2288 315l-119 -239l-151 -76h-152l-168 84l156 154v1124h-131l-140 70l-227 -113l221 219h225l140 -70l227 113l-221 -219h-62v-1120l132 -66h133zM1098 514l-74 -149l-102 -101v981l176 88v-819zM1743 371l-74 -150l-149 -147l-215 -72l-25 -15v13h-272l-219 74
l-129 71l-164 148l-74 147l-74 219v220l74 219l72 147l147 148l146 71l16 -28l-141 -72l-140 -139l-71 -140l-70 -211v-210l70 -211l69 -140l160 -139l121 -72l211 -69h268v860h164l150 -74l75 -76l74 -149v-223zM1567 307v279l-70 137l-67 68l-117 59v-803l186 123z" />
    <glyph glyph-name="Soft" unicode="&#x42c;" horiz-adv-x="1805" 
d="M1098 514l-74 -149l-102 -101v981l176 88v-819zM1743 371l-74 -150l-149 -147l-215 -72l-25 -15v13h-272l-219 74l-129 71l-164 148l-74 147l-74 219v220l74 219l72 147l147 148l146 71l16 -28l-141 -72l-140 -139l-71 -140l-70 -211v-210l70 -211l69 -140l160 -139
l121 -72l211 -69h268v860h164l150 -74l75 -76l74 -149v-223zM1567 307v279l-70 137l-67 68l-117 59v-803l186 123z" />
    <glyph glyph-name="Ecyrilrev" unicode="&#x42d;" horiz-adv-x="1446" 
d="M1524 1319l-227 113l-140 -70h-153l-221 219l227 -113l139 70h154zM1385 514l-74 -149l-102 -101v1082l102 -101l74 -149v-582zM1180 248l-88 -176h-510l-377 -94l297 196l291 74h201v196l-70 209l-64 64h-131l-77 -78l-173 170l168 84h154l80 -78l72 -147l41 -121v471
l-70 209l-68 65l-137 70h-135l-152 -76l-170 170l244 82h150l149 -74l76 -75l72 -148l73 -219v-774h154z" />
    <glyph glyph-name="Iu" unicode="&#x42e;" horiz-adv-x="2163" 
d="M2101 659l-73 -219l-72 -147l-147 -148l-158 -77l-76 77l-438 146v426h-254v-488l53 19h221l168 -84l-168 -167l-151 75h-209l-377 -94l295 196l135 45v1143h-203l-139 70l-227 -113l221 219h225l140 -70l227 113l-211 -209v-479h254v354l223 74l207 137v19l12 -7l72 72
l158 -78l147 -147l72 -148l73 -219v-291zM740 514l-74 -149l-103 -101v453h-120l-95 -94v188l82 82h133v59l74 150l103 100v-688zM1919 1028l-63 127l-140 211l-116 57v-393l131 -65h63zM1925 616v377l-123 -61h-79l-123 61v-377l123 62h79zM1567 182v1237l-191 -127
l-63 -20v-1006zM1921 582l-127 63h-63l-131 -65v-414l55 -55l129 131l72 139zM1137 750v110h-254v-110h254z" />
    <glyph glyph-name="Ia" unicode="&#x42f;" horiz-adv-x="1733" 
d="M1811 1319l-228 113l-139 -70h-225l-221 219l227 -113l139 70h225zM1743 623l-94 94h-121v-453l-102 101l-74 149v688l102 -100l74 -150v-59h133l82 -82v-188zM1170 397l-84 111l-86 141l-136 60l-126 -127l-70 -213l-74 -217l-158 -157l-182 181h105l65 66l215 358
l74 76l108 53l-251 115l-76 96l-74 147v224l76 151l156 78l151 -76l217 -145l76 -74l74 -149v-699zM1671 -22l-376 94h-209l-152 -75l-170 169l244 82h147l221 -74zM994 686v612l-201 134l-129 -66l-68 -135v-207l68 -137l205 -135l82 41l-60 -60z" />
    <glyph glyph-name="acyril" unicode="&#x430;" horiz-adv-x="1231" 
d="M1264 176l-182 -181l-160 159v55l-191 -64l-147 -148l-160 79l-76 151v152l74 149l135 134l-215 215l166 165l82 -79l139 -72l31 -8l29 8l139 72l82 79l166 -165l-78 -78v-561l61 -62h105zM922 244v549l-164 55l-176 -60h-107l260 -258l-24 -24l-131 133l-127 -127v-133
l67 -135l136 -68h65z" />
    <glyph glyph-name="be" unicode="&#x431;" horiz-adv-x="1231" 
d="M1223 1395l-209 -105h-154l-141 140l-63 -33l514 -514v-740h-158l-211 -69l-154 -77l-77 77l-138 69h-209l197 99v645l346 139l-57 55l-152 305l314 156l77 -78l138 -69h137zM994 172v627l-201 200l-197 -131v-626l137 -68l66 -68z" />
    <glyph glyph-name="ve" unicode="&#x432;" 
d="M1366 893l-196 -98v-652h-158l-211 -69l-154 -77l-77 77l-138 69h-209l197 99v989l-80 158l305 77l154 76l235 -313l-438 -219v-183l193 64l139 72l82 79l82 -79l137 -70h137zM842 1169l-197 263l-129 -33l80 -160v-192zM994 172v623l-132 65h-65l-201 -67v-551l137 -68
l66 -68z" />
    <glyph glyph-name="ge" unicode="&#x433;" horiz-adv-x="1160" 
d="M1166 27l-11 -9l-10 -16l-139 70h-135l-148 -73l-143 71l-4 -2l-4 6l-224 73v310l156 78h180l-116 116l-146 217l-117 236l138 -139h133l147 73l150 -75l225 -74v-309l-156 -78h-180l189 -189zM922 600v270l-60 58l-135 -68h-151l-148 74l2 2h-6l27 -51l141 -213
l137 -137h62zM1084 84l-158 209l-209 209h-61l-131 -66v-270l59 -57l135 67h223z" />
    <glyph glyph-name="de" unicode="&#x434;" 
d="M1366 893l-196 -98v-851l-72 -219l-150 -152l-157 -78l-78 78l-137 70h-209l209 104h151l150 -74l61 -63l127 127v135l-71 214v133l-193 -74l-139 -71l-82 -79l-82 79l-137 69h-138l197 99v651h158l211 70l153 77l78 -77l137 -70h209zM994 254v541l-138 67l-65 68
l-195 -66v-622l131 -66h66z" />
    <glyph glyph-name="ie" unicode="&#x435;" horiz-adv-x="1016" 
d="M1106 729l-510 -293v-194l131 -66h137l-202 -102l-82 -79l-82 79l-137 69h-138l197 99v647l307 80l144 71zM920 659l-201 269l-123 -62v-391z" />
    <glyph glyph-name="zhe" unicode="&#x436;" horiz-adv-x="1733" 
d="M1755 872l-176 -88l-141 144l-74 -49l19 -11l-70 -139v-350l70 -137l133 -133l131 65l16 -29l-299 -148l-153 153l-74 149v203h-111v-264l78 -78l-94 -94l-94 94l78 78v264h-111v-203l-74 -149l-153 -153l-299 148l16 29l131 -65l133 133l70 137v350l-70 139l19 11
l-74 49l-141 -144l-177 88l168 168l156 -77l219 -148l76 -149v-131h111v264l-78 78l94 94l94 -94l-78 -78v-264h111v131l76 149l219 148l155 77z" />
    <glyph glyph-name="ze" unicode="&#x437;" horiz-adv-x="1160" 
d="M1098 147l-223 -73l-152 -75l-147 73h-170l-105 -70l-16 29l219 145h223l135 -67l60 57v270l-131 66h-135l-148 -74l-180 90l180 90l144 -71l126 63v270l-59 58l-135 -68h-152l-209 105h209l148 73l151 -75l224 -74v-309l-91 -45h78l156 -78v-310z" />
    <glyph glyph-name="ii" unicode="&#x438;" 
d="M1366 893l-196 -98v-557l61 -62h105l-183 -181l-159 159v55l-193 -64l-139 -71l-82 -79l-82 79l-137 69h-138l197 99v557l-61 61h-105l182 182l160 -159v-641l131 -66h66l201 68v551l-156 77l172 170l82 -79l137 -70h137z" />
    <glyph glyph-name="iibreve" unicode="&#x439;" 
d="M998 1319l-119 -240l-156 -78l-166 82l90 181l82 -84h131zM1366 893l-196 -98v-557l61 -62h105l-183 -181l-159 159v55l-193 -64l-139 -71l-82 -79l-82 79l-137 69h-138l197 99v557l-61 61h-105l182 182l160 -159v-641l131 -66h66l201 68v551l-156 77l172 170l82 -79
l137 -70h137z" />
    <glyph glyph-name="ka" unicode="&#x43a;" horiz-adv-x="1088" 
d="M1114 0h-112l-406 541v-525h-176v557h-166l96 99l70 137v135l-70 137l-69 70l24 25l74 -74l57 -117l58 117l147 147l238 117l-213 -211l-70 -209v-37l273 205l86 -88v-156l-152 -151l-197 -66zM850 881v61l-67 66l2 2l-189 -142v-184l187 64z" />
    <glyph glyph-name="el" unicode="&#x43b;" horiz-adv-x="1231" 
d="M1295 143h-138l-137 -69l-82 -79l-172 169l156 78v608l-115 -57l-139 -281l-74 -360l-158 -157l-182 181h105l63 64l143 358l220 221l143 72l154 151l182 -182h-105l-61 -61v-557z" />
    <glyph glyph-name="em" unicode="&#x43c;" horiz-adv-x="1590" 
d="M1653 143h-137l-137 -69l-82 -79l-172 171l157 76v583l-256 -383v-288l-75 -78l-89 -87l-88 175l76 74v600l-41 -43l-141 -283l-74 -360l-158 -157l-182 181h105l63 64l143 358l449 451l88 -177l-76 -73v-299l258 387l156 155l182 -182h-104l-62 -61v-557z" />
    <glyph glyph-name="en" unicode="&#x43d;" 
d="M1366 893l-196 -98v-557l61 -62h105l-183 -181l-159 159v348h-398v-260l156 -78l-172 -169l-82 79l-137 69h-138l197 99v557l-61 61h-105l182 182l160 -159v-348h398v260l-132 65h-137l203 103l82 79l82 -79l137 -70h137z" />
    <glyph glyph-name="ocyril" unicode="&#x43e;" 
d="M1366 893l-196 -98v-652h-158l-211 -69l-154 -77l-77 77l-138 69h-209l197 99v651h158l211 70l153 77l78 -77l137 -70h209zM994 172v623l-138 67l-65 68l-195 -66v-622l137 -68l66 -68z" />
    <glyph glyph-name="pecyril" unicode="&#x43f;" 
d="M1366 893l-196 -98v-557l61 -62h105l-183 -181l-159 159v641l-132 65h-65l-201 -67v-551l156 -78l-172 -169l-82 79l-137 69h-138l197 99v557l-61 61h-105l182 182l160 -159v-56l193 64l139 72l82 79l82 -79l137 -70h137z" />
    <glyph glyph-name="er" unicode="&#x440;" 
d="M1366 893l-196 -98v-652h-158l-211 -69l-154 -77l-51 52v-243l76 -153l-252 -168v658h-197l197 99v630l-92 185l190 -94l78 -80v-56l193 64l139 72l82 79l82 -79l137 -70h137zM994 172v623l-132 65h-65l-201 -67v-551l137 -68l66 -68z" />
    <glyph glyph-name="es" unicode="&#x441;" horiz-adv-x="1016" 
d="M1223 893l-209 -105h-154l-141 140l-123 -62v-624l131 -66h137l-202 -102l-82 -79l-82 79l-137 69h-138l197 99v647l307 80l144 71l77 -77l138 -70h137z" />
    <glyph glyph-name="te" unicode="&#x442;" horiz-adv-x="1876" 
d="M1940 893l-197 -98v-557l62 -62h104l-182 -181l-160 159v641l-131 65h-66l-200 -67v-551l155 -78l-172 -169l-82 79l-161 82l84 82v557l-132 65h-65l-201 -67v-551l156 -78l-172 -169l-82 79l-137 69h-138l197 99v557l-61 61h-105l182 182l160 -159v-56l193 64l139 72
l82 79l160 -159v-56l192 64l139 72l82 79l82 -79l137 -70h138z" />
    <glyph glyph-name="ucyril" unicode="&#x443;" horiz-adv-x="1231" 
d="M1170 301l-74 -219l-72 -147l-145 -145l-219 -145l-17 28l211 142q66 97 101 149t41 59l69 282v211l-69 209l-154 229l176 88l80 -159l72 -291v-291zM879 291l-299 -296l-82 79l-162 82l84 82v421l-72 215v152l72 72l4 6l72 72l24 -25l-67 -66v-61l69 -141l74 -219v-426
l62 -62h59l137 139z" />
    <glyph glyph-name="ef" unicode="&#x444;" horiz-adv-x="1733" 
d="M1796 893l-196 -98v-652h-156l-295 -146l-51 52v-243l76 -153l-252 -168v564l-51 -52l-295 146h-156v652l-197 98h138l137 70l82 79l82 -79l260 -132v41l-92 185l190 -94l78 -80v-52l260 132l82 79l82 -79l137 -70h137zM1424 170v625l-131 65h-64l-131 -65v-553l137 -68
l66 -65zM922 242v553l-131 65h-64l-131 -65v-625l123 -61l66 65z" />
    <glyph glyph-name="kha" unicode="&#x445;" horiz-adv-x="1375" 
d="M1428 1104l-119 -240l-156 -78l-135 68l-133 -264l27 -55h241v-33h-225l96 -189l68 -67l137 -70h107l-179 -179l-157 77l-76 76l-129 260l-211 -421l-82 83h-131l-137 -139l118 239l156 78l135 -68l133 264l-26 56h-242v33h225l-96 188l-67 68l-138 69h-106l178 180
l158 -77l76 -76l129 -260l210 422l82 -84h131z" />
    <glyph glyph-name="tse" unicode="&#x446;" 
d="M1387 16l-78 -154l-156 -78l-166 82l90 179l82 -83h131l58 58l-55 111l-140 -136l-159 159v55l-193 -64l-139 -71l-82 -79l-82 79l-137 69h-138l197 99v557l-61 61h-105l182 182l160 -159v-641l131 -66h66l201 68v551l-156 77l172 170l82 -79l137 -70h137l-196 -98v-557
l61 -62h105l-19 -20z" />
    <glyph glyph-name="che" unicode="&#x447;" horiz-adv-x="1375" 
d="M1438 176l-203 -102l-82 -79l-82 79l-137 69h-137l197 99v190l-351 72l-223 74v221l-61 61h-105l182 182l160 -159v-287l64 -64l334 -65v328l-156 77l172 170l82 -79l162 -82l-84 -82v-557l131 -66h137z" />
    <glyph glyph-name="sha" unicode="&#x448;" horiz-adv-x="1876" 
d="M1940 893l-197 -98v-557l62 -62h104l-182 -181l-160 159v55l-193 -64l-139 -71l-82 -79l-84 81l-75 78v55l-193 -64l-139 -71l-82 -79l-82 79l-137 69h-138l197 99v557l-61 61h-105l182 182l160 -159v-641l131 -66h66l201 68v551l-156 77l172 170l82 -79l162 -82l-84 -82
v-557l131 -66h65l201 68v551l-156 77l172 170l82 -79l137 -70h138z" />
    <glyph glyph-name="shcha" unicode="&#x449;" horiz-adv-x="1876" 
d="M1960 16l-78 -154l-155 -78l-166 82l90 179l82 -83h131l57 58l-55 111l-139 -136l-160 159v55l-193 -64l-139 -71l-82 -79l-84 81l-75 78v55l-193 -64l-139 -71l-82 -79l-82 79l-137 69h-138l197 99v557l-61 61h-105l182 182l160 -159v-641l131 -66h66l201 68v551
l-156 77l172 170l82 -79l162 -82l-84 -82v-557l131 -66h65l201 68v551l-156 77l172 170l82 -79l137 -70h138l-197 -98v-557l62 -62h104l-18 -20z" />
    <glyph glyph-name="hard" unicode="&#x44a;" 
d="M1321 309l-235 -312l-154 75l-297 75v648l-123 61l-59 -57v-131l84 -82l-180 -90l-82 166l77 155l146 74l6 6l148 145l81 -79l162 -82l-84 -82v-199l350 -211zM1129 371l-318 190v-424l121 -31z" />
    <glyph glyph-name="yeri" unicode="&#x44b;" horiz-adv-x="1446" 
d="M1479 176l-182 -181l-160 159v641l-164 82l170 86l82 79l82 -79l170 -86l-164 -82v-557l61 -62h105zM1106 309l-235 -312l-154 75l-297 75v648l-197 98h138l137 70l82 79l82 -79l202 -103h-137l-131 -65v-195l350 -211zM914 371l-318 190v-424l121 -31z" />
    <glyph glyph-name="soft" unicode="&#x44c;" horiz-adv-x="1088" 
d="M1106 309l-235 -312l-154 75l-297 75v648l-197 98h138l137 70l82 79l82 -79l202 -103h-137l-131 -65v-195l350 -211zM914 371l-318 190v-424l121 -31z" />
    <glyph glyph-name="ecyrilrev" unicode="&#x44d;" horiz-adv-x="1160" 
d="M1223 893l-197 -98v-648l-225 -73l-154 -77l-77 77l-138 69h-209l209 105h152l149 -74l66 -68l51 17v385l-131 65h-135l-148 -73l-180 90l176 88h224l194 -129v246l-137 67l-66 68l-204 -70l-13 33l215 70l154 77l78 -77l137 -70h209z" />
    <glyph glyph-name="iu" unicode="&#x44e;" horiz-adv-x="1590" 
d="M1653 893l-197 -98v-652h-157l-211 -69l-154 -77l-227 228v277h-182v-264l65 -64l170 -86l-182 -89l-230 153v649l-92 184l191 -94l78 -80v-276h182v358h157l211 70l154 77l78 -77l137 -70h209zM1280 172v623l-137 67l-66 68l-194 -66v-622l137 -68l66 -68z" />
    <glyph glyph-name="ia" unicode="&#x44f;" horiz-adv-x="1231" 
d="M1295 143h-138l-137 -69l-82 -79l-172 169l156 78v551l-37 12l-219 -436l-72 -217l-158 -157l-182 181h105l63 64l68 202l-68 66l-74 149v152l76 152l160 79l147 -149l191 -64v56l160 159l182 -182h-105l-61 -61v-557zM854 815l-133 45h-65l-136 -67l-67 -136v-133
l65 -63l125 -64z" />
    <glyph glyph-name="pesetas" unicode="&#x20a7;" horiz-adv-x="1948" 
d="M2099 223l-73 -147l-152 -76h-82l-4 2l-143 72l-76 78l-74 221v631h-127v32h127v348l176 177v-525h271v-32h-271v-699l70 -209l64 -63h61l135 67l70 140zM1313 1016l-74 -150l-78 -75l-221 -74h-272v-553l43 -88l88 -43h68v-33h-574v33h68l88 43l43 88v1210l-43 88
l-88 43h-68v33h647l221 -74l78 -75l74 -150v-223zM1137 952v351l-68 135l-135 67h-266v-755h266l135 67z" />
    <glyph glyph-name="emptyset" unicode="&#x2205;" horiz-adv-x="1661" 
d="M1456 659l-73 -221l-150 -149l-293 -74h-147l-148 37l-127 -252h-108l137 276l-47 13l-150 149l-73 221v148l73 221l150 150l293 73h151l80 -20l119 235h109l-132 -260l113 -28l150 -150l73 -221v-148zM1280 664v139l-69 209l-125 123l-412 -824l125 -63h135l137 69
l140 138zM1002 1184l-68 35h-135l-137 -70l-140 -137l-69 -209v-139l69 -209l76 -76z" />
    <glyph glyph-name="house" unicode="&#x2302;" horiz-adv-x="1446" 
d="M1313 0h-893v596l447 446l446 -446v-596zM1209 104v480l-342 342l-342 -342v-480h684z" />
    <glyph glyph-name="uni20AC" horiz-adv-x="1445" 
d="M26 667h102v111h-119l53 105h66q6 269 201 460q196 191 465 191q277 0 477 -201v-167h-178v177h120q-179 156 -415 158l-283 -142l-140 -141l-106 -210v-125h769l-53 -105h-716v-111h661l-53 -105h-608v-125l106 -210l140 -141l283 -141q234 1 414 157h-119v177h178v-167
q-200 -200 -477 -200q-271 0 -465 190q-195 191 -201 460h-154z" />
    <glyph glyph-name="uni20AC" unicode="&#x20ac;" horiz-adv-x="1445" 
d="M26 667h102v111h-119l53 105h66q6 269 201 460q196 191 465 191q277 0 477 -201v-167h-178v177h120q-179 156 -415 158l-283 -142l-140 -141l-106 -210v-125h769l-53 -105h-716v-111h661l-53 -105h-608v-125l106 -210l140 -141l283 -141q234 1 414 157h-119v177h178v-167
q-200 -200 -477 -200q-271 0 -465 190q-195 191 -201 460h-154z" />
  </font>
</defs>
</svg>
